osu file format v14

[General]
AudioFilename: audio.ogg
AudioLeadIn: 1500
PreviewTime: 54085
Countdown: 0
SampleSet: Soft
StackLeniency: 0.9
Mode: 0
LetterboxInBreaks: 0
WidescreenStoryboard: 0

[Editor]
Bookmarks: 6984,12230,22722,27968,43706,44689,45345,46329,47312,47968
DistanceSpacing: 0.4
BeatDivisor: 16
GridSize: 32
TimelineZoom: 1.9

[Metadata]
Title:INNOCENCE (TV Size)
TitleUnicode:INNOCENCE (TV Size)
Artist:Aoi Eir
ArtistUnicode:藍井エイル
Creator:Mamiya Takuji
Version:Aincrad
Source:ソードアート・オンライン
Tags:opening anime rock j-rock jrock japanese sao alfheim sword art online alo nikolomara aishiteiru- hanabyte kyairie notabox nik theoneforce tsumugi-chan
BeatmapID:4021908
BeatmapSetID:1944151

[Difficulty]
HPDrainRate:7
CircleSize:3.9
OverallDifficulty:8.5
ApproachRate:9.1
SliderMultiplier:1.8
SliderTickRate:1

[Events]
//Background and Video events
0,0,"bg.jpg",0,0
//Break Periods
//Storyboard Layer 0 (Background)
//Storyboard Layer 1 (Fail)
//Storyboard Layer 2 (Pass)
//Storyboard Layer 3 (Foreground)
//Storyboard Layer 4 (Overlay)
//Storyboard Sound Samples

[TimingPoints]
406,315.78947368421,4,2,1,40,1,0
406,-133.333333333333,4,2,1,40,0,0
563,352.941176470588,4,2,1,40,1,0
563,-133.333333333333,4,2,1,40,0,0
915,337.078651685393,4,2,1,40,1,0
915,-133.333333333333,4,2,1,40,0,0
1576,327.868852459016,4,2,1,40,1,0
1739,327.868852459016,4,2,14,40,1,0
1739,-133.333333333333,4,2,14,40,0,0
2230,-111.111111111111,4,2,14,40,0,0
2558,-125,4,2,14,40,0,0
3050,-166.666666666667,4,2,14,40,0,0
6984,-100,4,2,14,55,0,0
7968,-153.846153846154,4,2,14,55,0,0
8296,-111.111111111111,4,2,14,55,0,0
9607,-133.333333333333,4,2,14,55,0,0
10099,-111.111111111111,4,2,14,55,0,0
12230,-100,4,2,14,65,0,0
12558,-111.111111111111,4,2,14,65,0,0
13542,-100,4,2,14,65,0,0
15181,-125,4,2,14,65,0,0
16820,-90.9090909090909,4,2,14,65,0,0
17148,-111.111111111111,4,2,14,65,0,0
18132,-125,4,2,14,65,0,0
18788,-100,4,2,14,65,0,0
20099,-200,4,2,14,65,0,0
21083,-200,4,2,14,5,0,0
21247,-200,4,2,1,5,0,0
21329,-370.37037037037,4,2,1,65,0,0
21902,-370.37037037037,4,2,14,65,0,0
22066,-142.857142857143,4,2,14,65,0,0
22722,-200,4,2,14,40,0,0
25345,-333.333333333333,4,2,14,40,0,0
26657,-166.666666666667,4,2,14,40,0,0
27148,-133.333333333333,4,2,14,40,0,0
27476,-100,4,2,14,55,0,0
27968,-125,4,2,14,60,0,0
28460,-100,4,2,14,60,0,0
28952,-125,4,2,14,60,0,0
33214,-333.333333333333,4,2,14,50,0,0
35345,-333.333333333333,4,2,1,50,0,0
36820,-333.333333333333,4,2,14,50,0,0
37066,-333.333333333333,4,2,1,50,0,0
37640,-333.333333333333,4,2,14,55,0,0
38460,-111.111111111111,4,2,14,60,0,0
38788,-125,4,2,14,60,0,0
39116,-111.111111111111,4,2,14,60,0,0
39771,-100,4,2,14,60,0,0
42394,-125,4,2,14,60,0,0
43706,-133.333333333333,4,2,14,30,0,0
44689,-133.333333333333,4,2,14,35,0,0
45345,-133.333333333333,4,2,14,40,0,0
46329,-133.333333333333,4,2,14,45,0,0
47312,-133.333333333333,4,2,14,50,0,0
47968,-71.4285714285714,4,2,14,55,0,0
48296,-125,4,2,14,55,0,0
48952,-133.333333333333,4,2,14,60,0,0
50591,-100,4,2,14,60,0,0
51575,-333.333333333333,4,2,4,60,0,0
52230,-100,4,2,14,60,0,0
54198,-100,4,2,14,70,0,1
54689,-111.111111111111,4,2,14,70,0,1
56001,-90.9090909090909,4,2,14,70,0,1
56493,-100,4,2,14,70,0,1
56820,-111.111111111111,4,2,14,70,0,1
57640,-90.9090909090909,4,2,14,70,0,1
58624,-111.111111111111,4,2,14,70,0,1
59116,-100,4,2,14,70,0,1
59443,-83.3333333333333,4,2,14,70,0,1
59935,-111.111111111111,4,2,14,70,0,1
64689,-90.9090909090908,4,2,14,70,0,1
65181,-99.9999999999999,4,2,14,70,0,1
65509,-111.111111111111,4,2,14,70,0,1
67804,-90.9090909090909,4,2,14,70,0,1
68132,-111.111111111111,4,2,14,70,0,1
69935,-90.9090909090909,4,2,14,70,0,1
70427,-111.111111111111,4,2,14,70,0,1
72230,-76.9230769230769,4,2,14,70,0,1
72558,-111.111111111111,4,2,14,70,0,1
74361,-142.857142857143,4,2,14,70,0,1
77804,-90.9090909090909,4,2,14,70,0,1
78132,-100,4,2,14,70,0,1
78460,-90.9090909090909,4,2,14,70,0,1
78788,-111.111111111111,4,2,14,70,0,1
79116,-111.111111111111,4,2,14,70,0,1
80755,-181.818181818182,4,2,14,70,0,1
81738,-68.9655172413793,4,2,4,60,0,0
82066,-68.9655172413793,4,2,14,60,0,0
83050,-83.3333333333333,4,2,14,70,0,0
83378,-90.9090909090909,4,2,14,70,0,0
83870,-111.111111111111,4,2,14,70,0,0
84198,-100,4,2,14,70,0,0
85509,-454.545454545455,4,2,14,70,0,0
85590,-434.782608695652,4,2,14,5,0,0

[Colours]
Combo1 : 254,160,163
Combo2 : 182,182,182
Combo3 : 221,221,221
Combo4 : 200,145,255
Combo5 : 255,201,119
Combo6 : 255,66,255
Combo7 : 255,151,47
Combo8 : 255,64,64

[HitObjects]
327,136,406,5,0,0:0:0:0:
378,19,563,2,0,P|382:62|397:115,1,67.5000025749208
378,19,915,2,0,L|331:7,1,33.7500012874604
190,169,1576,5,0,0:0:0:0:
190,169,1739,2,0,B|110:175|145:191|48:194,1,135.000005149842,2|2,2:1|2:2,0:0:0:0:
62,198,2230,2,0,P|42:237|44:305,1,80.9999975280763,2|0,2:2|0:0,0:0:0:0:
157,260,2558,2,0,P|192:260|227:269,1,72
198,344,2886,1,0,0:0:0:0:
198,344,3050,2,0,P|143:357|75:354,1,108,2|0,2:2|0:0,0:0:0:0:
300,316,3542,102,0,P|306:263|321:190,1,107.999996704102
260,152,4034,1,0,0:0:0:0:
260,152,4361,2,0,L|323:124,1,53.9999983520508,2|2,2:2|2:2,0:0:0:0:
413,122,4689,1,2,2:2:0:0:
413,122,4853,2,0,P|392:149|370:184,1,53.9999983520508,2|0,2:2|0:0,0:0:0:0:
337,258,5181,2,0,P|324:226|304:189,1,53.9999983520508
170,143,5509,6,0,P|183:90|188:36,2,107.999996704102,0|0|2,0:0|0:0|2:2,0:0:0:0:
121,149,6247,1,2,2:2:0:0:
121,149,6329,2,0,L|111:199,2,26.9999991760254,2|2|0,2:2|2:2|0:0,0:0:0:0:
502,372,6984,70,0,B|449:316|373:308|373:308|345:260,1,180,4|0,3:2|0:0,0:0:0:0:
198,233,7476,2,0,B|244:242|271:283|271:283|278:231|321:204,1,180
199,239,7968,38,0,P|162:265|119:269,1,87.749995983124
6,168,8296,70,0,B|98:88|175:166|158:212|118:210|105:181|121:159,1,202.499993820191,4|0,3:2|0:0,0:0:0:0:
7,156,8788,22,0,L|-11:109,1,40.4999987640381,8|0,2:3|0:0,0:0:0:0:
45,63,8952,5,0,0:0:0:0:
140,21,9116,85,4,2:3:0:0:
260,41,9279,101,4,2:3:0:0:
488,301,9607,6,0,B|412:273|434:307|344:273,1,135.000005149842,6|0,3:2|1:2,0:0:0:0:
356,277,10099,2,0,P|325:238|317:194,1,80.9999975280763,0|0,3:3|3:3,0:0:0:0:
309,130,10427,21,2,1:2:0:0:
355,51,10591,85,2,1:2:0:0:
431,40,10755,101,2,1:2:0:0:
483,61,10919,6,0,P|469:102|459:145,1,80.9999975280763,6|0,1:2|3:3,0:0:0:0:
301,341,11247,1,4,1:2:0:0:
301,341,11411,2,0,P|261:350|223:363,1,80.9999975280763,0|0,0:0|3:3,0:0:0:0:
157,322,11657,69,0,0:0:0:0:
107,291,11738,1,0,1:1:0:0:
44,296,11820,1,0,1:1:0:0:
1,336,11902,1,0,1:1:0:0:
26,347,11984,1,0,1:1:0:0:
53,344,12066,1,0,1:1:0:0:
76,331,12148,1,0,1:1:0:0:
148,276,12230,6,0,B|123:201|151:226|123:136,1,135,6|0,3:2|0:0,0:0:0:0:
125,143,12558,2,0,P|80:133|37:121,1,80.9999975280763,0|0,1:1|0:0,0:0:0:0:
148,276,12886,1,0,3:3:0:0:
216,223,13050,1,0,3:3:0:0:
216,223,13132,1,0,0:0:0:0:
215,223,13214,2,0,P|259:210|303:201,1,80.9999975280763,2|0,1:2|0:0,0:0:0:0:
377,23,13542,102,0,P|432:60|497:76,1,135,2|0,3:2|0:0,0:0:0:0:
497,76,13870,1,0,1:1:0:0:
382,212,14034,2,0,P|375:164|345:128,1,90,2|0,2:2|3:3,0:0:0:0:
186,41,14361,5,0,3:3:0:0:
33,92,14525,2,0,B|122:98|76:116|175:121,1,135,2|0,1:2|0:0,0:0:0:0:
163,120,14853,2,0,P|212:121|250:82,1,90,2|0,3:2|3:3,0:0:0:0:
339,0,15181,101,0,1:1:0:0:
339,0,15345,2,0,P|322:35|309:87,1,72,0|2,0:0|3:2,0:0:0:0:
459,227,15673,2,0,P|476:192|489:140,1,72,0|0,3:3|1:1,0:0:0:0:
417,93,16001,5,0,0:0:0:0:
417,93,16083,1,0,3:3:0:0:
417,93,16165,1,2,3:2:0:0:
350,131,16329,53,0,3:3:0:0:
336,236,16493,5,0,1:1:0:0:
414,315,16657,21,0,0:0:0:0:
493,331,16820,6,0,P|418:344|346:364,1,148.50000453186,4|0,3:1|0:0,0:0:0:0:
348,363,17148,2,0,P|308:349|268:347,1,80.9999975280763,2|0,1:2|0:0,0:0:0:0:
75,347,17476,102,0,P|122:344|198:288,1,121.499996292114,6|0,3:2|0:0,0:0:0:0:
184,306,17804,1,0,1:1:0:0:
244,198,17968,1,0,3:3:0:0:
244,198,18050,1,0,1:1:0:0:
244,198,18132,2,0,P|246:233|255:268,1,72,0|0,1:1|3:3,0:0:0:0:
417,93,18460,2,0,P|447:73|482:65,1,72,0|0,1:1|3:3,0:0:0:0:
465,241,18788,6,0,B|393:216|417:249|325:217,1,135,6|0,1:2|0:0,0:0:0:0:
332,219,19116,1,0,1:1:0:0:
182,128,19279,1,2,2:2:0:0:
134,123,19361,1,0,1:1:0:0:
101,159,19443,1,0,1:1:0:0:
65,269,19607,101,0,1:1:0:0:
101,158,19771,2,0,P|101:181|104:203,1,45,6|0,2:3|0:0,0:0:0:0:
1,318,19935,5,8,2:3:0:0:
31,351,20017,1,0,0:0:0:0:
75,347,20099,2,0,B|147:322|123:355|215:323,1,135,6|2,3:2|2:2,0:0:0:0:
287,229,20755,86,0,P|335:254|393:258,1,112.5,2|0,2:2|0:0,0:0:0:0:
261,152,21329,1,2,2:3:0:0:
261,152,21411,2,0,P|255:110|246:72,1,72.9000017797852,2|2,2:3|2:2,0:0:0:0:
320,11,22066,86,0,P|316:26|312:41,1,31.4999990386963,2|0,1:2|0:0,0:0:0:0:
23,191,22230,1,0,3:3:0:0:
492,360,22722,69,4,3:2:0:0:
492,360,24034,38,0,L|478:301,1,45,2|0,2:2|0:0,0:0:0:0:
506,247,24361,1,2,2:2:0:0:
506,247,24525,2,0,L|458:209,1,45,2|0,2:2|0:0,0:0:0:0:
368,281,24853,2,0,P|384:238|396:195,1,90,2|2,2:2|2:2,0:0:0:0:
483,15,25345,102,0,P|501:58|498:124,1,107.999996704102
300,254,26329,5,2,2:2:0:0:
300,254,26657,2,0,P|251:272|184:282,1,107.999996704102,2|0,2:2|0:0,0:0:0:0:
105,334,27148,2,0,P|141:342|176:357,1,67.5000025749208,2|0,2:2|0:0,0:0:0:0:
257,362,27476,70,0,L|236:317,1,45
35,282,27640,1,4,2:3:0:0:
174,202,27804,37,0,0:0:0:0:
35,281,27968,70,0,P|49:247|61:214,1,72,6|2,3:2|2:2,0:0:0:0:
126,51,28296,53,0,1:1:0:0:
126,51,28460,2,0,P|81:93|-1:115,1,135,2|0,2:2|0:0,0:0:0:0:
12,114,28788,1,0,3:3:0:0:
174,117,28952,2,0,P|208:126|238:145,1,72,0|0,1:1|3:3,0:0:0:0:
381,228,29279,102,0,P|428:210|485:199,1,108,2|0,2:2|0:0,0:0:0:0:
484,198,29607,2,0,P|491:163|502:129,1,72,0|2,1:1|2:2,0:0:0:0:
405,0,29935,5,0,3:3:0:0:
296,75,30099,1,0,3:3:0:0:
421,129,30263,1,2,1:2:0:0:
373,71,30427,1,0,0:0:0:0:
293,204,30591,102,0,P|300:239|311:273,1,72,2|0,3:2|0:0,0:0:0:0:
358,349,30919,1,0,1:1:0:0:
496,348,31083,2,0,B|449:336|449:336|410:357|410:357|332:336,1,144,2|0,2:2|3:3,0:0:0:0:
203,277,31575,5,2,1:2:0:0:
67,344,31738,2,0,P|82:300|96:227,1,108,2|0,3:2|0:0,0:0:0:0:
94,239,32066,2,0,L|164:211,1,72,0|0,3:3|1:1,0:0:0:0:
296,75,32394,21,0,0:0:0:0:
421,129,32558,1,0,3:3:0:0:
238,146,32722,53,0,1:1:0:0:
187,143,32804,1,0,1:1:0:0:
138,125,32886,1,0,1:1:0:0:
88,132,32968,21,0,1:1:0:0:
50,122,33050,1,0,1:1:0:0:
16,97,33132,1,0,1:1:0:0:
16,97,33214,102,0,P|11:70|6:43,1,53.9999983520508,6|0,3:2|3:3,0:0:0:0:
71,5,33870,101,0,3:3:0:0:
154,19,34198,5,0,3:3:0:0:
184,86,34525,85,2,3:2:0:0:
158,147,34853,5,2,3:2:0:0:
111,167,35181,5,0,3:3:0:0:
70,155,35509,85,2,3:3:0:0:
59,131,35837,37,2,3:2:0:0:
59,131,36165,1,0,3:3:0:0:
59,131,36493,1,0,3:3:0:0:
244,191,36820,85,2,3:2:0:0:
415,249,37148,21,2,3:2:0:0:
415,249,37476,1,0,3:3:0:0:
415,249,37804,1,0,1:1:0:0:
486,275,37968,1,0,3:3:0:0:
346,319,38132,1,0,1:1:0:0:
420,343,38296,1,0,0:0:0:0:
501,161,38460,6,0,B|496:128|496:128|474:92|480:41,1,121.499996292114,6|0,3:2|0:0,0:0:0:0:
479,42,38788,2,0,P|472:81|459:120,1,72,0|2,1:1|2:2,0:0:0:0:
301,252,39116,102,0,P|266:272|226:274,1,80.9999975280763,0|0,3:3|3:3,0:0:0:0:
184,86,39443,2,0,P|224:87|258:108,1,80.9999975280763,0|4,1:1|3:2,0:0:0:0:
306,167,39771,5,2,2:2:0:0:
167,314,39935,1,0,3:3:0:0:
167,314,40099,2,0,P|188:265|197:181,1,135,0|0,1:1|0:0,0:0:0:0:
197,184,40427,2,0,P|143:175|95:157,1,90,0|0,3:3|3:3,0:0:0:0:
37,147,40755,1,2,1:2:0:0:
8,265,40919,1,0,0:0:0:0:
8,265,41083,2,0,P|51:251|96:245,1,90,6|0,3:2|0:0,0:0:0:0:
359,192,41411,101,0,1:1:0:0:
512,248,41575,2,0,B|433:251|465:274|370:277,1,135,2|0,2:2|0:0,0:0:0:0:
381,276,41902,2,0,P|332:277|294:238,1,90,0|2,3:3|1:2,0:0:0:0:
463,112,42230,1,2,3:2:0:0:
463,111,42394,2,0,P|473:77|480:42,1,72,0|0,0:0|3:3,0:0:0:0:
368,0,42722,2,0,P|377:34|383:70,1,72,0|0,1:1|0:0,0:0:0:0:
188,216,43050,5,0,3:3:0:0:
209,209,43132,1,0,1:0:0:0:
232,201,43214,1,0,1:1:0:0:
251,191,43296,1,0,1:1:0:0:
212,262,43378,5,0,1:1:0:0:
156,248,43460,1,0,1:1:0:0:
96,246,43542,1,0,1:1:0:0:
38,251,43624,1,0,1:1:0:0:
38,251,43706,70,0,L|26:196,1,33.7500012874604,4|0,3:2|0:0,0:0:0:0:
253,99,44034,1,2,3:2:0:0:
253,99,44361,70,0,L|241:44,1,33.7500012874604,2|0,3:2|0:0,0:0:0:0:
169,59,44525,37,0,3:3:0:0:
126,51,44689,1,10,2:3:0:0:
74,36,44853,1,10,2:3:0:0:
11,11,45017,1,2,1:2:0:0:
251,191,45181,85,2,1:2:0:0:
313,175,45345,1,2,1:2:0:0:
393,150,45509,1,2,1:2:0:0:
488,108,45673,1,6,1:2:0:0:
301,252,46001,102,0,L|289:307,1,33.7500012874604,6|0,1:2|0:0,0:0:0:0:
67,346,46329,37,4,1:2:0:0:
216,308,46493,1,2,2:2:0:0:
75,310,46657,1,2,3:2:0:0:
171,250,46820,1,2,2:2:0:0:
214,128,46984,85,2,3:2:0:0:
65,45,47148,1,0,1:1:0:0:
14,109,47312,101,2,1:2:0:0:
61,223,47476,1,2,1:2:0:0:
216,308,47640,37,0,1:1:0:0:
325,100,47804,1,2,1:2:0:0:
512,232,47968,86,0,B|422:300|374:198|382:157|447:175|444:201|436:217,1,188.999994232178,6|0,3:2|0:0,0:0:0:0:
438,198,48296,2,0,B|429:221|429:221|434:243|434:243|424:271,1,72,6|8,3:2|2:3,0:0:0:0:
349,294,48542,101,8,2:3:0:0:
349,294,48624,1,6,2:3:0:0:
349,294,48706,1,8,2:3:0:0:
283,286,48788,1,8,2:3:0:0:
216,308,48870,1,8,2:3:0:0:
161,363,48952,37,4,3:2:0:0:
251,325,49116,101,2,2:2:0:0:
323,263,49279,101,2,1:2:0:0:
502,150,49443,101,2,3:2:0:0:
502,150,49607,2,0,P|492:115|485:68,1,67.5000025749208,2|0,3:2|3:3,0:0:0:0:
485,9,49935,37,2,1:2:0:0:
343,108,50099,2,0,P|376:113|408:123,1,67.5000025749208,2|0,3:2|3:3,0:0:0:0:
343,108,50427,69,2,3:2:0:0:
204,55,50591,2,0,P|274:47|336:7,1,135,2|0,1:2|3:3,0:0:0:0:
328,14,50919,1,2,3:2:0:0:
204,146,51083,1,2,3:2:0:0:
35,76,51247,1,6,1:2:0:0:
101,17,51411,5,2,2:2:0:0:
101,17,51575,2,0,P|114:49|121:77,1,53.9999983520508,6|0,3:2|0:0,0:0:0:0:
0,224,52148,5,0,0:0:0:0:
0,224,52230,2,0,P|9:244|15:266,1,45,4|0,1:2|0:0,0:0:0:0:
50,335,52394,5,0,1:1:0:0:
101,369,52476,1,0,1:1:0:0:
164,366,52558,1,8,2:3:0:0:
206,321,52640,85,8,2:3:0:0:
174,322,52722,1,4,2:3:0:0:
154,313,52804,1,4,2:3:0:0:
153,312,52886,6,0,P|144:292|138:270,1,45,4|0,3:2|0:0,0:0:0:0:
74,183,53050,1,0,3:3:0:0:
74,183,53542,86,0,P|83:162|89:140,1,45,4|0,3:1|0:0,0:0:0:0:
408,40,53706,1,0,3:3:0:0:
353,273,54034,101,2,2:2:0:0:
502,372,54198,2,0,B|449:316|373:308|373:308|345:260,1,180,6|2,3:2|1:2,0:0:0:0:
307,143,54689,2,0,P|299:187|286:230,1,80.9999975280763,2|0,2:2|3:3,0:0:0:0:
26,97,55017,6,0,P|57:71|96:67,1,80.9999975280763,2|0,3:2|1:1,0:0:0:0:
166,97,55345,1,2,3:2:0:0:
83,277,55509,2,0,P|43:272|12:247,1,80.9999975280763,0|2,0:0|3:2,0:0:0:0:
120,165,55837,101,0,1:1:0:0:
120,165,56001,2,0,P|189:140|244:91,1,148.50000453186,2|0,3:2|0:0,0:0:0:0:
244,90,56329,1,2,3:2:0:0:
389,0,56493,2,0,P|433:0|470:24,1,90,2|0,1:2|0:0,0:0:0:0:
425,164,56820,6,0,P|413:125|406:85,1,80.9999975280763,2|0,3:2|0:0,0:0:0:0:
289,221,57148,1,2,1:2:0:0:
289,221,57312,2,0,P|248:238|205:230,1,80.9999975280763,2|0,2:2|3:3,0:0:0:0:
342,162,57640,102,0,P|326:239|300:311,1,148.50000453186,2|0,3:2|0:0,0:0:0:0:
303,304,57968,1,2,3:2:0:0:
363,364,58132,1,0,0:0:0:0:
441,362,58296,1,2,3:2:0:0:
490,302,58460,1,2,1:2:0:0:
425,164,58624,5,2,3:2:0:0:
425,164,58788,2,0,P|413:125|406:85,1,80.9999975280763,0|0,0:0|3:3,0:0:0:0:
183,32,59116,2,0,P|220:7|264:7,1,90,0|0,1:1|0:0,0:0:0:0:
470,24,59443,102,0,P|386:43|317:94,1,161.999995056153,6|0,3:2|0:0,0:0:0:0:
324,85,59771,1,0,1:1:0:0:
211,232,59935,2,0,B|124:213|144:253|52:231,1,161.999995056153,2|0,2:2|3:3,0:0:0:0:
52,231,60427,6,0,P|28:199|36:147,1,80.9999975280763,2|0,1:2|0:0,0:0:0:0:
177,146,60755,1,2,3:2:0:0:
177,146,60919,2,0,P|216:139|255:127,1,80.9999975280763,0|0,3:3|1:1,0:0:0:0:
368,275,61247,102,0,B|384:303|384:303|455:308|507:366,1,161.999995056153,2|0,3:2|3:3,0:0:0:0:
286,279,61738,2,0,P|290:240|327:205,1,80.9999975280763,2|0,1:2|0:0,0:0:0:0:
507,153,62066,37,6,3:2:0:0:
456,160,62230,101,0,3:3:0:0:
385,142,62394,101,0,1:1:0:0:
324,85,62558,101,0,0:0:0:0:
305,3,62722,53,0,1:1:0:0:
305,3,62886,1,2,3:2:0:0:
441,51,63050,1,2,1:2:0:0:
205,49,63214,101,2,2:2:0:0:
205,49,63296,1,0,0:0:0:0:
205,49,63378,1,6,3:2:0:0:
60,88,63542,1,0,3:3:0:0:
29,160,63706,37,0,1:1:0:0:
211,232,63870,1,2,3:2:0:0:
77,353,64034,37,4,3:1:0:0:
3,232,64198,1,0,1:1:0:0:
192,178,64361,101,8,2:3:0:0:
186,204,64443,1,8,2:3:0:0:
178,230,64525,1,6,2:3:0:0:
168,255,64607,1,4,2:3:0:0:
135,287,64689,6,0,B|231:266|190:304|287:277,1,148.50000453186,6|0,3:2|0:0,0:0:0:0:
281,279,65017,1,2,1:2:0:0:
411,176,65181,2,0,P|455:177|492:201,1,90,2|0,2:2|3:3,0:0:0:0:
409,344,65509,2,0,P|416:304|427:265,1,80.9999975280763,2|0,3:2|1:1,0:0:0:0:
277,141,65837,102,0,P|255:84|245:24,1,121.499996292114,2|0,3:2|0:0,0:0:0:0:
245,24,66165,1,2,3:2:0:0:
183,153,66329,2,0,P|146:177|101:177,1,80.9999975280763,0|2,1:1|3:2,0:0:0:0:
57,9,66657,1,0,0:0:0:0:
57,9,66820,2,0,P|101:9|138:33,1,80.9999975280763,2|2,3:2|1:2,0:0:0:0:
342,233,67148,5,0,0:0:0:0:
342,233,67312,2,0,P|414:241|497:195,1,161.999995056153,2|2,3:2|1:2,0:0:0:0:
317,153,67804,102,0,P|300:225|278:329,1,148.50000453186,2|0,2:2|0:0,0:0:0:0:
284,297,68132,2,0,P|245:308|208:325,1,80.9999975280763,2|0,3:2|1:1,0:0:0:0:
11,229,68460,6,0,P|77:238|147:267,1,121.499996292114,2|0,3:2|0:0,0:0:0:0:
128,256,68788,1,2,3:2:0:0:
233,114,68952,1,2,1:2:0:0:
161,136,69116,1,2,3:2:0:0:
205,239,69279,1,0,0:0:0:0:
58,140,69443,101,0,3:3:0:0:
58,140,69607,2,0,P|73:104|84:60,1,80.9999975280763,0|0,1:1|0:0,0:0:0:0:
316,57,69935,6,0,P|248:64|170:21,1,148.50000453186,4|0,3:2|0:0,0:0:0:0:
178,29,70263,1,2,1:2:0:0:
282,184,70427,1,2,2:2:0:0:
282,184,70591,2,0,P|296:220|307:264,1,80.9999975280763,2|0,3:2|3:3,0:0:0:0:
459,166,70919,102,0,P|401:145|342:133,1,121.499996292114,2|0,1:2|0:0,0:0:0:0:
342,133,71247,2,0,P|329:90|301:30,1,80.9999975280763,0|2,3:3|3:2,0:0:0:0:
497,0,71575,2,0,P|497:42|473:79,1,80.9999975280763,0|2,1:1|2:2,0:0:0:0:
372,212,71902,5,0,3:3:0:0:
216,250,72066,1,2,3:2:0:0:
216,250,72230,2,0,B|232:277|232:277|305:285|357:339,1,175.499991966248,6|0,1:2|0:0,0:0:0:0:
358,340,72558,2,0,P|398:338|432:317,1,80.9999975280763,6|0,3:2|3:3,0:0:0:0:
459,166,72886,2,0,P|441:202|408:225,1,80.9999975280763,0|0,1:1|0:0,0:0:0:0:
146,311,73214,6,0,P|87:323|32:349,1,121.499996292114,0|0,1:1|0:0,0:0:0:0:
32,349,73542,1,0,1:1:0:0:
172,172,73706,1,2,3:2:0:0:
40,88,73870,1,2,1:2:0:0:
104,231,74034,1,0,3:3:0:0:
242,114,74198,5,6,1:2:0:0:
242,114,74361,2,0,B|248:78|248:78|238:58|238:58|247:17,1,94.499997116089,2|0,2:2|0:0,0:0:0:0:
329,52,74689,5,2,1:2:0:0:
329,52,74771,1,0,1:1:0:0:
329,52,74853,1,10,2:3:0:0:
329,52,74935,1,8,2:3:0:0:
391,48,75017,1,6,2:3:0:0:
455,66,75099,1,4,2:3:0:0:
496,108,75181,69,6,3:2:0:0:
423,86,75345,1,0,0:0:0:0:
364,132,75509,1,0,1:1:0:0:
441,172,75673,37,2,2:2:0:0:
489,114,75837,69,0,3:3:0:0:
426,95,76001,1,0,3:3:0:0:
375,136,76165,1,2,1:2:0:0:
145,263,76329,5,0,0:0:0:0:
145,263,76493,1,0,3:3:0:0:
277,245,76657,1,2,3:2:0:0:
314,367,76820,1,0,1:1:0:0:
261,287,76984,1,0,0:0:0:0:
120,338,77148,101,2,3:2:0:0:
211,208,77312,1,0,3:3:0:0:
380,217,77476,1,6,1:2:0:0:
228,365,77640,5,0,1:1:0:0:
45,270,77804,2,0,P|34:202|18:124,1,148.50000453186,4|0,3:2|0:0,0:0:0:0:
18,124,78132,2,0,P|58:146|102:150,1,90,2|2,1:2|2:2,0:0:0:0:
452,329,78460,54,0,P|378:331|313:366,1,148.50000453186,6|0,1:2|0:0,0:0:0:0:
313,365,78788,2,0,L|331:276,1,80.9999975280763,2|2,3:2|3:2,0:0:0:0:
341,39,79116,38,0,L|469:9,1,121.499996292114,4|0,1:2|0:0,0:0:0:0:
459,12,79443,1,0,1:1:0:0:
299,125,79607,1,2,3:2:0:0:
480,209,79771,1,4,1:2:0:0:
415,116,79935,1,2,3:2:0:0:
415,116,80099,5,0,1:1:0:0:
211,208,80263,1,2,2:2:0:0:
77,45,80427,1,6,3:2:0:0:
77,45,80755,22,0,B|68:66|68:66|73:87|73:87|63:114,1,74.2500022659302,0|0,3:3|0:0,0:0:0:0:
119,205,81083,5,8,2:3:0:0:
119,205,81165,1,0,0:0:0:0:
119,205,81247,1,8,2:3:0:0:
119,205,81329,1,0,0:0:0:0:
119,205,81411,1,0,1:1:0:0:
177,179,81493,1,0,0:0:0:0:
248,179,81575,1,2,1:2:0:0:
316,220,81657,1,0,0:0:0:0:
346,299,81738,101,6,3:2:0:0:
256,192,81820,12,2,82722,1:2:0:0:
487,357,83050,6,0,P|409:350|342:293,1,161.999995056153,4|0,3:2|0:0,0:0:0:0:
345,298,83378,2,0,P|299:292|278:242,1,99.0000030212403,0|0,1:1|0:0,0:0:0:0:
387,133,83707,1,0,3:3:0:0:
387,133,83870,2,0,P|394:171|406:212,1,80.9999975280763,0|0,3:3|1:1,0:0:0:0:
114,151,84198,2,0,P|135:93|146:13,1,135,4|0,3:2|0:0,0:0:0:0:
145,20,84525,2,0,L|234:0,1,90,0|0,3:3|1:1,0:0:0:0:
162,225,84853,22,0,B|109:169|33:161|33:161|5:113,1,180,4|0,3:2|3:3,0:0:0:0:
16,132,85345,1,4,1:2:0:0:
277,247,85509,70,0,B|240:298|248:368|248:368|200:326|128:331,1,257.400007855225,4|0,3:2|0:0,0:0:0:0:
