osu file format v14

[General]
AudioFilename: INNOCENCE (TV Size Ver.).mp3
AudioLeadIn: 0
PreviewTime: 54308
Countdown: 0
SampleSet: None
StackLeniency: 0.7
Mode: 0
LetterboxInBreaks: 0
WidescreenStoryboard: 0

[Editor]
Bookmarks: 2095,7340,12586,23078,28324,33570,38816,54554,83406,89144
DistanceSpacing: 1
BeatDivisor: 4
GridSize: 32
TimelineZoom: 1.4

[Metadata]
Title:INNOCENCE (TV Size Ver.)
TitleUnicode:INNOCENCE (TV Size Ver.)
Artist:Aoi Eir
ArtistUnicode:藍井エイル
Creator:Xinying
Version:Easy
Source:ソードアート・オンライン
Tags:Sword Art Online SAO ALfheim Online ALO OP Opening 2 2nd ソードアート・オンライン Chocox del05
BeatmapID:1247745
BeatmapSetID:308302

[Difficulty]
HPDrainRate:2
CircleSize:3
OverallDifficulty:2
ApproachRate:2
SliderMultiplier:0.849999999999999
SliderTickRate:1

[Events]
//Background and Video events
0,0,"BG.jpg",0,0
//Break Periods
2,23078,26764
//Storyboard Layer 0 (Background)
//Storyboard Layer 1 (Fail)
//Storyboard Layer 2 (Pass)
//Storyboard Layer 3 (Foreground)
//Storyboard Sound Samples

[TimingPoints]
1932,327.868852459016,4,2,1,50,1,0
2095,327.868852459016,4,2,1,50,1,0
2095,-100,4,2,1,50,0,0
7340,-100,4,2,1,60,0,0
9963,-100,4,2,1,40,0,0
10291,-100,4,2,1,50,0,0
10619,-100,4,2,1,60,0,0
10947,-100,4,2,1,70,0,0
11275,-100,4,2,1,80,0,0
12586,-100,4,2,1,75,0,0
20455,-100,4,2,1,60,0,0
23078,-100,4,2,1,30,0,0
27832,-100,4,2,1,50,0,0
28324,-100,4,2,1,70,0,0
33570,-100,4,2,1,50,0,0
38160,-100,4,2,1,60,0,0
38816,-100,4,2,1,70,0,0
44062,-100,4,2,1,50,0,0
44717,-100,4,2,1,60,0,0
45373,-100,4,2,1,70,0,0
46029,-100,4,2,1,80,0,0
46685,-100,4,2,1,50,0,0
47340,-100,4,2,1,60,0,0
47996,-100,4,2,1,70,0,0
48652,-100,4,2,1,80,0,0
49308,-100,4,2,1,65,0,0
51931,-100,4,2,1,65,0,0
53242,-100,4,2,1,70,0,0
53898,-100,4,2,1,80,0,0
54554,-100,4,2,1,75,0,1
64881,-100,4,2,1,75,0,0
65045,-100,4,2,1,75,0,1
82094,-100,4,2,1,75,0,0
83406,-100,4,2,1,70,0,0
87340,-100,4,2,1,60,0,0
87668,-100,4,2,1,50,0,0
87996,-100,4,2,1,40,0,0
88324,-100,4,2,1,30,0,0
88652,-100,4,2,1,20,0,0
88980,-100,4,2,1,10,0,0
89144,-100,4,2,1,5,0,0

[Colours]
Combo1 : 196,255,196
Combo2 : 147,201,255

[HitObjects]
64,320,2095,6,0,B|171:246|287:372|401:302,2,340,2|2|2,0:0|0:0|0:0,0:0:0:0:
256,39,6029,1,0,0:0:0:0:
431,329,7340,6,0,P|455:277|426:203,2,127.5,6|2|2,3:2|0:0|0:0,0:0:0:0:
370,268,8652,2,0,L|238:268,2,127.5,6|10|2,3:2|0:0|3:2,0:0:0:0:
370,182,9963,6,0,B|305:181|305:181|263:159|263:159|196:159,1,170,6|0,3:2|3:2,0:0:0:0:
136,209,10947,1,10,0:0:0:0:
74,150,11275,2,0,L|85:64,1,84.9999999999999,14|14,0:0|0:0,0:0:0:0:
163,33,11931,2,0,P|205:21|253:35,1,84.9999999999999,0|8,3:2|0:0,0:0:0:0:
300,93,12586,6,0,B|330:189|330:189|294:354,1,255,6|10,3:2|0:0,0:0:0:0:
212,333,13898,2,0,P|155:314|83:335,2,127.5,2|2|10,3:2|0:0|0:0,0:0:0:0:
297,339,15209,2,0,B|363:339|363:339|417:315|417:315|471:315,2,170,2|2|2,3:2|3:2|3:2,0:0:0:0:
240,274,16849,1,8,0:0:0:0:
188,206,17176,2,0,L|103:206,1,84.9999999999999,0|10,3:2|0:0,0:0:0:0:
82,288,17832,6,0,P|29:246|126:125,1,255,14|8,2:0|0:0,0:0:0:0:
199,107,19144,2,0,B|259:121|259:121|340:105,2,127.5,14|2|10,0:0|3:2|0:0,0:0:0:0:
143,43,20455,1,6,3:2:0:0:
256,192,20537,12,10,22586,0:0:0:0:
58,308,28324,6,0,B|151:274|151:274|308:274,1,255,6|8,3:2|0:0,0:0:0:0:
369,215,29635,2,0,P|392:284|363:340,2,127.5,2|2|10,0:0|0:0|0:0,0:0:0:0:
287,190,30947,2,0,P|335:135|398:132,1,127.5,6|2,3:2|0:0,0:0:0:0:
306,274,32094,2,0,L|160:274,1,127.5,6|8,3:2|0:0,0:0:0:0:
114,330,32914,2,0,P|93:282|104:234,1,84.9999999999999,0|8,3:2|3:2,0:0:0:0:
154,187,33570,6,0,B|229:187|229:187|330:155|330:155|404:155,1,255,4|0,3:2|3:2,0:0:0:0:
408,70,34881,2,0,P|479:117|405:240,1,255,0|0,3:2|3:2,0:0:0:0:
331,274,36193,2,0,B|251:333|156:222|86:268,1,255,0|0,3:2|3:2,0:0:0:0:
3,283,37504,2,0,L|15:181,1,84.9999999999999,0|0,3:2|3:2,0:0:0:0:
91,165,38160,2,0,L|79:63,1,84.9999999999999,8|8,0:0|0:0,0:0:0:0:
12,29,38816,6,0,B|89:57|89:57|265:30,1,255,6|8,3:2|0:0,0:0:0:0:
332,74,40127,2,0,L|464:74,2,127.5,2|2|10,0:0|0:0|0:0,0:0:0:0:
271,134,41439,2,0,P|248:201|280:262,1,127.5,6|2,3:2|0:0,0:0:0:0:
409,345,42586,2,0,B|354:362|354:362|280:349,1,127.5,2|8,3:2|0:0,0:0:0:0:
213,304,43406,2,0,P|170:285|118:293,1,84.9999999999999,0|8,3:2|3:2,0:0:0:0:
80,354,44062,6,0,L|89:181,2,170,4|2|8,3:2|3:2|0:0,0:0:0:0:
165,352,45701,1,10,0:0:0:0:
229,296,46029,2,0,L|325:296,1,84.9999999999999,6|6,3:2|3:2,0:0:0:0:
389,255,46685,6,0,B|421:195|421:195|406:94,2,170,4|2|8,3:2|3:2|2:0,0:0:0:0:
315,211,48324,1,14,0:0:0:0:
262,278,48652,2,0,L|168:278,1,84.9999999999999,6|10,3:2|3:2,0:0:0:0:
139,354,49308,6,0,P|93:296|133:204,2,170,4|2|0,3:2|3:2|3:2,0:0:0:0:
211,308,50947,2,0,P|257:290|308:298,1,84.9999999999999,10|2,0:0|3:2,0:0:0:0:
370,325,51603,1,10,0:0:0:0:
434,269,51931,6,0,L|443:94,2,170,4|8|2,3:2|0:0|3:2,0:0:0:0:
278,338,53898,1,2,3:2:0:0:
112,297,54554,6,0,B|87:224|87:224|128:95,1,212.5,6|2,3:2|3:2,0:0:0:0:
198,48,55701,2,0,P|249:60|295:46,1,84.9999999999999,2|2,0:0|3:2,0:0:0:0:
361,26,56357,2,0,P|388:86|368:155,1,127.5,2|10,3:2|0:0,0:0:0:0:
323,211,57176,6,0,B|263:196|263:196|182:196,1,127.5,2|2,3:2|0:0,0:0:0:0:
133,252,57996,2,0,P|121:290|131:336,1,84.9999999999999,2|2,3:2|3:2,0:0:0:0:
210,360,58652,2,0,L|346:360,1,127.5,2|0,3:2|0:0,0:0:0:0:
417,330,59472,1,10,0:0:0:0:
351,276,59799,6,0,P|405:246|476:270,2,127.5,6|2|10,3:2|0:0|0:0,0:0:0:0:
337,360,61111,2,0,P|284:329|269:255,2,127.5,2|2|10,3:2|3:2|0:0,0:0:0:0:
351,276,62422,6,0,L|353:186,1,84.9999999999999,6|8,3:2|0:0,0:0:0:0:
353,105,63078,2,0,P|309:89|256:101,1,84.9999999999999,8|10,0:2|0:0,0:0:0:0:
225,165,63734,2,0,P|154:189|81:123,1,170,4|0,3:2|3:2,0:0:0:0:
99,50,64717,1,10,3:2:0:0:
164,106,65045,6,0,L|149:322,1,212.5,6|2,3:2|3:2,0:0:0:0:
215,371,66193,2,0,P|264:379|302:365,1,84.9999999999999,2|2,3:2|3:2,0:0:0:0:
336,292,66849,2,0,P|311:243|330:171,1,127.5,2|10,3:2|0:0,0:0:0:0:
385,113,67668,6,0,P|329:89|258:124,1,127.5,2|2,3:2|0:0,0:0:0:0:
189,82,68488,1,2,3:2:0:0:
116,127,68816,2,0,L|86:266,1,127.5,2|10,3:2|0:0,0:0:0:0:
64,332,69635,2,0,P|102:337|152:310,1,84.9999999999999,0|10,0:0|0:0,0:0:0:0:
226,338,70291,6,0,B|295:338|295:338|345:314|345:314|408:314,1,170,4|2,3:2|3:2,0:0:0:0:
469,345,71275,1,10,0:0:0:0:
457,262,71603,2,0,L|448:165,1,84.9999999999999,0|8,3:2|0:0,0:0:0:0:
364,181,72258,2,0,L|373:83,1,84.9999999999999,0|10,3:2|0:0,0:0:0:0:
441,46,72914,6,0,P|389:67|278:31,1,170,6|8,3:2|0:0,0:0:0:0:
199,26,73898,1,8,0:0:0:0:
133,77,74226,2,0,P|117:127|135:171,1,84.9999999999999,10|14,0:0|0:0,0:0:0:0:
196,203,74881,2,0,P|204:244|188:282,1,84.9999999999999,0|2,3:2|3:2,0:0:0:0:
133,348,75537,6,0,B|197:322|197:322|303:323,1,170,4|0,3:2|3:2,0:0:0:0:
381,340,76521,1,8,0:0:0:0:
445,284,76849,2,0,P|475:219|436:120,1,170,0|2,3:2|3:2,0:0:0:0:
381,74,77832,1,10,0:0:0:0:
327,139,78160,6,0,L|155:139,1,170,4|10,3:2|0:0,0:0:0:0:
75,115,79144,1,10,0:0:0:0:
96,198,79472,2,0,L|86:284,1,84.9999999999999,8|8,0:0|0:0,0:0:0:0:
151,336,80127,2,0,P|196:347|246:333,1,84.9999999999999,8|8,0:0|0:0,0:0:0:0:
285,271,80783,6,0,P|378:242|452:275,2,170,2|2|6,3:2|3:2|3:2,0:0:0:0:
43,31,83406,6,0,L|32:163,1,127.5,6|2,3:2|0:0,0:0:0:0:
116,306,84554,2,0,B|183:305|183:305|221:284|221:284|280:284,2,170,6|6|6,3:2|3:2|3:2,0:0:0:0:
256,192,85947,12,0,89144,0:0:0:0:
