osu file format v14

[General]
AudioFilename: Aoi eir IGNITE.mp3
AudioLeadIn: 0
PreviewTime: 53586
Countdown: 0
SampleSet: Soft
StackLeniency: 0.7
Mode: 0
LetterboxInBreaks: 0
WidescreenStoryboard: 0

[Editor]
DistanceSpacing: 1.1
BeatDivisor: 4
GridSize: 32
TimelineZoom: 2.699999

[Metadata]
Title:IGNITE (TV size ver.)
TitleUnicode:IGNITE (TV size ver.)
Artist:Aoi Eir
ArtistUnicode:藍井エイル
Creator:SoGa
Version:Insane
Source:ソードアート・オンラインⅡ
Tags:SWORD ART ONLINE II sao 2nd season opening Kawaiwkyik Moecho sammy711 yf_bmp wkyik Gaia
BeatmapID:501865
BeatmapSetID:213483

[Difficulty]
HPDrainRate:7
CircleSize:4
OverallDifficulty:7
ApproachRate:9
SliderMultiplier:1.7
SliderTickRate:2

[Events]
//Background and Video events
0,0,"BG.jpg",0,0
//Break Periods
//Storyboard Layer 0 (Background)
//Storyboard Layer 1 (Fail)
//Storyboard Layer 2 (Pass)
//Storyboard Layer 3 (Foreground)
//Storyboard Sound Samples

[TimingPoints]
1481,350.877192982456,4,2,1,50,1,0
1481,-133.333333333333,4,2,1,50,0,0
9902,-100,4,2,1,50,0,0
12709,-100,4,2,2,60,0,0
29551,-100,4,2,1,50,0,0
37621,-100,4,2,1,70,0,0
52182,-100,4,3,1,60,0,0
54288,-200,4,2,1,50,0,0
54814,-100,4,2,1,50,0,1
64638,-100,4,2,1,50,0,0
65516,-100,4,2,1,30,0,0
66042,-100,4,2,1,50,0,1
73937,-100,4,2,1,30,0,1
74463,-100,4,2,1,50,0,1
75866,-100,4,2,1,60,0,1
77270,-100,4,2,1,50,0,0

[Colours]
Combo1 : 255,100,180
Combo2 : 70,105,255
Combo3 : 180,100,255
Combo4 : 240,192,160

[HitObjects]
328,164,1481,6,0,B|384:174|408:120|408:120|423:146,1,127.500004863739,2|0,0:0|0:0,0:0:0:0:
184,164,2182,2,0,B|128:174|104:120|104:120|89:146,1,127.500004863739,2|0,0:0|0:0,0:0:0:0:
198,296,2884,5,2,0:0:0:0:
303,297,3059,1,0,0:0:0:0:
396,248,3235,2,0,L|380:176,1,63.7500024318696
494,113,3586,2,0,L|484:176,1,63.7500024318696
392,104,3937,2,0,L|376:32,1,63.7500024318696
265,91,4288,6,0,B|259:132|239:160|239:160|208:163|169:141,1,127.500004863739,2|0,0:0|0:0,0:0:0:0:
31,207,4989,2,0,B|76:210|92:234|92:234|95:269|84:291,1,127.500004863739,2|0,0:0|0:0,0:0:0:0:
225,307,5691,6,0,B|258:322|297:303|297:303|353:304,1,127.500004863739,2|0,0:0|0:0,0:0:0:0:
383,157,6393,2,0,B|348:156|348:156|308:180|259:159,1,127.500004863739,2|0,0:0|0:0,0:0:0:0:
475,56,7095,6,0,B|488:90|482:113|482:113|462:145|476:186,1,127.500004863739,2|0,0:0|0:0,0:0:0:0:
383,281,7796,2,0,B|396:247|390:224|390:224|370:192|384:150,1,127.500004863739,2|0,0:0|0:0,0:0:0:0:
316,40,8498,6,0,B|275:46|254:36|254:36|232:47|180:42,1,127.500004863739,2|0,0:0|0:0,0:0:0:0:
99,133,9024,1,0,0:0:0:0:
195,199,9200,2,0,B|237:193|257:203|257:203|279:192|331:197,1,127.500004863739,2|0,0:0|0:0,0:0:0:0:
217,309,9726,1,0,0:0:0:0:
285,167,9902,5,4,0:0:0:0:
450,256,10077,2,0,P|406:264|350:252,1,85
230,232,10428,1,0,0:0:0:0:
334,335,10603,2,0,P|359:297|366:255,1,85,2|0,0:0|0:0,0:0:0:0:
434,356,10954,1,0,0:0:0:0:
377,205,11130,6,0,B|385:145|385:145|337:189|281:165,1,170
175,119,11656,1,0,0:0:0:0:
312,46,11831,1,0,0:0:0:0:
385,145,12007,1,8,0:0:0:0:
187,168,12182,1,8,0:0:0:0:
187,168,12533,1,2,0:0:0:0:
163,156,12621,1,2,0:0:0:0:
136,145,12709,6,0,L|157:63,1,85,4|0,0:0|0:0,0:0:0:0:
52,230,13059,1,8,0:0:0:0:
206,302,13235,1,0,0:0:0:0:
206,302,13323,1,0,0:0:0:0:
206,302,13410,2,0,P|250:309|298:299,1,85,2|0,0:0|0:0,0:0:0:0:
362,180,13761,2,0,P|318:173|270:183,1,85,8|0,0:0|0:0,0:0:0:0:
470,222,14112,6,0,P|477:178|467:130,1,85,4|0,0:0|0:0,0:0:0:0:
271,101,14463,1,8,0:0:0:0:
348,232,14638,1,0,0:0:0:0:
198,218,14814,2,0,L|93:229,1,85,2|0,0:0|0:0,0:0:0:0:
19,297,15165,2,0,P|2:260|0:217,1,85,8|0,0:0|0:0,0:0:0:0:
98,73,15516,6,0,B|89:116|109:153|109:153|155:141|200:144,1,170,4|8,0:0|0:0,0:0:0:0:
425,102,16217,1,2,0:0:0:0:
512,171,16393,1,0,0:0:0:0:
512,171,16480,1,0,0:0:0:0:
512,171,16568,1,8,0:0:0:0:
431,232,16744,1,0,0:0:0:0:
130,329,17095,5,0,0:0:0:0:
186,250,17270,1,0,0:0:0:0:
240,323,17445,1,0,0:0:0:0:
106,170,17621,1,2,0:0:0:0:
288,165,17796,1,8,0:0:0:0:
288,165,18323,6,0,P|332:172|375:160,1,85,2|0,0:0|0:0,0:0:0:0:
428,99,18673,1,0,0:0:0:0:
473,168,18849,2,0,L|452:252,1,85
255,335,19375,2,0,L|242:247,1,85
178,180,19726,6,0,L|165:96,1,85
98,230,20077,1,0,0:0:0:0:
35,325,20252,2,0,P|117:319|209:306,1,170
368,198,20954,1,2,0:0:0:0:
368,198,21130,5,2,0:0:0:0:
255,77,21480,2,0,P|212:89|186:124,1,85
368,198,21831,2,0,P|400:171|410:130,1,85
254,154,22182,2,0,P|256:240|317:309,1,170
298,41,22884,2,0,P|212:43|143:104,1,170
93,253,23586,1,0,0:0:0:0:
222,323,23937,6,0,B|305:345|304:298|403:315,1,170,2|0,0:0|0:0,0:0:0:0:
167,157,24463,1,0,0:0:0:0:
265,223,24638,2,0,B|314:209|314:209|383:233|441:209,1,170,2|0,0:0|0:0,0:0:0:0:
250,67,25165,1,0,0:0:0:0:
250,67,25340,5,2,0:0:0:0:
250,67,25691,2,0,L|222:159,1,85,2|0,0:0|0:0,0:0:0:0:
101,235,26042,2,0,L|75:145,1,85,2|0,0:0|0:0,0:0:0:0:
270,253,26393,2,0,L|235:342,1,85,2|0,0:0|0:0,0:0:0:0:
350,238,26744,6,0,B|399:249|432:241|432:241|429:199|440:141,1,170,2|0,0:0|0:0,0:0:0:0:
382,78,27270,1,0,0:0:0:0:
313,141,27445,2,0,P|222:147|136:147,1,170
266,331,28147,6,0,P|291:301|297:250,1,85
181,235,28497,1,0,0:0:0:0:
95,341,28673,2,0,P|85:259|82:166,1,170
307,75,29375,5,0,0:0:0:0:
307,75,29462,1,0,0:0:0:0:
307,75,29551,2,0,P|275:107|221:116,1,85,4|0,0:0|0:0,0:0:0:0:
131,113,29902,2,0,L|39:105,1,85,8|0,0:0|0:0,0:0:0:0:
114,277,30252,2,0,P|144:242|189:236,1,85,2|0,0:0|0:0,0:0:0:0:
288,243,30603,2,0,L|380:251,1,85,8|0,0:0|0:0,0:0:0:0:
213,123,30954,5,2,0:0:0:0:
179,305,31129,1,0,0:0:0:0:
256,220,31305,1,8,0:0:0:0:
99,189,31480,1,0,0:0:0:0:
256,220,31656,1,2,0:0:0:0:
99,189,31831,1,0,0:0:0:0:
256,220,32007,2,0,P|304:226|345:223,1,85,8|0,0:0|0:0,0:0:0:0:
453,313,32358,5,4,0:0:0:0:
338,246,32533,1,0,0:0:0:0:
453,180,32709,1,8,0:0:0:0:
376,312,32884,1,0,0:0:0:0:
376,180,33059,1,2,0:0:0:0:
491,246,33235,1,0,0:0:0:0:
295,313,33410,2,0,P|252:315|204:302,1,85,12|0,0:0|0:0,0:0:0:0:
88,180,33761,6,0,P|128:204|148:236,1,85
49,281,34112,1,8,0:0:0:0:
216,136,34288,1,8,0:3:0:0:
216,136,34463,2,0,L|235:219,1,85,2|0,0:0|0:0,0:0:0:0:
320,56,34814,2,0,L|328:144,1,85
408,336,35165,6,0,L|418:252,2,85
413,159,35691,2,0,P|461:173|496:201,1,85,2|0,0:0|0:0,0:0:0:0:
329,242,36042,2,0,P|279:246|236:232,1,85,2|0,0:0|0:0,0:0:0:0:
149,363,36393,1,0,0:0:0:0:
149,363,36480,1,0,0:0:0:0:
149,363,36568,6,0,P|138:268|79:226,1,170,2|0,1:0|0:0,0:0:0:0:
91,63,37095,1,0,0:0:0:0:
159,107,37270,2,0,P|130:134|72:146,1,85,2|0,0:0|0:0,0:0:0:0:
232,54,37621,2,0,L|330:65,1,85,8|0,0:0|0:0,0:0:0:0:
339,79,37884,1,0,0:0:0:0:
372,95,37972,6,4,P|399:164|367:256,1,170,4|8,0:0|0:0,0:0:0:0:
159,194,38498,2,0,P|172:111|233:54,1,170,4|0,0:0|0:0,0:0:0:0:
218,268,39024,2,0,P|126:284|73:237,1,170,4|0,0:0|0:0,0:0:0:0:
272,208,39551,2,0,P|292:240|292:288,1,85,8|0,0:0|0:0,0:0:0:0:
208,160,39902,5,0,0:0:0:0:
368,158,40077,1,8,0:0:0:0:
288,20,40252,1,0,0:0:0:0:
286,156,40428,1,8,0:0:0:0:
344,88,40603,1,0,0:0:0:0:
231,85,40779,6,0,L|140:85,1,85,4|0,0:0|0:0,0:0:0:0:
54,322,41305,2,0,L|139:323,1,85,4|0,0:0|0:0,0:0:0:0:
132,192,41831,2,0,L|48:192,1,85,4|0,0:0|0:0,0:0:0:0:
287,252,42358,5,0,0:0:0:0:
244,180,42533,2,0,P|288:172|328:180,1,85,8|0,0:0|0:0,0:0:0:0:
330,324,42884,2,0,P|290:332|246:324,1,85,8|0,0:0|0:0,0:0:0:0:
410,280,43235,2,0,P|422:324|410:368,1,85,8|0,0:0|0:0,0:0:0:0:
494,181,43586,6,0,L|494:94,1,85,4|0,0:0|0:0,0:0:0:0:
244,96,44112,2,0,L|244:181,1,85,4|0,0:0|0:0,0:0:0:0:
372,110,44638,2,0,L|372:25,1,85,4|0,0:0|0:0,0:0:0:0:
304,212,45165,5,2,0:0:0:0:
372,110,45340,1,8,0:0:0:0:
245,97,45516,1,8,0:3:0:0:
245,97,45603,1,8,0:3:0:0:
245,97,45691,1,8,0:3:0:0:
140,136,45866,1,0,0:0:0:0:
204,248,46042,1,8,0:0:0:0:
88,232,46217,1,0,0:0:0:0:
88,232,46393,6,0,B|48:256|27:298|27:298|79:299|119:319,1,170,4|8,0:0|0:0,0:0:0:0:
250,342,46919,1,0,0:0:0:0:
345,266,47095,2,0,B|380:240|420:256|420:256|464:260|508:216,1,170,2|8,0:0|0:0,0:0:0:0:
512,112,47621,1,0,0:0:0:0:
406,64,47796,6,0,L|350:72,1,42.5,2|0,0:0|0:0,0:0:0:0:
288,80,47972,1,0,0:0:0:0:
204,233,48147,2,0,P|252:241|292:221,1,85,8|0,0:0|0:0,0:0:0:0:
308,214,48410,1,0,0:0:0:0:
331,186,48498,2,0,L|323:86,1,85,2|0,0:0|0:0,0:0:0:0:
204,233,48849,1,8,0:0:0:0:
136,48,49200,6,0,B|100:64|88:104|88:104|68:112|68:112|60:156|4:172,1,170,2|8,0:0|0:0,0:0:0:0:
192,140,49726,1,0,0:0:0:0:
4,248,49902,2,0,P|44:248|88:220,1,85,2|0,0:0|0:0,0:0:0:0:
192,140,50252,1,8,0:0:0:0:
268,300,50428,1,0,0:0:0:0:
144,243,50603,5,4,0:0:0:0:
273,254,50779,1,0,0:0:0:0:
187,360,50954,1,8,0:0:0:0:
71,225,51130,5,0,0:0:0:0:
181,181,51305,1,2,0:0:0:0:
226,291,51480,1,0,0:0:0:0:
116,336,51656,1,8,0:0:0:0:
264,184,51831,2,0,P|308:196|340:228,1,85,0|2,0:0|0:0,0:0:0:0:
472,181,52182,5,6,0:3:0:0:
472,181,52270,1,2,0:0:0:0:
472,181,52358,2,0,L|432:164,1,42.5,8|8,0:0|0:0,0:0:0:0:
356,56,52533,2,0,L|343:99,1,42.5,8|8,0:0|0:0,0:0:0:0:
264,184,52709,2,0,L|240:140,1,42.5,8|8,0:0|0:0,0:0:0:0:
149,56,52884,2,0,L|128:98,1,42.5,8|8,0:0|0:0,0:0:0:0:
51,186,53059,2,0,L|72:230,1,42.5,8|8,0:0|0:0,0:0:0:0:
116,336,53235,1,4,0:0:0:0:
141,239,54112,5,8,0:3:0:0:
141,239,54288,2,0,L|111:136,1,106.25,8|0,0:3|0:0,0:0:0:0:
99,112,54814,6,0,B|157:50|257:58,1,170,4|8,0:0|0:0,0:0:0:0:
370,123,55340,1,0,0:0:0:0:
212,177,55516,1,2,0:0:0:0:
253,57,55691,1,0,0:0:0:0:
333,211,55866,2,0,B|393:223|434:188|434:188|509:191,2,170,8|4|8,0:0|0:0|0:0,0:0:0:0:
128,176,56744,5,0,0:0:0:0:
40,288,56919,1,2,0:0:0:0:
128,176,57095,1,0,0:0:0:0:
176,320,57270,1,8,0:0:0:0:
128,176,57445,1,0,0:0:0:0:
252,248,57621,6,0,P|320:260|420:220,1,170,4|8,0:0|0:0,0:0:0:0:
468,132,58147,1,0,0:0:0:0:
384,48,58323,2,0,P|296:40|212:84,1,170,2|8,0:0|0:0,0:0:0:0:
176,320,58848,1,0,0:0:0:0:
48,176,59024,6,0,B|89:186|132:175|132:175|136:226|122:273,1,170,4|8,0:0|0:0,0:0:0:0:
91,75,59551,1,0,0:0:0:0:
251,295,59726,2,0,B|287:296|310:273|310:273|352:293|415:276,1,170,4|8,0:0|0:0,0:0:0:0:
173,186,60252,1,0,0:0:0:0:
149,178,60340,1,0,0:0:0:0:
125,166,60428,6,0,L|118:264,1,85,4|0,0:0|0:0,0:0:0:0:
365,154,60779,2,0,L|372:52,1,85,8|0,0:0|0:0,0:0:0:0:
419,267,61130,2,0,P|372:279|331:274,1,85,2|0,0:0|0:0,0:0:0:0:
79,95,61480,2,0,P|124:84|167:94,1,85,8|0,0:0|0:0,0:0:0:0:
336,275,61831,6,0,P|257:303|175:283,1,170,4|8,0:0|0:0,0:0:0:0:
57,202,62358,1,0,0:0:0:0:
151,156,62533,1,2,0:0:0:0:
93,307,62709,1,0,0:0:0:0:
241,182,62884,2,0,P|283:163|326:170,1,85,8|0,0:0|0:0,0:0:0:0:
339,178,63147,1,0,0:0:0:0:
362,188,63235,6,0,L|370:99,2,85,4|0|8,0:0|0:0|0:0,0:0:0:0:
474,273,63761,2,0,L|484:366,2,85
449,90,64288,1,8,0:0:0:0:
387,265,64463,6,0,P|381:310|347:345,2,85,8|2|8,0:0|0:0|0:0,0:0:0:0:
220,127,64989,1,8,0:3:0:0:
220,127,65077,1,8,0:3:0:0:
220,127,65165,2,0,P|200:170|205:219,1,85,8|2,0:0|0:0,0:0:0:0:
388,265,65516,5,0,0:0:0:0:
412,269,65603,1,8,0:0:0:0:
437,273,65691,1,0,0:0:0:0:
462,277,65779,1,8,0:0:0:0:
466,301,65866,1,8,0:0:0:0:
465,326,65954,1,8,0:0:0:0:
452,358,66042,6,0,P|410:359|366:349,1,85,4|0,0:0|0:0,0:0:0:0:
243,269,66393,2,0,B|208:254|170:263|170:263|143:309|83:313,1,170,8|2,0:0|0:0,0:0:0:0:
64,172,66919,1,0,0:0:0:0:
176,264,67095,2,0,P|208:223|209:191,1,85,8|0,0:0|0:0,0:0:0:0:
342,68,67445,5,2,0:0:0:0:
241,114,67621,1,0,0:0:0:0:
289,215,67796,1,8,0:0:0:0:
388,167,67972,1,0,0:0:0:0:
241,114,68147,2,0,B|178:116|178:116|153:127,2,85,2|0|8,0:0|0:0|0:0,0:0:0:0:
388,167,68673,1,0,0:0:0:0:
215,275,68849,6,0,P|197:237|200:186,1,85,4|0,0:0|0:0,0:0:0:0:
326,288,69200,2,0,P|327:330|309:369,1,85,8|0,0:0|0:0,0:0:0:0:
55,347,69551,2,0,L|146:354,1,85,2|0,0:0|0:0,0:0:0:0:
313,221,69902,1,8,0:0:0:0:
98,230,70077,1,0,0:0:0:0:
292,122,70252,6,0,P|368:155|405:229,1,170,4|8,0:0|0:0,0:0:0:0:
281,247,70779,1,0,0:0:0:0:
160,116,70954,2,0,L|165:201,1,85,2|0,0:0|0:0,0:0:0:0:
373,308,71305,1,8,0:0:0:0:
412,122,71480,1,0,3:0:0:0:
403,147,71568,1,0,3:0:0:0:
395,170,71656,6,0,P|350:180|305:164,1,85,2|0,0:0|0:0,0:0:0:0:
115,42,72007,2,0,P|160:32|205:48,1,85
436,238,72358,2,0,P|351:257|253:231,1,170,2|8,0:0|0:0,0:0:0:0:
188,124,72884,1,0,0:0:0:0:
83,325,73059,6,0,P|162:297|242:321,1,170,4|8,0:0|0:0,0:0:0:0:
330,196,73586,1,0,0:0:0:0:
188,124,73761,1,2,0:0:0:0:
170,278,73937,1,8,0:3:0:0:
165,303,74024,1,8,0:3:0:0:
161,328,74112,2,0,L|254:339,1,85
410,298,74463,5,4,0:0:0:0:
345,382,74638,1,0,0:0:0:0:
392,159,74814,1,8,0:0:0:0:
299,233,74989,2,0,P|257:242|216:241,1,85,0|2,0:0|0:0,0:0:0:0:
67,326,75340,1,0,0:0:0:0:
177,252,75516,2,0,L|174:162,1,85,8|0,0:0|0:0,0:0:0:0:
263,297,75866,5,8,0:0:0:0:
263,297,75954,1,2,0:0:0:0:
263,297,76042,1,2,0:0:0:0:
373,341,76217,1,8,0:0:0:0:
448,211,76393,1,0,0:0:0:0:
448,211,76480,1,0,0:0:0:0:
448,211,76568,1,0,0:0:0:0:
373,341,76744,1,0,0:0:0:0:
373,341,76831,1,0,0:0:0:0:
373,341,76919,6,0,L|365:300,1,42.5,8|0,0:0|0:0,0:0:0:0:
275,177,77095,2,0,L|255:222,1,42.5
151,324,77270,6,0,L|116:232,1,85,4|0,0:0|0:0,0:0:0:0:
130,66,77621,2,0,P|141:112|122:161,2,85,8|2|2,0:0|0:0|0:0,0:0:0:0:
13,105,78147,1,0,0:0:0:0:
132,147,78323,1,8,0:0:0:0:
247,73,78498,2,0,L|347:84,1,85,0|2,0:0|0:0,0:0:0:0:
458,189,78849,6,0,L|373:196,1,85,0|8,0:0|0:0,0:0:0:0:
249,288,79200,1,0,0:0:0:0:
249,288,79288,1,0,0:0:0:0:
249,288,79375,1,0,0:0:0:0:
89,221,79551,1,0,0:0:0:0:
189,235,79726,2,0,P|202:193|194:151,1,85,8|0,0:0|0:0,0:0:0:0:
385,79,80077,5,4,0:0:0:0:
294,108,80252,2,0,P|284:148|296:189,1,85,0|8,0:0|0:0,0:0:0:0:
405,271,80603,2,0,B|471:281|501:263,2,85
296,189,81130,1,8,0:0:0:0:
120,146,81305,6,0,P|160:138|208:146,1,85,0|2,0:0|0:0,0:0:0:0:
340,265,81656,2,0,P|300:273|252:261,1,85,0|8,0:0|0:0,0:0:0:0:
296,107,82007,2,0,P|304:151|292:199,1,85,0|2,0:0|0:0,0:0:0:0:
165,301,82358,2,0,P|157:260|165:219,1,85,0|2,0:0|0:0,0:0:0:0:
70,326,82709,1,0,0:0:0:0:
254,259,82884,5,4,0:0:0:0:
254,259,83059,1,0,0:0:0:0:
392,240,83235,2,0,L|374:334,1,85,8|0,0:0|0:0,0:0:0:0:
276,166,83586,1,2,0:0:0:0:
276,166,83761,1,0,0:0:0:0:
125,167,83937,2,0,L|137:252,1,85,8|0,0:0|0:0,0:0:0:0:
299,79,84288,5,2,0:0:0:0:
299,79,84463,1,0,0:0:0:0:
431,151,84638,2,0,L|416:237,1,85,8|0,0:0|0:0,0:0:0:0:
335,333,84989,1,8,0:3:0:0:
460,271,85165,1,8,0:3:0:0:
326,217,85340,1,8,0:0:0:0:
335,333,85516,1,0,0:0:0:0:
88,315,85691,6,0,L|0:291,2,85,4|0|8,0:0|0:0|0:0,0:0:0:0:
244,239,86217,2,0,L|348:211,2,85,4|2|0,0:0|0:0|0:0,0:0:0:0:
121,168,86744,2,0,L|40:142,1,85,8|0,0:0|0:0,0:0:0:0:
238,94,87095,5,4,0:0:0:0:
262,202,87270,1,0,0:0:0:0:
369,179,87445,1,8,0:0:0:0:
347,71,87621,1,0,0:0:0:0:
262,202,87796,5,2,0:0:0:0:
383,322,87972,1,0,0:0:0:0:
503,202,88147,1,8,0:0:0:0:
383,81,88323,1,0,0:0:0:0:
