osu file format v14

[General]
AudioFilename: Aoi eir IGNITE.mp3
AudioLeadIn: 0
PreviewTime: 53586
Countdown: 0
SampleSet: Soft
StackLeniency: 0.7
Mode: 0
LetterboxInBreaks: 0
WidescreenStoryboard: 0

[Editor]
Bookmarks: 29551
DistanceSpacing: 1.1
BeatDivisor: 2
GridSize: 32
TimelineZoom: 1

[Metadata]
Title:IGNITE (TV size ver.)
TitleUnicode:IGNITE (TV size ver.)
Artist:Aoi Eir
ArtistUnicode:藍井エイル
Creator:SoGa
Version:Easy
Source:ソードアート・オンラインⅡ
Tags:SWORD ART ONLINE II sao 2nd season opening Kawaiwkyik Moecho sammy711 yf_bmp wkyik Gaia
BeatmapID:551693
BeatmapSetID:213483

[Difficulty]
HPDrainRate:3
CircleSize:3
OverallDifficulty:3
ApproachRate:3
SliderMultiplier:0.999999999999999
SliderTickRate:2

[Events]
//Background and Video events
0,0,"BG.jpg",0,0
//Break Periods
//Storyboard Layer 0 (Background)
//Storyboard Layer 1 (Fail)
//Storyboard Layer 2 (Pass)
//Storyboard Layer 3 (Foreground)
//Storyboard Sound Samples

[TimingPoints]
1481,350.877192982456,4,2,2,50,1,0
1481,-133.333333333333,4,2,2,50,0,0
9902,-100,4,2,2,50,0,0
54814,-100,4,2,2,50,0,1
64638,-100,4,2,2,50,0,0
66042,-100,4,2,2,50,0,1
77270,-100,4,2,2,50,0,0

[Colours]
Combo1 : 255,100,180
Combo2 : 70,105,255
Combo3 : 180,100,255
Combo4 : 240,192,160

[HitObjects]
180,96,1481,6,0,P|256:84|332:96,1,150.000005722046,2|2,0:0|0:0,0:0:0:0:
399,134,2533,1,0,0:0:0:0:
452,196,2884,2,0,P|464:236|452:276,1,75.000002861023,2|0,0:0|0:0,0:0:0:0:
379,299,3586,2,0,P|343:291|299:299,1,75.000002861023,0|0,0:0|0:0,0:0:0:0:
233,336,4288,6,0,P|157:320|125:256,1,150.000005722046,2|2,0:0|0:0,0:0:0:0:
106,179,5340,1,0,0:0:0:0:
187,193,5691,2,0,P|263:189|307:133,1,150.000005722046,2|2,0:0|0:0,0:0:0:0:
348,64,6744,1,0,0:0:0:0:
428,40,7095,6,0,P|434:116|444:196,1,150.000005722046,2|2,0:0|0:0,0:0:0:0:
447,271,8147,1,0,0:0:0:0:
383,323,8498,2,0,P|311:339|233:329,1,150.000005722046,2|2,0:0|0:0,0:0:0:0:
53,205,9902,5,2,0:0:0:0:
181,154,10428,2,0,P|190:215|183:255,1,99.9999999999999
116,340,11130,2,0,B|172:336|200:364|200:364|304:368|344:288,1,250,0|4,0:0|0:0,0:0:0:0:
466,121,12709,6,0,P|430:89|374:79,1,99.9999999999999,4|8,0:0|0:0,0:0:0:0:
274,52,13410,1,2,0:0:0:0:
178,106,13761,1,8,0:0:0:0:
96,179,14112,2,0,P|73:139|70:82,2,99.9999999999999,2|8|2,0:0|0:0|0:0,0:0:0:0:
193,235,15165,1,8,0:0:0:0:
302,241,15516,6,0,B|366:209|366:209|382:133|454:117,1,200,4|2,0:0|0:0,0:0:0:0:
475,225,16568,1,0,1:0:0:0:
444,330,16919,2,0,B|348:362|348:362|244:350,1,200,2|8,0:0|0:0,0:0:0:0:
84,208,18323,6,0,B|180:224|180:224|280:200,1,200,2|2,0:0|0:0,0:0:0:0:
388,182,19375,1,0,0:0:0:0:
493,149,19726,2,0,P|422:79|315:98,1,200,2|2,0:0|0:0,0:0:0:0:
197,265,21130,6,0,P|97:277|41:205,1,200,0|2,0:0|0:0,0:0:0:0:
51,96,22182,1,2,0:0:0:0:
156,127,22533,2,0,P|203:112|260:119,1,99.9999999999999,0|2,0:0|0:0,0:0:0:0:
312,210,23235,2,0,P|368:206|412:182,1,99.9999999999999
451,85,23937,6,0,P|495:113|511:157,1,99.9999999999999,2|0,0:0|0:0,0:0:0:0:
472,259,24638,2,0,B|420:267|364:331|364:331|268:339,1,200,0|2,0:0|0:0,0:0:0:0:
187,352,25691,1,2,0:0:0:0:
105,277,26042,1,0,0:0:0:0:
196,215,26393,1,2,0:0:0:0:
286,276,26744,6,0,P|383:294|460:210,2,200,2|2|0,0:0|0:0|0:0,0:0:0:0:
352,188,28498,2,0,P|250:166|181:230,1,200
143,327,29551,6,0,P|131:227|55:159,1,200,4|2,0:0|0:0,0:0:0:0:
28,57,30603,1,8,0:0:0:0:
133,86,30954,2,0,P|230:107|342:77,1,200,2|2,0:0|0:0,0:0:0:0:
436,60,32007,1,8,0:0:0:0:
441,170,32358,6,0,B|397:258|397:258|308:307,1,200,2|2,0:0|0:0,0:0:0:0:
201,333,33410,1,8,0:0:0:0:
94,305,33761,2,0,P|37:254|27:181,2,150,2|8|10,0:0|3:0|0:0,0:0:0:0:
136,203,35165,5,2,0:0:0:0:
201,114,35516,2,0,B|273:118|293:90|293:90|313:118|393:114,1,200,8|8,0:0|0:0,0:0:0:0:
449,205,36568,1,2,0:0:0:0:
396,301,36919,2,0,P|296:277|196:301,1,200,8|0,0:0|0:0,0:0:0:0:
125,375,37972,6,0,B|93:335|93:335|97:271|97:271|69:235,1,150,4|0,0:0|0:0,0:0:0:0:
204,140,39024,2,0,B|259:138|259:138|293:113|293:113|347:113,1,150,4|0,0:0|0:0,0:0:0:0:
504,145,40077,2,0,P|512:201|512:257,1,99.9999999999999,2|8,0:0|0:0,0:0:0:0:
422,308,40779,6,0,B|351:332|348:287|274:313,1,150,4|4,0:0|0:0,0:0:0:0:
110,317,41831,1,4,0:0:0:0:
71,157,42358,2,0,B|88:101|137:71|137:71|218:99|297:52,1,250,0|8,1:0|0:0,0:0:0:0:
378,34,43586,6,0,L|395:201,1,150,4|8,0:0|0:0,0:0:0:0:
481,322,44638,2,0,P|404:339|320:332,1,150,4|8,0:0|0:0,0:0:0:0:
168,347,45691,2,0,B|121:333|79:342|79:342|49:292|69:231,1,200,2|4,0:0|0:0,0:0:0:0:
177,236,46744,5,8,0:0:0:0:
124,139,47095,2,0,P|172:115|200:71,1,99.9999999999999,2|8,0:0|0:0,0:0:0:0:
307,81,47796,2,0,P|335:121|381:144,2,99.9999999999999,2|8|2,3:0|0:0|0:0,0:0:0:0:
408,38,48849,1,8,0:0:0:0:
494,106,49200,6,0,P|514:54|511:9,2,99.9999999999999,4|8|2,0:0|0:0|0:0,0:0:0:0:
463,213,50252,1,8,0:0:0:0:
372,274,50603,2,0,P|326:323|240:328,1,150
101,251,51656,1,0,0:0:0:0:
117,142,52007,6,0,B|163:106|223:99|223:99|327:139|455:108,1,350
345,110,54814,5,4,0:0:0:0:
436,171,55165,2,0,P|412:215|392:283,1,99.9999999999999,8|2,0:0|0:0,0:0:0:0:
286,256,55866,2,0,P|266:200|234:156,1,99.9999999999999,8|2,0:0|0:0,0:0:0:0:
172,80,56568,1,8,0:0:0:0:
59,80,56919,2,0,P|24:120|12:171,1,99.9999999999999,2|8,0:0|0:0,0:0:0:0:
131,175,57621,6,0,P|163:229|144:365,1,200,4|2,0:0|0:0,0:0:0:0:
257,358,58673,1,8,0:0:0:0:
367,358,59024,2,0,P|343:262|383:172,1,200,4|2,0:0|0:0,0:0:0:0:
492,159,60077,1,8,0:0:0:0:
413,82,60428,6,0,P|359:78|315:104,1,99.9999999999999,4|8,0:0|0:0,0:0:0:0:
253,188,61130,2,0,B|177:192|161:160|161:160|141:192|65:188,1,200,2|4,0:0|0:0,0:0:0:0:
103,293,62182,1,8,0:0:0:0:
200,344,62533,2,0,B|270:340|290:372|290:372|306:340|382:344,1,200,2|4,0:0|0:0,0:0:0:0:
455,261,63586,6,0,L|491:165,1,99.9999999999999,8|2,0:0|0:0,0:0:0:0:
435,71,64288,1,8,0:0:0:0:
325,66,64638,2,0,P|273:66|221:90,1,99.9999999999999,2|8,0:0|0:0,0:0:0:0:
201,190,65340,2,0,P|155:216|101:214,2,99.9999999999999,2|8|6,0:0|0:0|0:0,0:0:0:0:
310,204,66393,5,8,0:0:0:0:
397,270,66744,1,2,0:0:0:0:
299,320,67095,2,0,L|191:320,1,99.9999999999999,8|2,0:0|0:0,0:0:0:0:
89,311,67796,2,0,P|45:279|29:227,2,99.9999999999999,8|2|8,0:0|0:0|0:0,0:0:0:0:
137,211,68849,6,0,L|217:139,1,99.9999999999999,4|8,0:0|0:0,0:0:0:0:
310,193,69551,2,0,P|362:205|410:193,1,99.9999999999999,2|8,0:0|0:0,0:0:0:0:
478,111,70252,2,0,P|521:196|477:282,1,200,4|2,0:0|0:0,0:0:0:0:
376,329,71305,1,8,0:0:0:0:
277,280,71656,6,0,P|228:197|272:111,1,200,4|2,0:0|0:0,0:0:0:0:
375,76,72709,1,8,0:0:0:0:
277,26,73059,2,0,B|173:34|173:34|93:94,1,200,4|2,0:0|0:0,0:0:0:0:
93,201,74112,1,8,0:0:0:0:
63,307,74463,1,0,0:0:0:0:
210,232,74989,2,0,P|259:226|307:237,1,99.9999999999999,2|0,0:0|0:0,0:0:0:0:
370,328,75691,2,0,P|486:216|402:72,1,350,2|8,0:0|0:0,0:0:0:0:
296,90,77270,6,0,P|184:103|99:154,1,200,4|2,0:0|0:0,0:0:0:0:
109,255,78323,1,8,0:0:0:0:
197,320,78673,2,0,P|311:308|384:254,1,200,4|2,0:0|0:0,0:0:0:0:
458,184,79725,1,2,0:0:0:0:
356,141,80077,5,4,0:0:0:0:
403,41,80428,2,0,P|355:29|307:41,1,99.9999999999999,8|2,0:0|0:0,0:0:0:0:
246,133,81130,2,0,P|198:145|146:133,2,99.9999999999999,8|2|8,0:0|0:0|0:0,0:0:0:0:
356,141,82182,2,0,P|408:149|460:137,2,99.9999999999999,2|8|2,0:0|0:0|0:0,0:0:0:0:
294,225,83235,5,8,0:0:0:0:
399,255,83586,2,0,P|327:324|229:312,1,200,2|2,0:0|0:0,0:0:0:0:
183,216,84638,2,0,P|127:208|71:232,1,99.9999999999999,8|2,0:0|0:0,0:0:0:0:
23,311,85340,1,8,0:0:0:0:
256,192,85691,12,4,88323,0:0:0:0:
