osu file format v14

[General]
AudioFilename: audio.mp3
AudioLeadIn: 0
PreviewTime: 54319
Countdown: 0
SampleSet: Soft
StackLeniency: 0.4
Mode: 0
LetterboxInBreaks: 0
WidescreenStoryboard: 0

[Editor]
Bookmarks: 13540,30382,41610,55645,66873,78101
DistanceSpacing: 0.7
BeatDivisor: 4
GridSize: 32
TimelineZoom: 1.9

[Metadata]
Title:IGNITE (TV Size)
TitleUnicode:IGNITE (TV Size)
Artist:Aoi Eir
ArtistUnicode:藍井エイル
Creator:Xahlt
Version:XAHJINN'S TRICKSHOT
Source:ソードアート・オンラインⅡ
Tags:sajinn ガンゲイルオンライン ggo gun gale online sao sword art II 2 season female vocal japanese jrock j-rock rock pop j-pop jpop opening op anime ost original soundtrack saku Tomoyuki Ogawa 小川知之 Sony Music Entertainment sme
BeatmapID:2924661
BeatmapSetID:1419740

[Difficulty]
HPDrainRate:6
CircleSize:4.2
OverallDifficulty:8.7
ApproachRate:9
SliderMultiplier:1.8
SliderTickRate:1

[Events]
//Background and Video events
0,0,"bg.jpg",0,0
Video,-180,"op.mp4"
//Break Periods
//Storyboard Layer 0 (Background)
//Storyboard Layer 1 (Fail)
//Storyboard Layer 2 (Pass)
//Storyboard Layer 3 (Foreground)
//Storyboard Layer 4 (Overlay)
//Storyboard Sound Samples

[TimingPoints]
-3312,350.877192982456,4,2,1,40,1,0
2302,-333.333333333334,4,2,2,40,0,0
2389,-333.333333333334,4,2,1,40,0,0
10898,-200,4,2,1,40,0,0
11249,-166.666666666667,4,2,1,40,0,0
11600,-142.857142857143,4,2,1,40,0,0
11951,-125,4,2,1,40,0,0
12214,-125,4,2,1,5,0,0
12302,-125,4,2,1,40,0,0
13530,-76.9230769230769,4,2,1,70,0,0
13793,-76.9230769230769,4,2,1,5,0,0
13880,-100,4,2,1,70,0,0
15196,-100,4,2,1,5,0,0
15284,-100,4,2,1,70,0,0
16249,-100,4,2,1,5,0,0
16337,-76.9230769230769,4,2,1,70,0,0
16600,-76.9230769230769,4,2,1,5,0,0
16687,-76.9230769230769,4,2,1,70,0,0
16951,-100,4,2,1,70,0,0
17565,-71.4285714285714,4,2,1,70,0,0
17828,-71.4285714285714,4,2,1,5,0,0
17916,-71.4285714285714,4,2,1,70,0,0
19144,-166.666666666667,4,2,2,50,0,0
19231,-166.666666666667,4,2,1,50,0,0
24319,-166.666666666667,4,2,1,5,0,0
24407,-333.333333333334,4,2,1,50,0,0
24670,-333.333333333333,4,2,1,5,0,0
24758,-166.666666666667,4,2,1,50,0,0
27126,-166.666666666667,4,2,1,5,0,0
27214,-166.666666666667,4,2,1,50,0,0
30372,-125,4,2,2,60,0,0
30459,-125,4,2,1,60,0,0
30635,-125,4,2,1,5,0,0
30723,-125,4,2,1,60,0,0
31337,-125,4,2,1,5,0,0
31424,-125,4,2,1,60,0,0
32565,-125,4,2,1,5,0,0
32652,-125,4,2,1,60,0,0
33442,-125,4,2,1,5,0,0
33530,-125,4,2,1,60,0,0
34144,-125,4,2,1,5,0,0
34231,-125,4,2,1,60,0,0
34845,-125,4,2,1,5,0,0
34933,-125,4,2,1,60,0,0
35898,-125,4,2,1,5,0,0
35986,-125,4,2,1,60,0,0
37652,-125,4,2,1,5,0,0
37740,-125,4,2,1,60,0,0
38442,-100,4,2,1,60,0,0
38705,-100,4,2,1,5,0,0
38793,-71.4285714285714,4,2,1,65,0,0
39056,-71.4285714285714,4,2,1,5,0,0
39144,-71.4285714285714,4,2,1,65,0,0
39319,-250,4,2,1,65,0,0
39845,-71.4285714285714,4,2,1,65,0,0
40109,-71.4285714285714,4,2,1,5,0,0
40196,-71.4285714285714,4,2,1,65,0,0
40372,-250,4,2,1,65,0,0
40635,-250,4,2,1,5,0,0
40723,-125,4,2,1,65,0,0
41600,-111.111111111111,4,2,1,65,0,0
44056,-333.333333333333,4,2,1,65,0,0
44319,-333.333333333333,4,2,1,5,0,0
44407,-111.111111111111,4,2,1,65,0,0
47214,-142.857142857143,4,2,1,55,0,0
51424,-142.857142857143,4,2,1,65,0,0
53179,-111.111111111111,4,2,1,65,0,0
54758,-333.333333333333,4,2,1,40,0,0
55547,-333.333333333333,4,2,1,5,0,0
55635,-55.5555555555556,4,2,1,80,0,1
55898,-55.5555555555556,4,2,1,5,0,1
55986,-83.3333333333333,4,2,1,80,0,1
56687,-100,4,2,1,80,0,1
56951,-100,4,2,1,5,0,1
57038,-83.3333333333333,4,2,1,80,0,1
57652,-83.3333333333333,4,2,1,5,0,1
57740,-83.3333333333333,4,2,1,80,0,1
58705,-83.3333333333333,4,2,1,5,0,1
58793,-83.3333333333333,4,2,1,80,0,1
59407,-83.3333333333333,4,2,1,5,0,1
59495,-83.3333333333333,4,2,1,80,0,1
60109,-83.3333333333333,4,2,1,5,0,1
60196,-83.3333333333333,4,2,1,80,0,1
61249,-76.9230769230769,4,2,1,80,0,1
61512,-76.9230769230769,4,2,1,5,0,1
61600,-125,4,2,1,80,0,1
61863,-125,4,2,1,5,0,1
61951,-71.4285714285714,4,2,1,80,0,1
62214,-71.4285714285714,4,2,1,5,0,1
62302,-111.111111111111,4,2,1,80,0,1
62565,-111.111111111111,4,2,1,5,0,1
62652,-76.9230769230769,4,2,1,80,0,1
62916,-76.9230769230769,4,2,1,5,0,1
63003,-125,4,2,1,80,0,1
63266,-125,4,2,1,5,0,1
63354,-71.4285714285714,4,2,1,80,0,1
63617,-71.4285714285714,4,2,1,5,0,1
63705,-111.111111111111,4,2,1,80,0,1
64056,-66.6666666666667,4,2,1,80,0,1
64231,-66.6666666666667,4,2,1,80,0,1
64495,-66.6666666666667,4,2,1,5,0,1
64582,-66.6666666666667,4,2,1,80,0,1
64845,-66.6666666666667,4,2,1,5,0,1
64933,-66.6666666666667,4,2,1,80,0,1
65196,-66.6666666666667,4,2,1,5,0,1
65284,-66.6666666666667,4,2,1,80,0,1
65547,-66.6666666666667,4,2,1,5,0,1
65635,-66.6666666666667,4,2,1,80,0,1
66863,-55.5555555555556,4,2,1,80,0,1
67126,-55.5555555555556,4,2,1,5,0,1
67214,-83.3333333333333,4,2,1,80,0,1
67916,-100,4,2,1,80,0,1
68179,-100,4,2,1,5,0,1
68266,-83.3333333333333,4,2,1,80,0,1
69933,-83.3333333333333,4,2,1,5,0,1
70021,-83.3333333333333,4,2,1,80,0,1
70635,-83.3333333333333,4,2,1,5,0,1
70723,-83.3333333333333,4,2,1,80,0,1
72038,-83.3333333333333,4,2,1,5,0,1
72126,-83.3333333333333,4,2,1,80,0,1
72477,-76.9230769230769,4,2,1,80,0,1
72740,-76.9230769230769,4,2,1,5,0,1
72828,-250,4,2,1,80,0,1
73091,-250,4,2,1,5,0,1
73179,-76.9230769230769,4,2,1,80,0,1
73442,-76.9230769230769,4,2,1,5,0,1
73530,-250,4,2,1,80,0,1
73793,-250,4,2,1,5,0,1
73880,-76.9230769230769,4,2,1,80,0,1
74144,-76.9230769230769,4,2,1,5,0,1
74231,-250,4,2,1,80,0,1
74495,-250,4,2,1,5,0,1
74582,-83.3333333333333,4,2,1,80,0,1
75284,-66.6666666666667,4,2,1,80,0,1
75723,-66.6666666666667,4,2,1,5,0,1
75810,-55.5555555555556,4,2,1,80,0,1
76073,-55.5555555555556,4,2,1,5,0,1
76161,-55.5555555555556,4,2,1,80,0,1
76424,-55.5555555555556,4,2,1,5,0,1
76512,-55.5555555555556,4,2,1,80,0,1
76687,-76.9230769230769,4,2,1,80,0,1
78091,-100,4,2,2,70,0,0
78179,-100,4,2,1,70,0,0
78354,-100,4,2,1,5,0,0
78442,-100,4,2,1,70,0,0
81161,-100,4,2,1,5,0,0
81249,-100,4,2,1,70,0,0
83705,-250,4,2,1,70,0,0
83968,-250,4,2,1,5,0,0
84056,-62.5,4,2,1,70,0,0
85459,-100,4,2,1,70,0,0

[Colours]
Combo1 : 121,138,156
Combo2 : 187,187,108

[HitObjects]
178,12,2302,6,0,B|93:91|193:124|114:207,1,215.999993408203,2|0,1:2|0:0,0:0:0:0:
28,158,3880,1,2,0:0:0:0:
110,220,4056,2,0,P|142:212|170:206,1,53.9999983520508,2|0,0:0|0:0,0:0:0:0:
230,148,4582,1,2,0:0:0:0:
230,148,4758,1,2,0:0:0:0:
301,201,4933,1,2,0:0:0:0:
406,100,5109,6,0,P|353:87|301:73,2,107.999996704102,2|2|2,1:2|0:0|0:0,0:0:0:0:
406,100,7038,1,2,0:0:0:0:
489,77,7214,2,0,P|481:116|476:156,1,80.9999975280763,2|0,0:0|0:0,0:0:0:0:
393,189,7916,6,0,P|423:224|427:264,1,80.9999975280763,2|0,1:2|0:0,0:0:0:0:
402,340,8617,2,0,P|368:344|314:362,1,80.9999975280763,2|0,0:0|0:0,0:0:0:0:
259,299,9319,2,0,P|226:287|170:278,1,80.9999975280763,2|0,0:0|0:0,0:0:0:0:
105,319,10021,1,2,0:0:0:0:
105,319,10723,5,2,1:2:0:0:
19,335,10898,2,0,L|26:279,1,45,2|0,0:0|0:0,0:0:0:0:
84,235,11249,2,0,L|74:169,1,53.9999983520508,2|0,0:0|0:0,0:0:0:0:
4,111,11600,2,0,L|12:48,1,62.9999980773926,2|0,0:0|0:0,0:0:0:0:
113,0,11951,2,0,P|124:52|136:105,1,108,2|0,0:0|0:0,0:0:0:0:
146,115,12302,5,4,3:0:0:0:
232,28,12477,1,4,3:0:0:0:
277,141,12652,1,4,3:0:0:0:
182,255,12828,5,8,1:2:0:0:
232,28,13003,1,8,1:2:0:0:
437,183,13354,5,2,0:0:0:0:
441,189,13442,1,2,0:0:0:0:
444,194,13530,2,0,B|410:149|356:169|356:169|338:218|283:223,1,175.499991966248,6|0,1:2|0:0,0:0:0:0:
293,229,13880,2,0,P|307:282|320:333,1,90,8|2,0:0|0:0,0:0:0:0:
260,371,14144,5,10,0:0:0:0:
253,378,14231,1,2,1:2:0:0:
180,325,14407,1,2,0:0:0:0:
207,221,14582,1,10,0:0:0:0:
131,130,14758,1,2,0:0:0:0:
268,117,14933,6,0,P|210:107|121:90,1,135,2|0,1:2|0:0,0:0:0:0:
279,108,15284,2,0,B|317:98|317:98|330:102|330:102|384:87,1,90,10|2,0:0|0:0,0:0:0:0:
410,33,15547,5,10,0:0:0:0:
416,27,15635,1,2,1:2:0:0:
375,181,15810,1,0,0:0:0:0:
470,113,15986,1,10,0:0:0:0:
488,257,16161,2,0,P|453:248|427:242,1,45,2|0,0:0|0:0,0:0:0:0:
244,264,16337,6,0,B|276:229|290:174|290:174|287:224|341:269,1,175.499991966248,6|0,1:2|0:0,0:0:0:0:
322,250,16687,1,8,0:0:0:0:
174,345,16951,1,8,0:0:0:0:
169,350,17038,1,2,1:2:0:0:
25,255,17214,6,0,P|60:246|86:240,1,45,2|10,1:2|0:0,0:0:0:0:
146,88,17389,1,10,0:0:0:0:
280,184,17565,6,0,B|300:172|331:171|331:171|184:146,1,188.999994232178,6|0,1:2|0:0,0:0:0:0:
120,168,17916,5,0,1:2:0:0:
106,253,18091,5,4,2:3:0:0:
159,320,18266,5,2,1:2:0:0:
288,173,18442,5,10,0:0:0:0:
73,333,18617,1,0,1:2:0:0:
177,82,19144,6,0,P|130:71|67:55,1,107.999996704102,6|0,3:2|0:0,0:0:0:0:
4,91,19670,1,0,0:0:0:0:
279,37,20196,2,0,P|267:83|258:110,1,53.9999983520508,2|0,0:0|0:0,0:0:0:0:
197,170,20547,6,0,P|239:135|301:155,1,107.999996704102,2|0,0:0|0:0,0:0:0:0:
192,180,21073,2,0,P|204:226|213:253,1,53.9999983520508,2|0,0:0|0:0,0:0:0:0:
84,331,21424,5,2,0:0:0:0:
145,284,21600,1,2,0:0:0:0:
211,330,21775,1,2,1:2:0:0:
350,327,21951,6,0,P|297:314|245:301,1,107.999996704102,2|0,1:2|0:0,0:0:0:0:
360,319,22477,1,2,0:0:0:0:
415,258,22652,2,0,B|407:217|407:217|425:188|425:188|416:135,1,107.999996704102,2|0,0:0|0:0,0:0:0:0:
290,67,23354,5,0,0:0:0:0:
280,56,23705,1,0,0:0:0:0:
126,103,24056,6,0,P|178:116|226:127,1,80.9999975280763,2|0,0:0|0:0,0:0:0:0:
212,131,24407,2,0,P|219:164|223:181,1,40.4999987640381,2|0,0:0|0:0,0:0:0:0:
211,287,24758,5,2,1:2:0:0:
114,226,24933,2,0,P|82:218|59:212,1,53.9999983520508,2|0,0:0|0:0,0:0:0:0:
36,338,25284,2,0,P|55:319|74:300,1,53.9999983520508,2|0,0:0|0:0,0:0:0:0:
211,287,25635,2,0,P|184:293|158:300,1,53.9999983520508,2|0,0:0|0:0,0:0:0:0:
313,370,25986,5,2,1:2:0:0:
307,245,26161,2,0,P|293:297|279:361,1,107.999996704102,2|2,1:2|0:0,0:0:0:0:
495,216,26863,2,0,P|458:188|412:195,1,80.9999975280763,2|0,0:0|0:0,0:0:0:0:
418,195,27214,2,0,P|391:188|365:181,1,53.9999983520508,2|2,0:0|1:2,0:0:0:0:
219,116,27565,6,0,P|245:131|324:94,1,107.999996704102,2|0,1:2|0:0,0:0:0:0:
210,109,28091,1,2,0:0:0:0:
144,151,28266,2,0,P|150:177|157:203,1,53.9999983520508,2|0,0:0|0:0,0:0:0:0:
109,344,28617,5,2,0:0:0:0:
57,291,28793,5,0,0:0:0:0:
84,221,28968,5,2,0:0:0:0:
31,163,29144,5,0,0:0:0:0:
75,100,29319,5,2,0:0:0:0:
27,45,29495,5,2,0:0:0:0:
22,168,29670,5,2,0:0:0:0:
15,172,30021,5,2,0:0:0:0:
84,221,30196,5,2,0:0:0:0:
155,102,30372,6,0,P|212:113|293:131,1,108,6|0,1:2|0:0,0:0:0:0:
275,124,30723,2,0,P|296:98|295:55,1,72,0|2,1:2|0:0,0:0:0:0:
453,165,31073,6,0,P|396:176|315:194,1,108,0|0,1:2|0:0,0:0:0:0:
337,197,31424,1,10,0:0:0:0:
419,265,31600,1,2,0:0:0:0:
290,360,31775,6,0,B|287:289|230:306|232:217,1,144,2|2,1:2|1:2,0:0:0:0:
160,178,32302,2,0,P|196:154|180:88,1,108,2|0,0:0|0:0,0:0:0:0:
179,84,32652,2,0,P|144:95|109:103,1,72,2|10,0:0|0:0,0:0:0:0:
35,55,33003,1,2,0:0:0:0:
35,176,33179,6,0,P|47:228|59:281,1,108,2|0,1:2|0:0,0:0:0:0:
62,295,33530,2,0,P|35:316|0:312,1,72,0|2,1:2|0:0,0:0:0:0:
135,357,33880,2,0,P|169:321|234:351,1,108,0|0,1:2|0:0,0:0:0:0:
232,341,34231,1,8,0:0:0:0:
349,384,34495,1,2,0:0:0:0:
353,377,34582,6,0,P|344:323|335:270,1,108,0|0,1:2|0:0,0:0:0:0:
343,254,34933,1,0,1:2:0:0:
286,171,35109,1,4,3:3:0:0:
350,241,35284,1,2,1:2:0:0:
294,161,35459,1,8,3:3:0:0:
414,121,35635,2,0,P|367:102|365:42,1,108,10|0,0:0|0:0,0:0:0:0:
369,34,35986,5,2,1:2:0:0:
500,13,36161,2,0,P|493:48|489:84,1,72,2|0,0:0|1:2,0:0:0:0:
419,143,36512,2,0,P|425:178|429:214,1,72,2|0,0:0|1:2,0:0:0:0:
507,280,36863,1,2,0:0:0:0:
418,224,37038,1,8,0:0:0:0:
366,324,37214,1,2,0:0:0:0:
363,332,37302,1,2,0:0:0:0:
360,338,37389,6,0,P|306:327|253:320,1,108,2|0,1:2|0:0,0:0:0:0:
239,315,37740,2,0,P|228:280|249:238,1,72,2|8,1:2|0:0,0:0:0:0:
304,182,38091,1,6,3:3:0:0:
243,112,38266,1,4,3:3:0:0:
335,31,38442,2,0,B|283:45|283:45|258:70|258:70|184:81,1,135,14|2,0:0|0:0,0:0:0:0:
132,14,38793,6,0,B|120:63|47:90|47:90|97:90|131:110,1,188.999994232178,6|0,1:2|0:0,0:0:0:0:
122,111,39144,1,8,0:0:0:0:
204,240,39319,2,0,P|200:207|194:168,1,72,6|2,1:2|1:2,0:0:0:0:
373,272,39845,6,0,B|324:237|257:292|300:332|213:356,1,188.999994232178,14|0,0:0|0:0,0:0:0:0:
212,347,40196,1,0,1:2:0:0:
74,373,40372,2,0,P|77:346|81:319,1,54,12|0,0:0|0:0,0:0:0:0:
92,308,40723,5,0,1:2:0:0:
19,187,40898,5,8,0:0:0:0:
115,134,41073,5,0,1:2:0:0:
107,121,41161,5,0,1:2:0:0:
99,108,41249,5,8,3:3:0:0:
179,22,41424,5,4,3:3:0:0:
281,183,41600,5,10,0:0:0:0:
401,117,41775,2,0,B|363:111|363:111|345:118|345:118|299:110,1,80.9999975280763,10|0,0:0|1:2,0:0:0:0:
221,267,42126,5,10,0:0:0:0:
316,360,42302,2,0,P|307:313|295:253,1,80.9999975280763,10|0,0:0|1:2,0:0:0:0:
179,175,42652,5,10,0:0:0:0:
54,215,42828,2,0,B|87:241|87:241|125:233,1,80.9999975280763,10|0,0:0|1:2,0:0:0:0:
246,76,43179,5,10,0:0:0:0:
268,160,43354,1,10,0:0:0:0:
289,239,43530,1,0,1:2:0:0:
401,117,43705,5,10,0:0:0:0:
280,247,43880,1,0,1:2:0:0:
500,268,44056,6,0,P|470:262|450:258,1,40.4999987640381,14|0,0:0|0:0,0:0:0:0:
319,347,44407,5,14,0:0:0:0:
364,213,44582,2,0,P|371:252|380:298,1,80.9999975280763,10|0,0:0|1:2,0:0:0:0:
246,76,44933,5,10,0:0:0:0:
149,163,45109,2,0,B|187:157|187:157|205:164|205:164|251:156,1,80.9999975280763,10|0,0:0|1:2,0:0:0:0:
472,21,45459,5,10,0:0:0:0:
365,132,45635,2,0,P|373:92|381:53,1,80.9999975280763,10|0,0:0|1:2,0:0:0:0:
505,184,45986,5,10,0:0:0:0:
439,251,46161,1,10,0:0:0:0:
329,205,46337,5,8,0:0:0:0:
322,201,46424,1,8,0:0:0:0:
316,198,46512,1,8,0:0:0:0:
203,310,46687,5,8,3:3:0:0:
264,265,46863,5,4,3:3:0:0:
322,317,47038,5,4,3:3:0:0:
109,217,47214,6,0,P|162:204|250:184,1,125.999996154785,6|2,1:2|0:0,0:0:0:0:
100,212,47740,1,0,1:2:0:0:
25,44,47916,2,0,B|21:93|21:93|40:115|40:115|36:168,1,125.999996154785,14|0,0:0|0:0,0:0:0:0:
124,124,48442,1,2,1:2:0:0:
232,192,48617,5,0,1:2:0:0:
212,96,48793,2,0,P|206:136|200:179,1,62.9999980773926,10|0,0:0|0:0,0:0:0:0:
286,18,49144,2,0,P|292:58|298:101,1,62.9999980773926,2|8,1:2|0:0,0:0:0:0:
435,198,49495,1,0,1:2:0:0:
358,161,49670,1,2,1:2:0:0:
237,276,49933,5,8,0:0:0:0:
233,281,50021,1,2,1:2:0:0:
336,355,50196,2,0,P|302:315|222:346,1,125.999996154785,2|2,1:2|1:2,0:0:0:0:
156,334,50723,1,10,0:0:0:0:
87,287,50898,1,0,1:2:0:0:
196,103,51073,5,8,0:0:0:0:
159,248,51249,1,2,1:2:0:0:
56,39,51424,5,14,0:0:0:0:
105,108,51600,1,10,0:0:0:0:
18,111,51775,1,0,1:2:0:0:
151,23,51951,1,10,0:0:0:0:
302,77,52126,1,0,1:2:0:0:
338,242,52302,1,10,0:0:0:0:
194,358,52477,1,10,0:0:0:0:
14,272,52652,1,0,1:2:0:0:
205,365,52828,5,0,1:2:0:0:
163,181,53003,5,10,0:0:0:0:
170,167,53091,1,10,0:0:0:0:
179,156,53179,2,0,P|208:145|240:147,1,40.4999987640381,10|8,1:2|0:0,0:0:0:0:
358,240,53354,2,0,P|338:236|319:228,1,40.4999987640381,10|8,0:0|0:0,0:0:0:0:
431,147,53530,5,10,1:2:0:0:
476,170,53617,1,8,0:0:0:0:
495,218,53705,1,10,0:0:0:0:
492,268,53793,1,8,0:0:0:0:
459,309,53880,1,10,1:2:0:0:
105,108,54056,5,6,1:2:0:0:
466,28,54933,5,2,3:2:0:0:
510,88,55109,2,0,P|476:80|439:69,1,67.4999979400635,2|0,3:2|0:0,0:0:0:0:
374,49,55635,6,0,B|294:-22|332:106|426:81|400:235,1,242.999992584229,6|0,1:2|0:0,0:0:0:0:
402,225,55986,2,0,P|358:253|303:206,1,107.999996704102,8|0,0:0|0:0,0:0:0:0:
263,108,56337,1,0,1:2:0:0:
166,226,56512,1,0,1:2:0:0:
16,107,56687,2,0,P|78:122|151:134,1,135,8|0,0:0|0:0,0:0:0:0:
167,136,57038,6,0,P|192:181|166:225,1,107.999996704102,2|0,1:2|0:0,0:0:0:0:
33,356,57389,2,0,P|86:343|197:325,1,161.999995056153,10|8,0:0|0:0,0:0:0:0:
202,329,57740,1,2,1:2:0:0:
330,383,57916,1,2,0:0:0:0:
462,336,58091,1,10,0:0:0:0:
483,196,58266,1,2,0:0:0:0:
478,186,58354,1,0,3:0:0:0:
473,176,58442,6,0,B|473:81|400:125|413:-5,1,161.999995056153,6|0,1:2|0:0,0:0:0:0:
414,17,58793,2,0,P|369:-7|321:24,1,107.999996704102,8|0,0:0|0:0,0:0:0:0:
208,131,59144,6,0,P|261:140|370:169,1,161.999995056153,2|0,1:2|0:0,0:0:0:0:
380,173,59495,2,0,P|393:235|356:266,1,107.999996704102,8|0,0:0|0:0,0:0:0:0:
154,354,59845,6,0,B|197:322|199:263|199:263|206:295|232:325,1,161.999995056153,2|0,1:2|0:0,0:0:0:0:
236,317,60196,1,8,0:0:0:0:
117,238,60372,1,2,0:0:0:0:
278,242,60547,5,2,1:2:0:0:
154,354,60723,1,0,1:2:0:0:
6,288,60898,1,8,0:0:0:0:
6,125,61073,1,8,0:0:0:0:
12,116,61161,1,8,0:0:0:0:
18,107,61249,6,0,B|81:88|81:88|109:60|109:60|196:37,1,175.499991966248,6|0,1:2|0:0,0:0:0:0:
186,31,61600,2,0,P|159:66|191:124,1,108,8|0,0:0|0:0,0:0:0:0:
230,206,61951,6,0,B|288:176|279:103|279:103|293:144|335:174,1,188.999994232178,6|0,1:2|0:0,0:0:0:0:
328,166,62302,2,0,P|381:151|425:203,1,121.499996292114,8|0,0:0|0:0,0:0:0:0:
494,266,62652,6,0,P|408:287|327:318,1,175.499991966248,6|0,1:2|0:0,0:0:0:0:
315,327,63003,2,0,P|258:319|190:311,1,108,8|0,0:0|0:0,0:0:0:0:
126,384,63354,6,0,B|147:336|107:272|41:311|39:204,1,188.999994232178,6|0,1:2|0:0,0:0:0:0:
50,216,63705,2,0,P|70:177|57:112,1,80.9999975280763,8|8,0:0|0:0,0:0:0:0:
64,130,63968,1,8,0:0:0:0:
56,120,64056,5,6,1:2:0:0:
28,0,64231,2,0,B|95:34|95:34|118:68|118:68|224:108,1,202.500007724762,2|0,0:0|0:0,0:0:0:0:
278,92,64582,6,0,B|310:60|308:-1|308:-1|322:59|367:83,1,202.500007724762,2|0,1:2|0:0,0:0:0:0:
294,235,64933,2,0,B|249:221|198:253|198:253|242:212|240:160,1,202.500007724762,2|0,1:2|0:0,0:0:0:0:
411,145,65284,2,0,B|420:189|474:217|474:217|416:199|373:226,1,202.500007724762,10|0,0:0|0:0,0:0:0:0:
327,155,65635,5,6,3:3:0:0:
487,15,65810,5,8,0:0:0:0:
485,28,65898,5,8,0:0:0:0:
483,41,65986,5,8,0:0:0:0:
411,145,66161,5,6,0:3:0:0:
229,27,66337,6,0,P|217:60|208:95,1,67.5000025749208,2|2,0:0|1:2,0:0:0:0:
65,235,66512,5,10,1:2:0:0:
92,198,66600,5,10,0:0:0:0:
139,194,66687,5,10,0:0:0:0:
179,218,66775,5,10,0:0:0:0:
192,263,66863,6,0,B|197:300|231:319|272:322|319:273|309:209|229:165,1,242.999992584229,6|0,1:2|0:0,0:0:0:0:
184,272,67214,2,0,B|146:283|146:283|130:303|130:303|82:317,1,107.999996704102,8|0,0:0|0:0,0:0:0:0:
375,380,67565,1,0,1:2:0:0:
289,310,67741,1,0,1:2:0:0:
468,274,67916,2,0,P|408:261|303:235,1,135,8|0,0:0|0:0,0:0:0:0:
327,238,68266,6,0,P|296:186|318:135,1,107.999996704102,0|2,1:2|0:0,0:0:0:0:
512,45,68617,1,8,0:0:0:0:
457,149,68793,5,2,0:0:0:0:
451,155,68880,2,0,L|385:138,1,53.9999983520508,10|0,0:0|1:2,0:0:0:0:
326,57,69144,1,2,0:0:0:0:
254,99,69319,1,10,0:0:0:0:
139,32,69495,5,2,0:0:0:0:
134,30,69582,1,8,0:0:0:0:
129,26,69670,2,0,P|142:107|158:208,1,161.999995056153,2|0,1:2|0:0,0:0:0:0:
150,193,70021,2,0,P|103:157|48:176,1,107.999996704102,8|0,0:0|0:0,0:0:0:0:
73,339,70372,6,0,B|127:326|127:326|167:344|167:344|261:327,1,161.999995056153,2|0,1:2|0:0,0:0:0:0:
234,323,70723,2,0,B|204:274|204:274|237:216,1,107.999996704102,8|0,0:0|0:0,0:0:0:0:
240,219,70986,5,0,3:0:0:0:
247,215,71074,1,2,1:2:0:0:
322,260,71249,1,0,0:0:0:0:
462,150,71424,5,8,0:0:0:0:
319,173,71600,1,8,0:3:0:0:
259,24,71775,6,0,P|242:90|229:210,1,161.999995056153,2|0,1:2|0:0,0:0:0:0:
222,196,72126,1,8,0:0:0:0:
408,298,72389,5,8,0:0:0:0:
403,302,72477,2,0,B|284:288|284:288|322:299|346:347,1,175.499991966248,6|0,1:2|0:0,0:0:0:0:
266,358,72828,2,0,P|238:350|210:345,1,54,8|8,0:0|0:0,0:0:0:0:
66,372,73179,6,0,B|72:310|72:310|103:280|103:280|111:189,1,175.499991966248,6|0,1:2|0:0,0:0:0:0:
1,173,73530,2,0,P|29:165|57:160,1,54,8|0,0:0|0:0,0:0:0:0:
333,29,73880,6,0,B|233:3|269:116|169:90,1,175.499991966248,6|0,1:2|0:0,0:0:0:0:
117,46,74231,2,0,P|109:74|104:102,1,54,8|0,0:0|0:0,0:0:0:0:
266,358,74582,5,6,1:2:0:0:
415,218,74845,5,8,0:0:0:0:
393,201,74933,5,8,0:0:0:0:
349,232,75021,5,8,0:3:0:0:
338,236,75109,5,8,0:3:0:0:
280,199,75196,5,4,0:3:0:0:
251,227,75284,5,6,1:2:0:0:
106,197,75459,6,0,B|82:188|48:192|48:192|132:170|199:153,1,202.500007724762,2|0,0:0|0:0,0:0:0:0:
298,26,75810,6,0,B|250:103|280:200|280:200|280:159|329:128,1,242.999992584229,2|0,1:2|0:0,0:0:0:0:
288,319,76161,2,0,B|336:242|306:145|306:145|306:186|257:217,1,242.999992584229,2|0,1:2|0:0,0:0:0:0:
179,296,76512,5,8,0:0:0:0:
36,186,76687,5,0,1:2:0:0:
25,179,76775,2,0,L|88:163,1,58.4999973220826,8|8,0:0|3:3,0:0:0:0:
137,41,76951,1,0,0:0:0:0:
148,34,77038,2,0,L|204:48,1,58.4999973220826,8|0,1:2|0:0,0:0:0:0:
295,149,77214,5,8,0:0:0:0:
300,153,77302,1,8,0:0:0:0:
305,158,77389,5,8,0:0:0:0:
306,207,77477,1,8,0:0:0:0:
341,245,77565,1,8,3:3:0:0:
388,257,77652,1,8,0:0:0:0:
434,241,77740,5,0,1:2:0:0:
443,257,77828,5,8,3:3:0:0:
432,296,77916,5,4,3:3:0:0:
461,325,78003,5,4,3:3:0:0:
423,384,78091,6,0,P|362:371|269:358,1,135,6|0,1:2|0:0,0:0:0:0:
277,365,78442,1,10,0:0:0:0:
145,264,78617,1,2,0:0:0:0:
157,259,78705,1,8,3:3:0:0:
169,255,78793,1,4,3:3:0:0:
138,378,78968,6,0,P|93:368|49:359,1,90,2|8,0:0|0:0,0:0:0:0:
179,251,79319,2,0,P|223:241|267:232,1,90,2|0,0:0|1:2,0:0:0:0:
97,125,79670,2,0,P|52:115|8:106,1,90,2|8,0:0|0:0,0:0:0:0:
192,11,80021,1,2,0:0:0:0:
200,20,80109,1,8,3:3:0:0:
207,28,80196,5,6,3:3:0:0:
317,95,80372,5,2,0:0:0:0:
418,4,80547,5,10,0:0:0:0:
512,70,80723,5,0,0:0:0:0:
467,212,80898,6,0,B|444:182|437:129|437:129|430:154|407:175,1,135,6|0,1:2|0:0,0:0:0:0:
402,168,81249,1,10,0:0:0:0:
305,275,81424,1,10,3:3:0:0:
318,273,81512,1,8,3:3:0:0:
331,271,81600,1,6,3:3:0:0:
500,367,81775,6,0,P|455:359|410:353,1,90,2|8,0:0|0:0,0:0:0:0:
291,279,82126,2,0,P|246:288|203:298,1,90,2|2,0:0|1:2,0:0:0:0:
21,146,82477,2,0,P|65:155|108:165,1,90,2|8,0:0|1:2,0:0:0:0:
258,82,82828,1,8,1:2:0:0:
429,177,83003,5,0,1:2:0:0:
434,166,83091,5,8,0:0:0:0:
439,157,83179,5,6,3:3:0:0:
388,43,83354,5,8,1:2:0:0:
277,197,83530,5,2,0:0:0:0:
95,114,83705,6,0,P|106:138|108:165,1,54,6|0,1:2|0:0,0:0:0:0:
51,252,84056,2,0,B|99:213|176:270|121:331|219:359,1,216,14|8,0:0|3:3,0:0:0:0:
224,348,84407,1,0,1:2:0:0:
309,294,84582,1,2,0:0:0:0:
417,366,84758,1,8,0:0:0:0:
502,313,84933,1,4,3:3:0:0:
498,299,85021,1,8,3:3:0:0:
494,284,85109,5,0,1:2:0:0:
423,187,85284,1,0,0:0:0:0:
496,70,85459,6,0,P|429:80|362:88,1,135,10|8,0:0|3:3,0:0:0:0:
348,100,85810,2,0,P|303:90|259:84,1,90,2|2,1:2|0:0,0:0:0:0:
136,142,86161,1,10,0:0:0:0:
38,49,86337,1,0,0:0:0:0:
154,17,86512,5,14,0:0:0:0:
13,155,86687,1,0,1:2:0:0:
190,239,86863,1,0,1:2:0:0:
21,347,87038,5,14,0:0:0:0:
136,142,87214,1,0,1:2:0:0:
249,340,87389,1,0,1:2:0:0:
0,246,87565,5,14,0:0:0:0:
233,145,87740,1,0,1:2:0:0:
363,244,87916,1,0,1:2:0:0:
249,340,88091,5,6,3:3:0:0:
233,145,88266,1,8,3:3:0:0:
420,82,88442,1,4,3:3:0:0:
505,257,88617,5,6,1:2:0:0:
393,380,88793,5,10,0:0:0:0:
352,218,88968,5,0,1:2:0:0:
484,23,89144,5,14,0:0:0:0:
