osu file format v14

[General]
AudioFilename: audio.mp3
AudioLeadIn: 0
PreviewTime: 54319
Countdown: 0
SampleSet: Soft
StackLeniency: 0.4
Mode: 0
LetterboxInBreaks: 0
WidescreenStoryboard: 1

[Editor]
Bookmarks: 13540,30382,41610,55645,66873,78101
DistanceSpacing: 1.4
BeatDivisor: 4
GridSize: 32
TimelineZoom: 2.5

[Metadata]
Title:IGNITE (TV Size)
TitleUnicode:IGNITE (TV Size)
Artist:Aoi Eir
ArtistUnicode:藍井エイル
Creator:Xahlt
Version:XAHJINN'S HARD
Source:ソードアート・オンラインⅡ
Tags:sajinn ガンゲイルオンライン ggo gun gale online sao sword art II 2 season female vocal japanese jrock j-rock rock pop j-pop jpop opening op anime ost original soundtrack saku Tomoyuki Ogawa 小川知之 Sony Music Entertainment sme
BeatmapID:2929925
BeatmapSetID:1419740

[Difficulty]
HPDrainRate:4.8
CircleSize:3.5
OverallDifficulty:6.5
ApproachRate:7.8
SliderMultiplier:1.4
SliderTickRate:1

[Events]
//Background and Video events
0,0,"bg.jpg",0,0
Video,-180,"op.mp4"
//Break Periods
//Storyboard Layer 0 (Background)
//Storyboard Layer 1 (Fail)
//Storyboard Layer 2 (Pass)
//Storyboard Layer 3 (Foreground)
//Storyboard Layer 4 (Overlay)
//Storyboard Sound Samples

[TimingPoints]
-3312,350.877192982456,4,2,1,40,1,0
2302,-142.857142857143,4,2,2,40,0,0
2389,-142.857142857143,4,2,1,40,0,0
13354,-99.9999999999999,4,2,1,40,0,0
13530,-99.9999999999999,4,2,1,70,0,0
16249,-99.9999999999999,4,2,1,5,0,0
16337,-99.9999999999999,4,2,1,70,0,0
19144,-142.857142857143,4,2,2,50,0,0
19231,-142.857142857143,4,2,1,50,0,0
30372,-111.111111111111,4,2,2,60,0,0
30459,-111.111111111111,4,2,1,60,0,0
35898,-111.111111111111,4,2,1,5,0,0
35986,-111.111111111111,4,2,1,60,0,0
38705,-111.111111111111,4,2,1,5,0,0
38793,-111.111111111111,4,2,1,65,0,0
41600,-125,4,2,1,65,0,0
47214,-125,4,2,1,55,0,0
51424,-111.111111111111,4,2,1,65,0,0
54933,-111.111111111111,4,2,1,40,0,0
55635,-90.9090909090908,4,2,1,80,0,1
59758,-90.9090909090908,4,2,1,5,0,1
59845,-90.9090909090908,4,2,1,80,0,1
66863,-90.9090909090908,4,2,1,80,0,1
67828,-90.9090909090908,4,2,1,5,0,1
67916,-90.9090909090908,4,2,1,80,0,1
78091,-100,4,2,2,70,0,0
78179,-100,4,2,1,70,0,0
80810,-100,4,2,1,5,0,0
80898,-100,4,2,1,70,0,0

[Colours]
Combo1 : 121,138,156
Combo2 : 187,187,108

[HitObjects]
10,56,2302,6,0,P|46:26|93:33,1,97.9999970092774,2|0,1:2|0:0,0:0:0:0:
216,131,3003,2,0,P|257:113|315:99,1,97.9999970092774,2|0,0:0|0:0,0:0:0:0:
351,33,3530,2,0,P|395:37|452:54,1,97.9999970092774,0|2,0:0|0:0,0:0:0:0:
503,107,4056,1,2,0:0:0:0:
499,124,4407,6,0,L|509:194,1,48.9999985046387,0|2,0:0|0:0,0:0:0:0:
449,226,4758,2,0,L|459:296,1,48.9999985046387,2|2,0:0|0:0,0:0:0:0:
503,355,5109,6,0,P|462:318|367:334,1,146.999995513916,2|0,1:2|0:0,0:0:0:0:
311,372,5810,2,0,P|264:360|209:354,1,97.9999970092774,2|0,0:0|0:0,0:0:0:0:
60,376,6512,2,0,B|86:335|86:335|42:231,1,146.999995513916,2|2,0:0|0:0,0:0:0:0:
8,176,7214,1,2,0:0:0:0:
8,176,7916,6,0,P|9:110|81:84,1,146.999995513916,2|0,1:2|0:0,0:0:0:0:
142,124,8617,2,0,P|189:112|244:106,1,97.9999970092774,2|0,0:0|0:0,0:0:0:0:
359,6,9319,2,0,B|399:45|399:45|368:132,1,146.999995513916,2|0,0:0|0:0,0:0:0:0:
408,198,10021,1,2,0:0:0:0:
408,198,10723,5,2,1:2:0:0:
355,256,10898,2,0,L|297:245,1,48.9999985046387,2|0,0:0|0:0,0:0:0:0:
261,182,11249,2,0,L|203:193,1,48.9999985046387,2|0,0:0|0:0,0:0:0:0:
156,246,11600,2,0,L|98:235,1,48.9999985046387,2|0,0:0|0:0,0:0:0:0:
76,164,11951,2,0,P|28:160|-1:197,1,97.9999970092774,2|4,0:0|3:0,0:0:0:0:
0,275,12477,2,0,P|6:299|16:333,1,48.9999985046387,4|4,3:0|3:0,0:0:0:0:
69,377,12828,5,8,1:2:0:0:
148,304,13003,1,8,1:2:0:0:
333,359,13354,5,2,0:0:0:0:
333,359,13442,1,2,0:0:0:0:
333,359,13530,2,0,P|346:291|359:212,1,140,6|8,1:2|0:0,0:0:0:0:
269,185,14056,2,0,P|234:175|194:163,1,70,2|2,0:0|1:2,0:0:0:0:
219,78,14407,1,2,0:0:0:0:
309,52,14582,2,0,P|339:59|378:72,1,70,10|2,0:0|0:0,0:0:0:0:
473,180,14933,6,0,P|428:159|353:205,1,140,2|10,1:2|0:0,0:0:0:0:
297,267,15459,1,2,0:0:0:0:
297,267,15635,2,0,P|307:301|321:339,1,70,2|0,1:2|0:0,0:0:0:0:
238,368,15986,2,0,P|206:337|128:344,1,105,10|0,0:0|0:0,0:0:0:0:
138,349,16337,6,0,P|85:341|-1:327,2,140,6|8|2,1:2|0:0|1:2,0:0:0:0:
99,260,17214,1,2,1:2:0:0:
99,260,17302,1,10,0:0:0:0:
99,260,17389,1,10,0:0:0:0:
152,175,17565,6,0,B|203:162|203:162|238:173|238:173|294:159,1,140,6|0,1:2|1:2,0:0:0:0:
338,88,18091,2,0,P|352:55|334:8,1,70,4|2,2:3|1:2,0:0:0:0:
261,0,18442,1,10,0:0:0:0:
261,0,18617,1,0,1:2:0:0:
488,119,19144,6,0,B|384:84|388:181|281:140,1,195.999994018555,6|0,3:2|0:0,0:0:0:0:
167,116,20196,2,0,P|175:142|183:171,1,48.9999985046387,2|0,0:0|0:0,0:0:0:0:
155,241,20547,6,0,P|187:212|254:221,1,97.9999970092774,2|0,0:0|0:0,0:0:0:0:
294,270,21073,1,2,0:0:0:0:
403,327,21424,2,0,L|459:316,2,48.9999985046387,2|2|2,0:0|0:0|1:2,0:0:0:0:
335,379,21951,6,0,P|300:375|172:358,1,146.999995513916,2|2,1:2|0:0,0:0:0:0:
123,308,22652,2,0,B|180:157|22:195|111:18,1,293.999991027832,2|0,0:0|0:0,0:0:0:0:
232,82,24056,6,0,P|263:75|336:62,1,97.9999970092774,2|2,0:0|0:0,0:0:0:0:
386,176,24758,1,2,1:2:0:0:
386,176,24933,2,0,P|391:207|405:280,1,97.9999970092774,2|2,0:0|0:0,0:0:0:0:
283,241,25635,2,0,P|235:247|192:224,1,97.9999970092774,2|2,0:0|1:2,0:0:0:0:
160,156,26161,5,2,1:2:0:0:
46,79,26512,2,0,P|39:121|26:198,1,97.9999970092774,2|2,0:0|0:0,0:0:0:0:
79,303,27214,2,0,P|113:296|141:292,1,48.9999985046387,2|2,0:0|1:2,0:0:0:0:
194,335,27565,5,2,1:2:0:0:
338,343,28091,1,2,0:0:0:0:
338,343,28266,2,0,B|341:275|341:275|385:242|385:242|391:159,1,195.999994018555,2|2,0:0|0:0,0:0:0:0:
237,83,29495,5,2,0:0:0:0:
237,83,29670,2,0,P|278:73|338:57,1,97.9999970092774,2|2,0:0|0:0,0:0:0:0:
406,91,30196,1,2,0:0:0:0:
495,21,30372,6,0,B|523:53|523:53|505:142,1,125.999996154785,6|0,1:2|1:2,0:0:0:0:
424,182,30898,2,0,P|466:236|465:308,1,125.999996154785,2|0,0:0|0:0,0:0:0:0:
432,381,31424,1,10,0:0:0:0:
432,381,31600,1,2,0:0:0:0:
333,325,31775,6,0,B|282:322|282:322|259:337|259:337|201:338,1,125.999996154785,2|2,1:2|1:2,0:0:0:0:
124,378,32302,2,0,L|47:383,1,62.9999980773926,2|0,0:0|1:2,0:0:0:0:
17,298,32652,2,0,L|94:293,1,62.9999980773926,2|10,0:0|0:0,0:0:0:0:
146,226,33003,1,2,0:0:0:0:
43,176,33179,6,0,P|42:116|96:92,1,125.999996154785,2|0,1:2|1:2,0:0:0:0:
188,131,33705,1,2,0:0:0:0:
188,131,33880,2,0,L|197:51,1,62.9999980773926,0|0,1:2|0:0,0:0:0:0:
270,10,34231,1,8,0:0:0:0:
282,22,34582,6,0,L|414:40,1,125.999996154785,0|0,1:2|1:2,0:0:0:0:
488,87,35109,1,4,3:3:0:0:
407,135,35284,2,0,L|418:207,1,62.9999980773926,2|8,1:2|3:3,0:0:0:0:
489,257,35635,2,0,P|500:309|461:350,1,94.499997116089,10|0,0:0|0:0,0:0:0:0:
459,342,35986,5,2,1:2:0:0:
371,376,36161,2,0,P|335:371|298:368,1,62.9999980773926,2|0,0:0|1:2,0:0:0:0:
243,299,36512,2,0,P|208:310|174:325,1,62.9999980773926,2|0,0:0|1:2,0:0:0:0:
95,355,36863,2,0,B|101:324|101:324|83:297,1,62.9999980773926,2|8,0:0|0:0,0:0:0:0:
22,222,37214,1,2,0:0:0:0:
22,222,37302,1,2,0:0:0:0:
22,222,37389,6,0,B|88:209|64:173|151:164,1,125.999996154785,2|2,1:2|1:2,0:0:0:0:
194,98,37916,1,8,0:0:0:0:
273,148,38091,2,0,L|284:228,1,62.9999980773926,6|4,3:3|3:3,0:0:0:0:
359,263,38442,2,0,P|395:267|443:226,1,94.499997116089,14|2,0:0|0:0,0:0:0:0:
446,223,38793,6,0,B|434:172|434:172|445:152|445:152|422:80,1,125.999996154785,6|8,1:2|0:0,0:0:0:0:
397,14,39319,1,6,1:2:0:0:
390,23,39670,5,2,1:2:0:0:
297,7,39845,2,0,P|234:17|172:28,1,125.999996154785,14|0,0:0|1:2,0:0:0:0:
80,4,40372,1,12,0:0:0:0:
72,13,40723,5,0,1:2:0:0:
8,82,40898,2,0,L|15:148,1,62.9999980773926,8|0,0:0|1:2,0:0:0:0:
26,158,41161,1,0,1:2:0:0:
26,158,41249,2,0,L|36:233,1,62.9999980773926,8|4,3:3|3:3,0:0:0:0:
111,298,41600,5,10,0:0:0:0:
111,298,41775,2,0,P|138:280|184:279,1,56,10|0,0:0|1:2,0:0:0:0:
224,339,42126,1,10,0:0:0:0:
224,339,42301,2,0,P|251:357|297:358,1,56,10|0,0:0|1:2,0:0:0:0:
338,307,42652,1,10,0:0:0:0:
338,307,42828,2,0,P|343:258|346:231,1,56,10|0,0:0|1:2,0:0:0:0:
416,206,43179,5,10,0:0:0:0:
416,206,43355,2,0,P|411:157|402:77,1,112,10|10,0:0|0:0,0:0:0:0:
347,33,43880,1,0,1:2:0:0:
268,3,44056,1,14,0:0:0:0:
203,160,44407,5,14,0:0:0:0:
203,160,44583,2,0,P|198:209|195:236,1,56,10|0,0:0|1:2,0:0:0:0:
274,260,44933,1,10,0:0:0:0:
274,260,45109,2,0,P|279:309|282:336,1,56,10|0,0:0|1:2,0:0:0:0:
221,375,45459,1,10,0:0:0:0:
221,375,45634,2,0,P|191:381|166:375,1,56,10|0,0:0|1:2,0:0:0:0:
97,335,45986,5,10,0:0:0:0:
97,335,46162,2,0,P|92:286|83:206,1,112,10|8,0:0|0:0,0:0:0:0:
52,146,46687,2,0,P|57:114|63:80,2,56,8|4|4,3:3|3:3|3:3,0:0:0:0:
135,49,47214,5,6,1:2:0:0:
147,63,47565,2,0,P|190:58|224:54,1,56,2|0,0:0|1:2,0:0:0:0:
276,16,47916,2,0,P|241:47|249:123,1,112,14|0,0:0|0:0,0:0:0:0:
302,165,48442,2,0,P|297:208|293:242,1,56,2|0,1:2|1:2,0:0:0:0:
325,299,48793,2,0,P|355:305|380:299,1,56,10|0,0:0|0:0,0:0:0:0:
446,247,49144,2,0,P|476:241|501:247,2,56,2|8|0,1:2|0:0|1:2,0:0:0:0:
475,326,49670,1,2,1:2:0:0:
317,383,50021,6,0,P|322:334|331:254,1,112,2|0,1:2|0:0,0:0:0:0:
274,207,50547,1,2,1:2:0:0:
209,261,50723,2,0,B|137:275|137:275|95:244,1,112,10|8,0:0|0:0,0:0:0:0:
46,192,51249,1,2,1:2:0:0:
78,92,51424,5,14,0:0:0:0:
78,92,51600,2,0,P|118:85|159:78,1,62.9999980773926,10|0,0:0|1:2,0:0:0:0:
201,153,51951,2,0,P|232:158|263:163,1,62.9999980773926,10|0,0:0|1:2,0:0:0:0:
335,224,52302,1,10,0:0:0:0:
418,180,52477,2,0,P|437:152|440:121,1,62.9999980773926,10|0,0:0|1:2,0:0:0:0:
390,42,52828,5,0,1:2:0:0:
308,78,53003,1,10,0:0:0:0:
308,78,53091,1,10,0:0:0:0:
308,78,53179,2,0,L|264:69,3,31.4999990386963,10|8|10|8,1:2|0:0|0:0|0:0,0:0:0:0:
238,44,53530,2,0,L|207:50,3,31.4999990386963,10|8|10|8,1:2|0:0|0:0|0:0,0:0:0:0:
165,61,53880,5,10,1:2:0:0:
84,24,54056,1,6,1:2:0:0:
84,24,54933,5,2,3:2:0:0:
18,92,55109,2,0,P|28:154|35:216,1,125.999996154785,2|0,3:2|0:0,0:0:0:0:
1,326,55635,6,0,P|44:268|116:282,1,154.000004699707,6|8,1:2|0:0,0:0:0:0:
203,346,56161,1,0,0:0:0:0:
290,282,56337,2,0,P|282:244|273:206,1,77.0000023498536,0|0,1:2|1:2,0:0:0:0:
173,167,56687,2,0,P|180:129|189:91,1,77.0000023498536,8|0,0:0|0:0,0:0:0:0:
286,15,57038,6,0,P|268:64|357:74,1,154.000004699707,2|10,1:2|0:0,0:0:0:0:
455,56,57565,1,0,0:0:0:0:
455,56,57652,1,8,0:0:0:0:
455,56,57740,2,0,P|451:94|448:132,1,77.0000023498536,2|2,1:2|0:0,0:0:0:0:
492,236,58091,1,10,0:0:0:0:
492,236,58266,1,2,0:0:0:0:
369,244,58442,6,0,L|206:199,1,154.000004699707,6|8,1:2|0:0,0:0:0:0:
146,123,58968,1,0,0:0:0:0:
55,182,59144,2,0,P|63:219|70:257,1,77.0000023498536,2|0,1:2|0:0,0:0:0:0:
59,365,59495,2,0,P|107:327|166:350,1,115.50000352478,8|0,0:0|0:0,0:0:0:0:
165,351,59845,6,0,L|332:364,1,154.000004699707,2|8,1:2|0:0,0:0:0:0:
392,283,60372,1,2,0:0:0:0:
470,356,60547,2,0,B|458:269|517:303|501:196,1,154.000004699707,2|8,1:2|0:0,0:0:0:0:
445,133,61073,1,8,0:0:0:0:
445,133,61161,1,8,0:0:0:0:
445,133,61249,6,0,B|384:113|384:113|369:88|369:88|294:62,1,154.000004699707,6|8,1:2|0:0,0:0:0:0:
221,8,61775,1,0,0:0:0:0:
129,66,61951,2,0,P|137:103|142:141,1,77.0000023498536,6|0,1:2|0:0,0:0:0:0:
243,182,62302,2,0,P|234:219|229:257,1,77.0000023498536,8|0,0:0|0:0,0:0:0:0:
282,351,62652,6,0,P|235:294|166:315,1,154.000004699707,6|8,1:2|0:0,0:0:0:0:
80,382,63179,1,0,0:0:0:0:
4,304,63354,2,0,P|9:265|15:227,1,77.0000023498536,6|0,1:2|0:0,0:0:0:0:
96,157,63705,1,8,0:0:0:0:
37,71,63880,1,8,0:0:0:0:
37,71,63968,1,8,0:0:0:0:
37,71,64056,5,6,1:2:0:0:
130,3,64231,2,0,P|140:40|148:77,1,77.0000023498536,2|8,0:0|0:0,0:0:0:0:
234,143,64582,2,0,P|243:105|250:67,1,77.0000023498536,2|0,0:0|1:2,0:0:0:0:
342,10,64933,1,2,1:2:0:0:
367,114,65109,1,8,0:0:0:0:
489,26,65284,6,0,B|530:72|530:72|491:176,1,154.000004699707,10|6,0:0|3:3,0:0:0:0:
418,230,65810,1,8,0:0:0:0:
418,230,65898,1,8,0:0:0:0:
418,230,65986,1,8,0:0:0:0:
474,321,66161,2,0,P|436:327|398:337,1,77.0000023498536,6|2,0:3|0:0,0:0:0:0:
392,354,66424,1,2,1:2:0:0:
392,354,66512,2,0,P|353:352|315:354,1,77.0000023498536,10|10,1:2|0:0,0:0:0:0:
216,289,66863,6,0,P|225:236|241:125,1,154.000004699707,6|8,1:2|0:0,0:0:0:0:
28,63,67565,2,0,P|77:53|117:120,1,115.50000352478,0|0,1:2|0:0,0:0:0:0:
119,109,67916,2,0,P|113:153|107:188,1,77.0000023498536,8|0,0:0|0:0,0:0:0:0:
24,256,68266,5,0,1:2:0:0:
81,352,68442,2,0,P|124:344|179:331,1,77.0000023498536,2|8,0:0|0:0,0:0:0:0:
220,246,68793,1,2,0:0:0:0:
220,246,68880,1,10,0:0:0:0:
220,246,68968,2,0,P|256:253|301:262,1,77.0000023498536,0|2,1:2|0:0,0:0:0:0:
366,345,69319,1,10,0:0:0:0:
366,345,69495,1,2,0:0:0:0:
462,270,69670,6,0,P|451:190|441:96,1,154.000004699707,2|8,1:2|0:0,0:0:0:0:
363,42,70196,1,0,0:0:0:0:
313,142,70372,2,0,P|272:125|194:197,1,154.000004699707,2|8,1:2|0:0,0:0:0:0:
252,277,70898,5,0,0:0:0:0:
252,277,70986,1,0,3:0:0:0:
252,277,71073,2,0,B|194:269|194:269|158:288|158:288|81:281,1,154.000004699707,2|8,1:2|0:0,0:0:0:0:
34,197,71600,1,8,0:3:0:0:
122,128,71775,2,0,B|106:43|106:43|162:0,1,154.000004699707,2|8,1:2|0:0,0:0:0:0:
238,80,72302,5,0,0:0:0:0:
238,80,72389,1,8,0:0:0:0:
238,80,72477,2,0,B|324:54|307:132|398:115,1,154.000004699707,6|8,1:2|0:0,0:0:0:0:
480,159,73003,1,0,0:0:0:0:
483,271,73179,2,0,P|439:263|327:239,1,154.000004699707,6|8,1:2|0:0,0:0:0:0:
258,320,73705,1,0,0:0:0:0:
145,320,73880,6,0,B|171:245|98:254|131:172,1,154.000004699707,6|8,1:2|0:0,0:0:0:0:
224,119,74407,1,0,0:0:0:0:
349,55,74582,2,0,P|305:47|195:26,1,154.000004699707,6|8,1:2|0:0,0:0:0:0:
105,86,75109,5,8,0:3:0:0:
105,86,75196,1,4,0:3:0:0:
105,86,75284,1,6,1:2:0:0:
33,170,75459,2,0,P|40:220|43:260,1,77.0000023498536,2|8,0:0|0:0,0:0:0:0:
122,321,75810,2,0,P|163:329|210:296,1,77.0000023498536,2|0,0:0|1:2,0:0:0:0:
250,220,76161,1,2,1:2:0:0:
328,300,76337,1,8,0:0:0:0:
423,223,76512,6,0,P|431:162|446:60,1,154.000004699707,8|8,0:0|3:3,0:0:0:0:
330,79,77038,2,0,P|295:97|244:73,1,77.0000023498536,8|8,1:2|0:0,0:0:0:0:
228,64,77302,1,8,0:0:0:0:
228,64,77389,2,0,L|171:60,3,38.5000011749268,8|8|8|8,0:0|0:0|3:3|0:0,0:0:0:0:
152,77,77740,2,0,L|114:80,3,38.5000011749268,0|8|4|4,1:2|3:3|3:3|3:3,0:0:0:0:
60,63,78091,6,0,B|17:109|17:109|63:186,1,140,6|10,1:2|0:0,0:0:0:0:
17,272,78617,2,0,P|84:254|152:243,1,140,2|2,0:0|0:0,0:0:0:0:
223,163,79144,1,8,0:0:0:0:
223,163,79319,6,0,P|258:170|291:179,1,70,2|0,0:0|1:2,0:0:0:0:
372,113,79670,2,0,P|383:146|392:179,1,70,2|8,0:0|0:0,0:0:0:0:
489,220,80021,2,0,P|465:246|441:270,1,70,2|6,0:0|3:3,0:0:0:0:
335,271,80372,1,2,0:0:0:0:
350,374,80547,2,0,P|298:364|246:356,1,105,10|0,0:0|0:0,0:0:0:0:
202,329,80898,6,0,B|125:320|150:387|53:370,1,140,6|10,1:2|0:0,0:0:0:0:
1,282,81424,2,0,P|12:212|20:143,1,140,10|2,3:3|0:0,0:0:0:0:
17,37,81951,1,8,0:0:0:0:
17,37,82126,6,0,P|47:56|81:62,1,70,2|2,0:0|1:2,0:0:0:0:
149,141,82477,2,0,P|181:129|208:106,1,70,2|8,0:0|1:2,0:0:0:0:
227,2,82828,2,0,P|259:17|293:26,1,70,8|0,1:2|1:2,0:0:0:0:
396,13,83179,1,6,3:3:0:0:
396,13,83266,1,0,0:0:0:0:
396,13,83354,2,0,P|390:48|386:83,1,70,8|2,1:2|0:0,0:0:0:0:
485,158,83705,6,0,B|428:165|428:165|407:184|407:184|323:195,1,140,6|10,1:2|0:0,0:0:0:0:
264,241,84231,1,0,0:0:0:0:
264,241,84319,1,8,3:3:0:0:
264,241,84407,2,0,P|259:206|254:171,1,70,0|2,1:2|0:0,0:0:0:0:
188,89,84758,2,0,P|122:90|106:154,1,140,8|0,0:0|1:2,0:0:0:0:
9,340,85459,6,0,P|78:341|148:348,1,140,10|2,0:0|1:2,0:0:0:0:
250,378,85986,1,2,0:0:0:0:
328,308,86161,1,10,0:0:0:0:
328,308,86337,1,0,0:0:0:0:
444,355,86512,6,0,B|447:299|447:299|466:282|466:282|468:209,1,140,14|0,0:0|1:2,0:0:0:0:
383,160,87038,2,0,P|431:127|393:51,1,140,14|0,0:0|1:2,0:0:0:0:
316,9,87565,1,14,0:0:0:0:
239,81,87740,2,0,P|202:74|156:65,1,70,0|0,1:2|1:2,0:0:0:0:
68,95,88091,6,0,P|60:60|48:22,2,70,6|8|4,3:3|3:3|3:3,0:0:0:0:
146,165,88617,1,6,1:2:0:0:
146,165,88793,1,10,0:0:0:0:
74,241,88968,1,0,1:2:0:0:
171,320,89144,1,14,0:0:0:0:
