osu file format v14

[General]
AudioFilename: audio.mp3
AudioLeadIn: 0
PreviewTime: 54330
Countdown: 0
SampleSet: Soft
StackLeniency: 0.7
Mode: 0
LetterboxInBreaks: 0
WidescreenStoryboard: 1

[Editor]
DistanceSpacing: 1.7
BeatDivisor: 4
GridSize: 4
TimelineZoom: 2.1

[Metadata]
Title:IGNITE (TV Size)
TitleUnicode:IGNITE (TV Size)
Artist:Aoi Eir
ArtistUnicode:藍井エイル
Creator:Sotarks
Version:INSANE
Source:ソードアート・オンラインⅡ
Tags:Sword Art Online SAO GGO opening op female vocalist japanese anime reform kujinn
BeatmapID:2464481
BeatmapSetID:1182043

[Difficulty]
HPDrainRate:5
CircleSize:3.5
OverallDifficulty:8.2
ApproachRate:8.7
SliderMultiplier:1.62
SliderTickRate:1

[Events]
//Background and Video events
0,0,"bg.jpg",0,0
Video,0,"video.mp4"
//Break Periods
//Storyboard Layer 0 (Background)
//Storyboard Layer 1 (Fail)
//Storyboard Layer 2 (Pass)
//Storyboard Layer 3 (Foreground)
//Storyboard Layer 4 (Overlay)
//Storyboard Sound Samples

[TimingPoints]
909,350.877192982456,4,2,22,52,1,0
2312,-138.888888888889,4,2,22,52,0,0
12137,-138.888888888889,4,2,22,62,0,0
13540,-98.0392156862746,4,2,22,72,0,0
19154,-121.951219512195,4,2,22,52,0,0
30382,-108.695652173913,4,3,22,62,0,0
38803,-98.0392156862745,4,2,22,72,0,0
41610,-98.0392156862745,4,2,22,72,0,0
52838,-98.0392156862745,4,2,22,82,0,0
54944,-98.0392156862745,4,2,22,62,0,0
55118,-138.888888888889,4,2,22,62,0,0
55645,-89.2857142857143,4,2,22,92,0,0
78101,-89.2857142857143,4,2,22,82,0,0
86523,-89.2857142857143,4,2,22,92,0,0

[Colours]
Combo1 : 215,208,185
Combo2 : 183,255,219
Combo3 : 205,201,124

[HitObjects]
103,132,2312,6,0,P|147:123|182:117,1,58.3200014238282,2|0,0:0|0:0,0:0:0:0:
235,38,2663,2,0,P|263:43|292:49,1,58.3200014238282
399,76,3014,2,0,P|370:133|372:210,1,116.640002847656,0|0,3:0|0:0,0:0:0:0:
425,279,3540,2,0,P|396:284|367:290,1,58.3200014238282
275,352,3891,1,0,0:0:0:0:
202,268,4066,2,0,P|173:261|144:256,1,58.3200014238282
101,382,4417,2,0,P|129:375|158:370,1,58.3200014238282,0|0,3:0|0:0,0:0:0:0:
218,254,4768,2,0,P|189:247|160:242,1,58.3200014238282
60,289,5119,6,0,P|53:216|48:153,1,116.640002847656,2|0,0:0|0:0,0:0:0:0:
90,69,5645,1,0,0:0:0:0:
166,149,5821,2,0,P|215:158|246:165,1,58.3200014238282,0|0,3:0|0:0,0:0:0:0:
289,70,6172,2,0,P|317:64|346:59,1,58.3200014238282
455,80,6523,2,0,P|415:116|411:196,1,116.640002847656
458,272,7049,1,0,0:0:0:0:
351,243,7224,2,0,B|247:235|299:324|170:304,1,174.960004271484,0|0,3:0|0:0,0:0:0:0:
86,317,7926,6,0,P|56:230|117:152,1,174.960004271484,2|0,0:0|0:0,0:0:0:0:
158,71,8628,2,0,P|234:78|337:103,1,174.960004271484,0|0,3:0|0:0,0:0:0:0:
419,34,9330,2,0,P|431:97|435:114,1,58.3200014238282
502,174,9680,2,0,P|490:237|486:254,1,58.3200014238282
422,318,10031,2,0,B|363:299|311:281|311:281|261:321,1,174.960004271484,0|0,3:0|0:0,0:0:0:0:
161,356,10733,5,2,0:0:0:0:
161,356,10908,2,0,P|155:316|148:284,1,58.3200014238282
51,250,11259,2,0,P|61:178|80:121,1,116.640002847656
54,26,11786,1,0,0:0:0:0:
149,81,11961,2,0,P|193:72|231:67,1,58.3200014238282,0|2,0:0|0:0,0:0:0:0:
309,28,12312,1,4,0:3:0:0:
246,167,12487,1,4,0:3:0:0:
380,105,12663,1,4,0:3:0:0:
220,34,12838,1,8,0:2:0:0:
333,231,13014,1,8,0:2:0:0:
333,231,13540,6,0,P|251:217|185:286,1,165.240001008545,6|8,1:2|0:2,0:0:0:0:
61,337,14066,2,0,P|67:278|71:227,1,82.6200005042725,2|0,1:2|1:2,0:0:0:0:
16,114,14417,1,0,0:2:0:0:
146,186,14593,1,10,0:2:0:0:
214,54,14768,2,0,B|315:39|257:117|386:98,1,165.240001008545,2|0,0:2|0:0,0:0:0:0:
501,41,15294,2,0,P|491:103|485:146,1,82.6200005042725,10|0,0:2|0:2,0:0:0:0:
374,218,15645,2,0,P|367:177|361:136,1,82.6200005042725,2|0,1:2|0:2,0:0:0:0:
488,214,15996,1,10,0:2:0:0:
200,136,16347,6,0,P|188:239|176:338,2,165.240001008545,6|8|0,1:2|0:2|1:2,0:0:0:0:
95,242,17224,1,2,0:2:0:0:
272,184,17400,1,10,0:2:0:0:
137,32,17575,2,0,P|78:41|48:148,1,165.240001008545,10|0,0:2|1:2,0:0:0:0:
190,121,18101,2,0,P|261:105|295:101,1,82.6200005042725,4|0,1:3|1:2,0:0:0:0:
426,197,18452,1,10,0:2:0:0:
361,35,18628,1,8,1:3:0:0:
361,35,19154,6,0,B|183:-7|251:185|46:129,1,332.100005067444,6|0,1:2|0:2,0:0:0:0:
17,220,20207,2,0,P|61:223|97:230,1,66.4200010134888,2|0,0:2|0:2,0:0:0:0:
156,294,20558,2,0,P|215:279|304:265,1,132.840002026978,2|0,0:2|0:2,0:0:0:0:
373,315,21084,2,0,P|378:261|382:230,1,66.4200010134888,2|0,0:2|0:2,0:0:0:0:
477,268,21435,2,0,P|474:234|470:201,1,66.4200010134888,2|0,0:2|0:2,0:0:0:0:
429,110,21786,1,2,1:2:0:0:
341,157,21961,6,0,P|287:172|205:118,1,132.840002026978,0|0,1:2|0:2,0:0:0:0:
155,64,22487,1,2,0:2:0:0:
60,95,22663,2,0,P|74:142|82:176,1,66.4200010134888,2|0,0:2|0:0,0:0:0:0:
160,214,23014,2,0,P|146:261|138:295,1,66.4200010134888,0|0,0:0|0:2,0:0:0:0:
81,357,23365,2,0,P|138:326|201:340,1,132.840002026978,0|0,0:2|0:2,0:0:0:0:
399,369,24066,1,2,0:2:0:0:
312,195,24417,1,2,3:2:0:0:
393,136,24593,1,0,1:2:0:0:
406,234,24768,5,2,1:2:0:0:
406,234,24944,2,0,P|412:290|416:321,1,66.4200010134888,2|0,0:2|0:2,0:0:0:0:
325,345,25294,2,0,P|328:312|332:278,1,66.4200010134888,2|0,0:2|0:2,0:0:0:0:
239,241,25645,2,0,P|242:274|246:307,1,66.4200010134888,2|0,0:2|0:2,0:0:0:0:
173,375,25996,1,2,1:2:0:0:
130,284,26172,2,0,P|43:299|-24:312,2,132.840002026978,0|2|2,1:2|0:2|0:2,0:0:0:0:
216,104,27224,1,2,3:2:0:0:
323,271,27575,6,0,P|391:226|458:246,1,132.840002026978,2|0,1:2|0:2,0:0:0:0:
405,328,28101,1,2,0:2:0:0:
311,362,28277,2,0,P|241:353|158:346,1,132.840002026978,2|0,0:2|0:2,0:0:0:0:
83,377,28803,1,0,1:2:0:0:
16,302,28979,2,0,P|18:248|97:202,1,132.840002026978,0|0,1:2|0:2,0:0:0:0:
175,213,29505,1,2,0:2:0:0:
112,290,29680,1,2,0:2:0:0:
377,151,30207,5,0,3:2:0:0:
377,151,30294,1,0,3:2:0:0:
377,151,30382,2,0,P|385:234|393:311,1,149.039994996826,6|0,1:2|1:2,0:0:0:0:
300,364,30908,1,0,0:2:0:0:
211,295,31084,2,0,P|218:228|224:186,1,74.5199974984132,0|0,1:2|0:2,0:0:0:0:
286,131,31435,2,0,P|282:93|278:56,1,74.5199974984132,10|0,0:2|0:2,0:0:0:0:
173,15,31786,2,0,P|106:26|78:110,1,149.039994996826,2|2,1:2|1:2,0:0:0:0:
2,180,32312,2,0,P|72:187|101:193,1,74.5199974984132,2|0,0:2|1:2,0:0:0:0:
98,297,32663,2,0,P|168:290|197:284,1,74.5199974984132,2|8,0:2|0:2,0:0:0:0:
250,209,33014,1,2,0:2:0:0:
326,289,33189,6,0,B|379:271|427:253|427:253|474:293,1,149.039994996826,0|0,1:2|1:2,0:0:0:0:
495,173,33716,1,2,0:2:0:0:
413,97,33891,2,0,P|405:160|403:197,1,74.5199974984132,2|0,1:2|0:2,0:0:0:0:
304,119,34242,2,0,P|307:156|312:192,1,74.5199974984132,8|0,0:2|0:2,0:0:0:0:
206,156,34593,6,0,P|130:145|42:137,1,149.039994996826,0|0,1:2|1:2,0:0:0:0:
4,236,35119,1,4,0:3:0:0:
95,300,35294,2,0,P|165:290|190:286,1,74.5199974984132,10|0,1:3|0:2,0:0:0:0:
265,346,35645,1,10,0:2:0:0:
395,164,35996,1,2,1:2:0:0:
395,164,36172,2,0,P|403:213|411:253,1,74.5199974984132,2|0,0:2|1:2,0:0:0:0:
297,217,36523,2,0,P|281:130|267:46,1,149.039994996826,2|2,0:2|0:2,0:0:0:0:
358,0,37049,1,8,0:2:0:0:
195,153,37400,6,0,P|148:144|103:136,1,74.5199974984132,0|0,1:2|0:0,0:0:0:0:
171,313,37751,2,0,P|195:284|219:256,1,74.5199974984132,2|8,1:2|0:2,0:0:0:0:
43,216,38101,2,0,P|55:251|67:286,1,74.5199974984132,6|4,1:3|0:3,0:0:0:0:
138,220,38452,1,14,0:2:0:0:
359,108,38803,6,0,P|424:114|454:212,1,165.240001008545,6|8,1:2|0:2,0:0:0:0:
483,320,39330,2,0,P|382:329|302:353,1,165.240001008545,6|10,1:2|0:2,0:0:0:0:
221,271,39856,2,0,B|122:248|167:338|45:311,1,165.240001008545,6|8,1:2|0:2,0:0:0:0:
11,206,40382,2,0,P|20:151|147:132,1,165.240001008545,6|0,1:2|1:2,0:0:0:0:
224,167,40908,1,10,0:2:0:0:
319,87,41084,1,0,1:2:0:0:
224,7,41259,2,0,P|242:86|245:102,1,82.6200005042725,10|4,0:3|0:3,0:0:0:0:
300,284,41610,5,10,0:2:0:0:
393,202,41786,2,0,P|403:250|411:293,1,82.6200005042725,10|0,0:2|1:2,0:0:0:0:
312,205,42137,1,10,0:2:0:0:
219,123,42313,2,0,P|209:171|201:214,1,82.6200005042725,10|0,0:2|1:2,0:0:0:0:
297,124,42663,5,10,0:2:0:0:
391,44,42838,2,0,P|471:52|494:57,1,82.6200005042725,10|0,0:2|1:2,0:0:0:0:
374,128,43189,1,10,0:2:0:0:
280,48,43364,2,0,P|200:56|177:61,1,82.6200005042725,10|0,0:2|1:2,0:0:0:0:
108,143,43716,5,10,0:2:0:0:
164,33,43891,1,0,1:2:0:0:
209,148,44066,1,10,0:2:0:0:
88,65,44242,1,0,1:2:0:0:
29,238,44417,5,10,0:2:0:0:
108,143,44593,2,0,P|171:156|220:166,1,82.6200005042725,10|0,0:2|1:2,0:0:0:0:
310,132,44944,1,10,0:2:0:0:
243,26,45120,2,0,P|180:39|131:49,1,82.6200005042725,10|0,0:2|1:2,0:0:0:0:
209,148,45470,5,10,0:2:0:0:
320,94,45645,2,0,P|383:107|432:117,1,82.6200005042725,10|0,0:2|1:2,0:0:0:0:
418,233,45996,1,10,0:2:0:0:
307,179,46171,2,0,P|244:192|195:202,1,82.6200005042725,10|8,0:2|0:2,0:0:0:0:
203,229,46435,1,8,0:2:0:0:
203,229,46523,2,0,P|196:281|213:324,1,82.6200005042725,8|8,0:2|0:3,0:0:0:0:
317,359,46873,2,0,P|326:319|318:278,1,82.6200005042725,4|4,0:3|0:3,0:0:0:0:
207,79,47224,6,0,B|314:59|242:148|383:117,1,165.240001008545,4|2,1:2|0:2,0:0:0:0:
458,50,47751,1,0,1:2:0:0:
380,146,47926,2,0,P|393:196|401:245,1,82.6200005042725,10|0,0:2|0:0,0:0:0:0:
353,342,48277,1,2,0:2:0:0:
263,256,48452,6,0,P|193:270|154:282,1,82.6200005042725,2|0,1:2|0:2,0:0:0:0:
91,357,48803,2,0,P|131:363|171:374,1,82.6200005042725,10|0,0:2|0:2,0:0:0:0:
141,253,49154,1,2,1:2:0:0:
18,272,49330,2,0,P|25:192|36:104,1,165.240001008545,8|2,0:2|1:2,0:0:0:0:
109,7,49856,1,0,0:2:0:0:
169,114,50031,6,0,P|213:130|311:62,1,165.240001008545,6|0,1:2|0:2,0:0:0:0:
286,196,50558,1,2,1:2:0:0:
377,112,50733,2,0,P|439:120|484:125,1,82.6200005042725,10|0,0:2|1:2,0:0:0:0:
488,243,51084,2,0,P|426:251|381:256,1,82.6200005042725,8|2,0:2|1:2,0:0:0:0:
302,322,51435,5,10,0:2:0:0:
189,271,51610,2,0,P|171:322|168:375,1,82.6200005042725,2|0,1:2|1:2,0:0:0:0:
312,288,51961,2,0,P|305:247|290:208,1,82.6200005042725,2|8,1:2|1:2,0:0:0:0:
192,132,52312,1,10,0:2:0:0:
316,175,52487,1,10,1:2:0:0:
189,271,52663,1,8,0:2:0:0:
308,89,52838,1,8,1:2:0:0:
358,302,53014,5,8,0:2:0:0:
358,302,53101,1,8,0:2:0:0:
358,302,53189,2,0,P|404:294|414:292,3,41.3100002521362,8|8|8|8,1:2|0:2|0:2|0:2,0:0:0:0:
278,170,53540,2,0,P|257:165|237:162,1,41.3100002521362,0|8,1:2|1:2,0:0:0:0:
168,351,53716,2,0,P|188:347|208:344,1,41.3100002521362,8|8,0:2|0:2,0:0:0:0:
174,106,53891,1,0,1:2:0:0:
303,367,54066,1,10,0:2:0:0:
170,77,54944,5,4,3:3:0:0:
170,77,55119,2,0,P|233:70|301:62,1,116.640002847656,8|0,3:3|0:2,0:0:0:0:
427,32,55645,6,0,P|395:86|386:217,1,181.440002214844,6|8,1:2|0:2,0:0:0:0:
410,355,56172,1,8,0:3:0:0:
307,240,56347,2,0,P|230:252|183:260,1,90.7200011074219,0|4,1:2|0:3,0:0:0:0:
125,378,56698,2,0,P|80:370|35:363,1,90.7200011074219,8|0,0:2|1:2,0:0:0:0:
4,292,56961,1,0,1:2:0:0:
4,292,57049,6,0,P|7:238|35:190,1,90.7200011074219,0|0,1:2|0:2,0:0:0:0:
162,139,57400,2,0,P|179:180|180:225,1,90.7200011074219,10|0,0:2|0:2,0:0:0:0:
68,118,57751,1,2,1:2:0:0:
183,38,57926,1,4,0:3:0:0:
101,205,58101,1,10,0:2:0:0:
6,56,58277,1,10,0:3:0:0:
162,139,58452,6,0,P|250:125|352:111,1,181.440002214844,0|8,1:2|0:2,0:0:0:0:
473,30,58979,1,0,0:2:0:0:
373,147,59154,2,0,P|387:216|393:251,1,90.7200011074219,2|0,1:2|0:2,0:0:0:0:
494,350,59505,2,0,P|502:305|511:260,1,90.7200011074219,8|0,0:2|1:2,0:0:0:0:
375,335,59856,6,0,B|314:316|256:297|256:297|199:334,1,181.440002214844,2|8,1:2|0:2,0:0:0:0:
262,182,60382,1,0,0:2:0:0:
134,269,60558,2,0,P|67:257|43:148,1,181.440002214844,2|8,1:2|0:2,0:0:0:0:
151,52,61084,1,8,0:2:0:0:
151,52,61172,1,8,0:2:0:0:
151,52,61259,6,0,B|260:22|205:122|344:85,1,181.440002214844,6|8,1:2|0:2,0:0:0:0:
457,21,61786,1,8,0:3:0:0:
347,128,61961,2,0,P|361:198|367:238,1,90.7200011074219,2|0,1:2|0:2,0:0:0:0:
495,299,62312,2,0,P|502:254|512:209,1,90.7200011074219,8|0,0:2|1:2,0:0:0:0:
388,303,62663,6,0,P|300:313|177:329,1,181.440002214844,2|8,1:2|0:2,0:0:0:0:
257,178,63189,1,0,0:2:0:0:
128,264,63365,2,0,P|117:194|113:156,1,90.7200011074219,2|4,1:2|0:3,0:0:0:0:
12,56,63716,2,0,P|6:102|-1:146,1,90.7200011074219,8|8,0:2|0:2,0:0:0:0:
85,101,63979,1,8,0:2:0:0:
85,101,64066,6,0,P|138:90|204:80,1,90.7200011074219,6|0,1:2|0:2,0:0:0:0:
308,7,64417,1,8,0:2:0:0:
375,146,64593,2,0,P|419:153|464:162,1,90.7200011074219,2|0,0:2|1:2,0:0:0:0:
429,12,64944,2,0,P|384:19|339:28,1,90.7200011074219,8|0,0:3|1:2,0:0:0:0:
243,148,65294,2,0,P|253:242|265:348,1,181.440002214844,10|6,0:2|0:3,0:0:0:0:
156,214,65821,1,10,0:2:0:0:
299,268,65996,1,0,1:2:0:0:
171,354,66172,1,2,1:2:0:0:
222,282,66347,1,0,1:2:0:0:
222,282,66435,1,8,0:2:0:0:
222,282,66523,2,0,L|279:291,3,45.3600005537109,10|8|2|0,0:2|0:2|1:2|1:2,0:0:0:0:
255,193,66873,6,0,P|315:184|373:178,1,90.7200011074219,6|0,1:2|0:0,0:0:0:0:
237,68,67224,2,0,P|177:59|119:53,1,90.7200011074219,8|8,0:2|0:3,0:0:0:0:
35,162,67575,1,0,1:2:0:0:
116,30,67751,1,4,0:3:0:0:
179,169,67926,2,0,P|169:236|162:281,1,90.7200011074219,8|0,0:2|1:2,0:0:0:0:
193,330,68189,1,0,1:2:0:0:
193,330,68277,6,0,P|253:321|311:315,1,90.7200011074219,0|0,1:2|0:2,0:0:0:0:
395,211,68628,2,0,P|335:202|277:196,1,90.7200011074219,10|0,0:2|0:2,0:0:0:0:
430,291,68979,1,2,1:2:0:0:
498,158,69154,1,4,0:3:0:0:
331,280,69330,1,10,0:2:0:0:
457,368,69505,1,2,1:2:0:0:
457,368,69593,1,0,1:2:0:0:
457,368,69680,6,0,P|387:317|286:357,1,181.440002214844,4|8,1:2|0:2,0:0:0:0:
188,255,70207,1,8,0:3:0:0:
66,349,70382,2,0,P|58:288|51:245,1,90.7200011074219,2|0,1:2|0:2,0:0:0:0:
157,144,70733,2,0,P|150:188|144:233,1,90.7200011074219,8|0,0:2|1:2,0:0:0:0:
67,99,71084,6,0,P|138:47|222:71,1,181.440002214844,2|8,1:2|0:2,0:0:0:0:
342,169,71610,1,8,0:2:0:0:
291,22,71786,1,2,1:2:0:0:
250,170,71961,1,4,0:3:0:0:
370,73,72137,2,0,P|432:81|479:90,1,90.7200011074219,8|8,0:2|0:2,0:0:0:0:
497,153,72400,1,8,0:2:0:0:
497,153,72487,6,0,B|389:132|450:230|311:203,1,181.440002214844,6|8,1:2|0:2,0:0:0:0:
231,90,73014,1,8,0:3:0:0:
98,167,73189,2,0,P|110:227|119:286,1,90.7200011074219,2|0,1:2|0:2,0:0:0:0:
246,336,73540,2,0,P|253:291|262:246,1,90.7200011074219,8|0,0:2|1:2,0:0:0:0:
359,126,73891,6,0,P|381:257|391:330,1,181.440002214844,2|8,1:2|0:2,0:0:0:0:
457,166,74417,1,0,0:2:0:0:
318,235,74593,2,0,P|246:223|194:218,1,90.7200011074219,2|0,1:2|1:2,0:0:0:0:
157,252,74856,1,8,0:2:0:0:
157,252,74944,2,0,P|163:306|167:327,3,45.3600005537109,8|8|4|4,0:2|0:3|0:3|0:3,0:0:0:0:
65,259,75294,6,0,P|74:186|80:143,1,90.7200011074219,6|0,1:2|0:2,0:0:0:0:
183,57,75645,1,8,0:2:0:0:
306,144,75821,2,0,P|311:188|317:234,1,90.7200011074219,2|0,0:2|1:2,0:0:0:0:
184,154,76172,1,6,0:3:0:0:
293,45,76347,1,8,0:2:0:0:
390,212,76523,1,10,0:2:0:0:
274,128,76698,5,0,1:2:0:0:
412,83,76873,1,8,0:2:0:0:
279,258,77049,1,0,1:2:0:0:
183,57,77224,1,0,1:2:0:0:
371,162,77400,1,8,0:2:0:0:
168,288,77575,1,8,0:2:0:0:
168,288,77663,1,8,0:2:0:0:
168,288,77751,2,0,P|103:276|88:275,1,45.3600005537109,8|8,0:2|0:3,0:0:0:0:
204,156,77926,2,0,P|226:150|248:146,1,45.3600005537109,4|4,0:3|0:3,0:0:0:0:
366,310,78101,6,0,P|433:297|474:290,1,90.7200011074219,6|0,1:2|0:2,0:0:0:0:
371,162,78452,1,10,0:2:0:0:
246,253,78628,2,0,P|179:240|138:233,1,90.7200011074219,2|0,0:2|1:2,0:0:0:0:
236,103,78979,1,10,0:3:0:0:
324,228,79154,1,8,0:2:0:0:
175,184,79330,6,0,P|130:192|85:200,1,90.7200011074219,2|0,0:2|1:2,0:0:0:0:
185,318,79680,1,2,0:2:0:0:
256,180,79856,1,8,0:2:0:0:
325,317,80031,2,0,B|395:290|449:267|449:267|519:316,1,181.440002214844,2|4,0:2|0:3,0:0:0:0:
348,226,80558,1,10,0:2:0:0:
421,361,80733,1,0,0:2:0:0:
491,224,80908,6,0,P|481:171|471:115,1,90.7200011074219,6|0,1:2|0:2,0:0:0:0:
359,31,81259,1,10,0:2:0:0:
271,158,81435,2,0,P|262:202|254:247,1,90.7200011074219,6|0,1:3|1:2,0:0:0:0:
379,156,81786,1,10,0:3:0:0:
253,67,81961,1,8,0:2:0:0:
185,206,82137,6,0,P|114:194|80:190,1,90.7200011074219,2|0,0:2|1:2,0:0:0:0:
27,53,82487,2,0,P|71:44|116:38,1,90.7200011074219,2|8,0:2|0:2,0:0:0:0:
182,178,82838,2,0,P|111:166|77:162,1,90.7200011074219,2|0,0:2|1:2,0:0:0:0:
45,311,83189,2,0,P|143:299|248:292,1,181.440002214844,6|6,0:3|1:3,0:0:0:0:
369,352,83716,6,0,P|375:285|381:237,1,90.7200011074219,6|0,1:2|0:0,0:0:0:0:
295,131,84066,1,8,0:2:0:0:
387,17,84242,2,0,P|456:46|438:172,1,181.440002214844,0|8,0:2|0:3,0:0:0:0:
343,238,84768,1,8,0:2:0:0:
202,173,84944,2,0,B|92:161|139:242|30:226,1,181.440002214844,4|0,1:3|0:2,0:0:0:0:
48,72,85470,6,0,P|111:58|164:50,1,90.7200011074219,10|10,0:2|1:3,0:0:0:0:
288,20,85821,2,0,P|332:27|376:38,1,90.7200011074219,2|0,1:2|0:2,0:0:0:0:
504,125,86172,1,10,0:2:0:0:
273,330,86523,5,14,0:2:0:0:
347,208,86698,1,0,1:2:0:0:
398,295,86873,1,0,1:2:0:0:
226,176,87049,6,0,P|164:184|127:189,1,90.7200011074219,14|0,0:2|1:2,0:0:0:0:
256,93,87400,1,0,1:2:0:0:
200,259,87575,1,14,0:2:0:0:
347,208,87751,6,0,P|391:201|436:196,1,90.7200011074219,0|0,1:2|1:2,0:0:0:0:
300,120,88101,1,14,0:2:0:0:
398,295,88277,1,0,1:2:0:0:
459,160,88452,1,0,1:2:0:0:
242,258,88628,5,14,1:2:0:0:
379,77,88803,1,8,1:2:0:0:
222,153,88979,1,8,1:2:0:0:
398,295,89154,1,14,1:2:0:0:
