osu file format v14

[General]
AudioFilename: audio.mp3
AudioLeadIn: 0
PreviewTime: 54330
Countdown: 0
SampleSet: Soft
StackLeniency: 0.7
Mode: 0
LetterboxInBreaks: 0
WidescreenStoryboard: 0

[Editor]
DistanceSpacing: 1.9
BeatDivisor: 4
GridSize: 4
TimelineZoom: 1.3

[Metadata]
Title:IGNITE (TV Size)
TitleUnicode:IGNITE (TV Size)
Artist:Aoi Eir
ArtistUnicode:藍井エイル
Creator:Sotarks
Version:EXPERT
Source:ソードアート・オンラインⅡ
Tags:Sword Art Online SAO GGO opening op female vocalist japanese anime reform kujinn
BeatmapID:2464479
BeatmapSetID:1182043

[Difficulty]
HPDrainRate:5.2
CircleSize:3.8
OverallDifficulty:8.7
ApproachRate:9
SliderMultiplier:1.72
SliderTickRate:1

[Events]
//Background and Video events
0,0,"bg.jpg",0,0
Video,0,"video.mp4"
//Break Periods
//Storyboard Layer 0 (Background)
//Storyboard Layer 1 (Fail)
//Storyboard Layer 2 (Pass)
//Storyboard Layer 3 (Foreground)
//Storyboard Layer 4 (Overlay)
//Storyboard Sound Samples

[TimingPoints]
909,350.877192982456,4,2,22,52,1,0
2312,-138.888888888889,4,2,22,52,0,0
12137,-138.888888888889,4,2,22,62,0,0
13540,-98.0392156862746,4,2,22,72,0,0
19154,-121.951219512195,4,2,22,52,0,0
30382,-108.695652173913,4,3,22,62,0,0
38803,-98.0392156862745,4,2,22,72,0,0
41610,-98.0392156862745,4,2,22,72,0,0
52838,-98.0392156862745,4,2,22,82,0,0
54944,-98.0392156862745,4,2,22,62,0,0
55118,-138.888888888889,4,2,22,62,0,0
55645,-89.2857142857143,4,2,22,92,0,0
78101,-89.2857142857143,4,2,22,82,0,0
86523,-89.2857142857143,4,2,22,92,0,0

[Colours]
Combo1 : 215,208,185
Combo2 : 183,255,219
Combo3 : 205,201,124

[HitObjects]
23,232,2312,6,0,P|63:237|101:241,1,61.9200015117188,2|0,0:0|0:0,0:0:0:0:
138,129,2663,2,0,P|98:134|60:138,1,61.9200015117188
188,213,3014,2,0,B|266:200|226:253|329:240,1,123.840003023438,0|0,3:0|0:0,0:0:0:0:
386,150,3540,2,0,P|392:192|399:238,1,61.9200015117188
295,145,3891,1,0,0:0:0:0:
485,93,4066,2,0,P|479:135|472:181,1,61.9200015117188
387,63,4417,1,0,3:0:0:0:
490,184,4593,1,0,0:0:0:0:
386,150,4768,1,0,0:0:0:0:
485,93,4944,1,0,0:0:0:0:
406,231,5119,6,0,P|348:238|267:249,1,123.840003023438,2|0,0:0|0:0,0:0:0:0:
179,203,5645,1,0,0:0:0:0:
279,96,5821,2,0,P|272:141|268:177,1,61.9200015117188,0|0,3:0|0:0,0:0:0:0:
140,187,6172,2,0,P|136:156|132:126,1,61.9200015117188
208,23,6523,2,0,P|250:-2|339:22,1,123.840003023438
369,117,7049,1,0,0:0:0:0:
459,149,7224,2,0,B|342:121|405:226|272:191,1,185.760004535156,0|0,3:0|0:0,0:0:0:0:
186,131,7926,6,0,P|181:176|177:216,1,61.9200015117188,2|0,0:0|0:0,0:0:0:0:
79,244,8277,2,0,P|75:213|72:182,1,61.9200015117188
189,289,8628,2,0,P|252:306|315:256,1,123.840003023438,0|0,3:0|0:0,0:0:0:0:
347,183,9154,1,0,0:0:0:0:
238,145,9330,2,0,P|248:196|254:227,1,61.9200015117188
358,277,9680,2,0,P|363:246|369:216,1,61.9200015117188
461,129,10031,2,0,B|407:154|348:183|348:183|286:142,1,185.760004535156,0|0,3:0|0:0,0:0:0:0:
189,38,10733,5,2,0:0:0:0:
278,106,10908,2,0,P|240:116|206:128,1,61.9200015117188
159,202,11259,2,0,P|197:212|231:224,1,61.9200015117188,0|0,0:0|3:0,0:0:0:0:
81,90,11610,2,0,P|70:171|60:237,1,123.840003023438
236,297,12137,5,2,0:0:0:0:
162,159,12312,1,4,0:3:0:0:
88,325,12487,1,4,0:3:0:0:
289,220,12663,1,4,0:3:0:0:
81,90,12838,1,8,0:2:0:0:
226,378,13014,1,8,0:2:0:0:
391,77,13540,6,0,B|338:57|306:91|322:97|282:138|229:120,1,175.440001070801,6|8,1:2|0:2,0:2:0:0:
92,50,14066,1,2,1:2:0:0:
92,50,14154,1,0,1:2:0:0:
92,50,14242,2,0,P|101:106|106:160,1,87.7200005354004,0|0,1:2|0:2,0:2:0:0:
242,31,14593,1,10,0:2:0:0:
33,129,14768,1,2,0:2:0:0:
219,270,14944,6,0,P|299:258|409:243,1,175.440001070801,0|10,1:2|0:2,0:2:0:0:
280,143,15470,1,0,0:2:0:0:
393,331,15645,2,0,P|446:318|475:281,1,87.7200005354004,2|0,1:2|0:2,0:2:0:0:
366,90,15996,1,10,0:2:0:0:
204,233,16172,1,0,1:2:0:0:
204,233,16259,1,0,1:2:0:0:
204,233,16347,6,0,B|133:210|87:192|87:192|31:238,1,175.440001070801,6|8,1:2|0:2,0:2:0:0:
210,106,16873,1,0,0:2:0:0:
117,287,17049,1,0,1:2:0:0:
167,44,17224,1,2,0:2:0:0:
278,268,17400,1,10,0:2:0:0:
116,97,17575,2,0,P|64:106|24:114,1,87.7200005354004,10|0,0:2|1:2,0:2:0:0:
211,306,17926,1,0,1:2:0:0:
363,141,18101,2,0,P|415:150|455:158,1,87.7200005354004,4|0,1:3|1:2,0:2:0:0:
384,368,18452,1,10,0:2:0:0:
297,92,18628,1,8,1:3:0:0:
297,92,19154,6,0,B|206:41|133:133|169:145|103:253|-1:189,1,352.600005380249,6|0,1:2|0:2,0:2:0:0:
61,101,20207,1,2,0:2:0:0:
151,206,20382,1,0,0:2:0:0:
61,101,20558,2,0,P|112:68|206:86,1,141.0400021521,2|0,0:2|0:2,0:2:0:0:
299,151,21084,2,0,P|255:158|217:165,1,70.5200010760498,2|0,0:2|0:2,0:2:0:0:
283,41,21435,2,0,P|317:46|352:52,1,70.5200010760498,2|0,0:2|0:2,0:2:0:0:
396,140,21786,1,2,1:2:0:0:
189,75,21961,6,0,P|183:158|178:239,1,141.0400021521,0|0,1:2|0:2,0:2:0:0:
244,315,22487,1,2,0:2:0:0:
316,228,22663,2,0,P|236:211|170:327,1,211.560003228149,2|0,0:2|0:2,0:2:0:0:
210,384,23365,2,0,P|259:373|300:367,1,70.5200010760498,0|0,0:2|0:2,0:2:0:0:
335,304,23716,2,0,P|286:293|245:287,1,70.5200010760498,0|0,0:2|0:2,0:2:0:0:
405,379,24066,2,0,P|415:291|423:217,1,141.0400021521,2|2,0:2|3:2,0:2:0:0:
339,108,24593,1,0,1:2:0:0:
489,157,24768,5,2,1:2:0:0:
339,198,24944,2,0,P|290:189|267:169,1,70.5200010760498,2|0,0:2|0:2,0:2:0:0:
407,56,25294,2,0,P|422:88|422:123,1,70.5200010760498,2|0,0:2|0:2,0:2:0:0:
255,74,25645,2,0,P|275:45|306:29,1,70.5200010760498,2|0,0:2|0:2,0:2:0:0:
339,108,25996,1,2,1:2:0:0:
172,57,26172,2,0,P|112:63|21:73,2,141.0400021521,0|2|2,1:2|0:2|0:2,0:2:0:0:
339,108,27224,1,2,3:2:0:0:
88,183,27575,6,0,P|67:246|122:316,1,141.0400021521,2|0,1:2|0:2,0:2:0:0:
202,339,28101,1,2,0:2:0:0:
262,255,28277,2,0,B|352:232|305:300|415:281,1,141.0400021521,2|0,0:2|0:2,0:2:0:0:
495,198,28803,1,0,1:2:0:0:
365,61,28979,2,0,P|374:136|381:206,1,141.0400021521,0|0,1:2|0:2,0:2:0:0:
466,89,29505,1,2,0:2:0:0:
293,149,29680,2,0,B|224:178|184:143|205:131|149:87|77:134,1,211.560003228149,2|0,0:2|3:2,0:2:0:0:
29,184,30294,1,0,3:2:0:0:
29,184,30382,6,0,P|121:178|154:245,1,158.239994687988,6|0,1:2|1:2,0:2:0:0:
163,336,30908,1,0,0:2:0:0:
53,268,31084,2,0,P|113:259|158:253,1,79.1199973439942,0|0,1:2|0:2,0:2:0:0:
303,304,31435,1,10,0:2:0:0:
236,159,31610,1,0,0:2:0:0:
236,159,31698,1,0,0:2:0:0:
236,159,31786,2,0,P|231:223|229:257,1,79.1199973439942,2|0,1:2|0:2,0:2:0:0:
268,379,32137,1,2,1:2:0:0:
140,198,32312,2,0,P|145:262|147:296,1,79.1199973439942,2|0,0:2|1:2,0:2:0:0:
304,198,32663,1,2,0:2:0:0:
178,104,32838,1,8,0:2:0:0:
241,265,33014,1,2,0:2:0:0:
241,265,33101,1,0,0:2:0:0:
241,265,33189,6,0,B|296:248|347:230|347:230|394:273,1,158.239994687988,0|0,1:2|1:2,0:2:0:0:
261,134,33716,1,2,0:2:0:0:
331,322,33891,2,0,P|384:313|425:307,1,79.1199973439942,2|0,1:2|0:2,0:2:0:0:
421,135,34242,1,8,0:2:0:0:
397,131,34330,1,0,0:2:0:0:
375,140,34417,1,0,0:2:0:0:
360,157,34505,1,0,0:2:0:0:
355,180,34593,2,0,P|435:190|522:202,1,158.239994687988,0|0,1:2|1:2,0:2:0:0:
448,61,35119,1,4,0:3:0:0:
362,261,35294,2,0,P|300:265|258:269,1,79.1199973439942,10|0,1:3|0:2,0:2:0:0:
221,84,35645,2,0,P|260:86|299:89,1,79.1199973439942,10|0,0:2|0:2,0:2:0:0:
157,228,35996,5,2,1:2:0:0:
62,126,36172,2,0,P|65:66|82:19,1,79.1199973439942,2|0,0:2|1:2,0:2:0:0:
246,178,36523,2,0,P|270:265|246:350,1,158.239994687988,2|2,0:2|0:2,0:2:0:0:
126,215,37049,1,8,0:2:0:0:
240,96,37224,1,2,0:2:0:0:
240,96,37312,1,0,0:2:0:0:
240,96,37400,2,0,B|290:74|321:109|308:117|342:151|415:121,1,158.239994687988,0|2,1:2|1:2,0:2:0:0:
488,34,37926,1,8,0:2:0:0:
337,230,38101,1,6,1:3:0:0:
379,46,38277,1,4,0:3:0:0:
503,263,38452,1,14,0:2:0:0:
503,263,38803,6,0,P|405:276|291:298,1,175.440001070801,6|8,1:2|0:2,0:2:0:0:
109,162,39330,2,0,P|124:215|138:271,1,87.7200005354004,6|0,1:2|0:2,0:2:0:0:
155,345,39680,1,10,0:2:0:0:
419,145,39856,2,0,P|332:129|245:118,1,175.440001070801,6|8,1:2|0:2,0:2:0:0:
56,226,40382,2,0,P|71:173|85:117,1,87.7200005354004,6|0,1:2|0:2,0:2:0:0:
102,43,40733,1,0,1:2:0:0:
235,215,40908,5,10,0:2:0:0:
1,130,41084,1,0,1:2:0:0:
215,60,41259,1,10,0:3:0:0:
56,226,41435,1,4,0:3:0:0:
312,80,41610,5,10,0:2:0:0:
237,323,41786,2,0,P|181:314|131:308,1,87.7200005354004,10|0,0:2|1:2,0:2:0:0:
244,35,42137,1,10,0:2:0:0:
319,278,42312,2,0,P|375:269|425:263,1,87.7200005354004,10|0,0:2|1:2,0:2:0:0:
153,140,42663,1,10,0:2:0:0:
410,15,42838,2,0,P|407:80|406:131,1,87.7200005354004,10|0,0:2|1:2,0:2:0:0:
55,205,43189,1,10,0:2:0:0:
312,80,43365,2,0,P|309:145|308:196,1,87.7200005354004,10|0,0:2|1:2,0:2:0:0:
140,43,43716,5,10,0:2:0:0:
384,138,43891,1,0,1:2:0:0:
137,275,44066,1,10,0:2:0:0:
230,127,44242,1,0,1:2:0:0:
351,349,44417,5,10,0:2:0:0:
97,198,44593,1,10,0:2:0:0:
312,80,44768,1,0,1:2:0:0:
173,340,44944,5,10,0:2:0:0:
239,47,45119,1,10,0:2:0:0:
339,261,45294,1,0,1:2:0:0:
58,129,45470,5,10,0:2:0:0:
357,177,45645,1,10,0:2:0:0:
137,275,45821,1,0,1:2:0:0:
383,77,45996,5,10,0:2:0:0:
314,356,46172,1,10,0:2:0:0:
207,166,46347,1,8,0:2:0:0:
207,166,46435,1,8,0:2:0:0:
207,166,46523,2,0,P|136:176|93:183,1,87.7200005354004,8|8,0:2|0:3,0:2:0:0:
36,342,46873,2,0,P|107:352|150:359,1,87.7200005354004,4|4,0:3|0:3,0:2:0:0:
105,78,47224,6,0,P|50:93|47:227,1,175.440001070801,4|2,1:2|0:2,0:2:0:0:
107,271,47751,1,0,1:2:0:0:
310,170,47926,2,0,B|425:149|359:248|503:219,1,175.440001070801,10|2,0:2|0:2,0:2:0:0:
323,265,48452,2,0,P|270:255|224:253,1,87.7200005354004,2|0,1:2|0:2,0:2:0:0:
175,107,48803,2,0,P|217:98|261:94,1,87.7200005354004,10|0,0:2|0:2,0:2:0:0:
310,170,49154,1,2,1:2:0:0:
82,146,49330,2,0,P|86:93|102:37,1,87.7200005354004,8|0,0:2|0:2,0:2:0:0:
180,212,49680,2,0,P|189:254|192:298,1,87.7200005354004,2|0,1:2|0:2,0:2:0:0:
51,331,50031,6,0,P|136:314|222:387,1,175.440001070801,6|0,1:2|0:2,0:2:0:0:
331,202,50558,1,2,1:2:0:0:
115,270,50733,1,10,0:2:0:0:
323,232,50908,1,0,1:2:0:0:
114,115,51084,1,8,0:2:0:0:
275,32,51259,1,2,1:2:0:0:
79,185,51435,5,10,0:2:0:0:
150,36,51610,1,2,1:2:0:0:
200,211,51786,1,0,1:2:0:0:
162,12,51961,1,2,1:2:0:0:
261,266,52137,1,8,1:2:0:0:
355,22,52312,1,10,0:2:0:0:
181,290,52487,1,10,1:2:0:0:
275,32,52663,1,8,0:2:0:0:
322,314,52838,5,8,1:2:0:0:
114,115,53014,1,8,0:2:0:0:
114,115,53101,1,8,0:2:0:0:
114,115,53189,2,0,L|122:59,1,43.8600002677002,8|8,1:2|0:2,0:2:0:0:
334,197,53365,2,0,L|340:240,1,43.8600002677002,8|8,0:2|0:2,0:2:0:0:
103,313,53540,2,0,L|109:269,1,43.8600002677002,0|8,1:2|1:2,0:2:0:0:
251,103,53716,2,0,L|257:146,1,43.8600002677002,8|8,0:2|0:2,0:2:0:0:
307,384,53891,1,0,1:2:0:0:
450,54,54066,1,10,0:2:0:0:
450,54,54944,5,4,3:3:0:0:
390,103,55119,2,0,P|398:172|405:247,1,123.840003023438,8|0,3:3|0:2,0:2:0:0:
167,60,55645,6,0,P|116:51|60:45,1,96.3200011757813,6|0,1:2|0:2,0:2:0:0:
199,249,55996,1,8,0:2:0:0:
312,62,56172,1,8,0:3:0:0:
118,146,56347,1,0,1:2:0:0:
329,270,56523,1,4,0:3:0:0:
239,97,56698,1,8,0:2:0:0:
165,318,56873,1,0,1:2:0:0:
165,318,56961,1,0,1:2:0:0:
165,318,57049,6,0,P|114:327|58:333,1,96.3200011757813,0|0,1:2|0:2,0:2:0:0:
302,178,57400,2,0,P|349:183|397:192,1,96.3200011757813,10|0,0:2|0:2,0:2:0:0:
259,321,57751,1,2,1:2:0:0:
362,106,57926,1,4,0:3:0:0:
458,317,58101,1,10,0:2:0:0:
227,189,58277,1,10,0:3:0:0:
448,46,58452,6,0,P|441:157|436:253,1,192.640002351563,0|8,1:2|0:2,0:2:0:0:
264,96,58979,1,0,0:2:0:0:
159,265,59154,2,0,P|169:343|172:375,1,96.3200011757813,2|0,1:2|0:2,0:2:0:0:
6,227,59505,2,0,P|11:179|17:131,1,96.3200011757813,8|0,0:2|1:2,0:2:0:0:
54,60,59768,1,0,1:2:0:0:
54,60,59856,6,0,P|113:68|168:78,1,96.3200011757813,2|0,1:2|0:2,0:2:0:0:
330,197,60207,2,0,P|282:203|234:211,1,96.3200011757813,8|0,0:2|0:2,0:2:0:0:
358,67,60558,1,2,1:2:0:0:
300,279,60733,1,4,0:3:0:0:
177,98,60908,1,8,0:2:0:0:
406,173,61084,1,8,0:2:0:0:
406,173,61172,1,8,0:2:0:0:
406,173,61259,6,0,P|423:291|369:353,1,192.640002351563,6|8,1:2|0:2,0:2:0:0:
181,249,61786,1,8,0:3:0:0:
289,73,61961,2,0,P|311:152|317:192,1,96.3200011757813,2|0,1:2|0:2,0:2:0:0:
53,133,62312,2,0,P|62:85|77:39,1,96.3200011757813,8|0,0:2|1:2,0:2:0:0:
151,16,62575,1,0,1:2:0:0:
151,16,62663,6,0,P|214:8|262:1,1,96.3200011757813,2|0,1:2|0:2,0:2:0:0:
284,234,63014,2,0,P|221:226|173:219,1,96.3200011757813,8|0,0:2|0:2,0:2:0:0:
333,87,63365,1,2,1:2:0:0:
237,308,63540,1,4,0:3:0:0:
136,113,63716,1,8,0:2:0:0:
371,252,63891,1,8,0:2:0:0:
371,252,63979,1,8,0:2:0:0:
371,252,64066,6,0,P|378:199|384:147,1,96.3200011757813,6|0,1:2|0:2,0:2:0:0:
248,35,64417,1,8,0:2:0:0:
157,266,64593,2,0,P|162:313|168:361,1,96.3200011757813,2|0,0:2|1:2,0:2:0:0:
281,181,64944,1,8,0:3:0:0:
88,125,65119,1,0,1:2:0:0:
279,280,65294,2,0,P|332:263|394:245,1,96.3200011757813,10|0,0:2|1:2,0:2:0:0:
221,53,65645,5,6,0:3:0:0:
101,226,65821,1,10,0:2:0:0:
350,122,65996,1,0,1:2:0:0:
121,204,66172,1,2,1:2:0:0:
381,311,66347,1,0,1:2:0:0:
381,311,66435,1,8,0:2:0:0:
381,311,66523,2,0,L|388:262,1,48.1600005878906,10|8,0:2|0:2,0:2:0:0:
251,100,66698,2,0,L|260:147,1,48.1600005878906,2|0,1:2|1:2,0:2:0:0:
423,178,66873,6,0,B|374:152|322:187|343:202|296:252|223:216,1,192.640002351563,6|8,1:2|0:2,0:2:0:0:
128,77,67400,1,8,0:3:0:0:
193,322,67575,1,0,1:2:0:0:
282,81,67751,1,4,0:3:0:0:
64,200,67926,1,8,0:2:0:0:
310,216,68101,1,0,1:2:0:0:
310,216,68189,1,0,1:2:0:0:
310,216,68277,6,0,P|364:206|416:200,1,96.3200011757813,0|0,1:2|0:2,0:2:0:0:
267,374,68628,2,0,P|213:364|161:358,1,96.3200011757813,10|0,0:2|0:2,0:2:0:0:
271,125,68979,1,2,1:2:0:0:
362,318,69154,1,4,0:3:0:0:
197,166,69330,1,10,0:2:0:0:
109,304,69505,1,2,1:2:0:0:
109,304,69593,1,0,1:2:0:0:
109,304,69680,6,0,B|179:277|239:254|239:254|283:287,1,192.640002351563,4|8,1:2|0:2,0:2:0:0:
129,124,70207,1,8,0:3:0:0:
231,346,70382,2,0,P|302:334|356:327,1,96.3200011757813,2|0,1:2|0:2,0:2:0:0:
366,140,70733,2,0,P|295:128|241:121,1,96.3200011757813,8|0,0:2|1:2,0:2:0:0:
222,57,70996,1,0,1:2:0:0:
222,57,71084,6,0,P|293:45|347:38,1,96.3200011757813,2|0,1:2|0:2,0:2:0:0:
260,255,71435,1,8,0:2:0:0:
104,145,71610,2,0,P|33:133|-21:126,1,96.3200011757813,8|2,0:2|1:2,0:2:0:0:
139,311,71961,1,4,0:3:0:0:
270,155,72137,2,0,P|341:143|395:136,1,96.3200011757813,8|8,0:2|0:2,0:2:0:0:
438,186,72400,1,8,0:2:0:0:
438,186,72487,6,0,P|386:176|333:301,1,192.640002351563,6|8,1:2|0:2,0:2:0:0:
486,273,73014,1,8,0:3:0:0:
379,44,73189,2,0,P|368:110|361:167,1,96.3200011757813,2|0,1:2|0:2,0:2:0:0:
217,283,73540,2,0,P|210:235|202:187,1,96.3200011757813,8|0,0:2|1:2,0:2:0:0:
184,106,73803,1,0,1:2:0:0:
184,106,73891,6,0,P|255:108|307:133,1,96.3200011757813,2|0,1:2|0:2,0:2:0:0:
418,228,74242,2,0,P|371:240|323:238,1,96.3200011757813,8|0,0:2|0:2,0:2:0:0:
90,135,74593,2,0,P|82:183|76:231,1,96.3200011757813,2|0,1:2|1:2,0:2:0:0:
97,306,74856,1,8,0:2:0:0:
97,306,74944,2,0,P|132:300|170:295,1,48.1600005878906,8|8,0:2|0:3,0:2:0:0:
249,195,75119,2,0,P|225:190|201:187,1,48.1600005878906,4|4,0:3|0:3,0:2:0:0:
290,361,75294,6,0,P|361:347|409:338,1,96.3200011757813,6|0,1:2|0:2,0:2:0:0:
333,125,75645,1,8,0:2:0:0:
170,249,75821,2,0,P|99:235|51:226,1,96.3200011757813,2|0,0:2|1:2,0:2:0:0:
210,52,76172,1,6,0:3:0:0:
321,275,76347,1,8,0:2:0:0:
130,144,76523,1,10,0:2:0:0:
361,50,76698,5,0,1:2:0:0:
170,249,76873,1,8,0:2:0:0:
282,5,77049,1,0,1:2:0:0:
321,275,77224,1,0,1:0:0:0:
210,52,77400,1,8,0:2:0:0:
158,292,77575,1,8,0:2:0:0:
158,292,77663,1,8,0:2:0:0:
158,292,77751,2,0,P|125:287|100:283,1,48.1600005878906,8|8,0:2|0:3,0:2:0:0:
239,130,77926,2,0,P|262:126|286:122,1,48.1600005878906,4|4,0:3|0:3,0:2:0:0:
397,327,78101,6,0,P|405:273|414:204,1,96.3200011757813,6|0,1:2|0:2,0:2:0:0:
307,86,78452,1,10,0:2:0:0:
496,252,78628,2,0,P|488:198|479:129,1,96.3200011757813,2|0,0:2|1:2,0:2:0:0:
321,275,78979,1,10,0:3:0:0:
434,78,79154,1,8,0:2:0:0:
221,207,79330,6,0,P|151:194|107:187,1,96.3200011757813,2|0,0:2|1:2,0:2:0:0:
221,29,79680,1,2,0:2:0:0:
349,183,79856,1,8,0:2:0:0:
156,95,80031,2,0,P|108:103|61:112,1,96.3200011757813,2|0,0:2|1:2,0:2:0:0:
177,285,80382,1,4,0:3:0:0:
330,96,80558,2,0,P|377:104|424:113,1,96.3200011757813,10|0,0:2|0:2,0:2:0:0:
300,340,80908,6,0,P|293:275|283:220,1,96.3200011757813,6|0,1:2|0:2,0:2:0:0:
229,85,81259,1,10,0:2:0:0:
380,248,81435,1,6,1:3:0:0:
380,248,81523,1,4,1:3:0:0:
380,248,81610,1,0,1:2:0:0:
182,167,81786,1,10,0:3:0:0:
360,73,81961,1,8,0:2:0:0:
204,275,82137,6,0,P|135:261|86:254,1,96.3200011757813,2|0,0:2|1:2,0:2:0:0:
261,85,82487,2,0,P|275:131|292:176,1,96.3200011757813,2|8,0:2|0:2,0:2:0:0:
81,140,82838,2,0,P|114:105|144:68,1,96.3200011757813,2|0,0:2|1:2,0:2:0:0:
182,167,83189,1,6,0:3:0:0:
76,22,83365,1,8,0:2:0:0:
19,232,83540,1,6,1:3:0:0:
19,232,83628,1,4,1:3:0:0:
19,232,83716,6,0,B|75:200|114:243|95:260|144:298|217:262,1,192.640002351563,6|8,1:2|0:2,0:2:0:0:
344,152,84242,1,0,0:2:0:0:
166,71,84417,2,0,P|180:157|185:201,1,96.3200011757813,0|8,1:2|0:3,0:2:0:0:
286,288,84768,1,8,0:2:0:0:
401,91,84944,1,4,1:3:0:0:
401,91,85031,1,4,1:3:0:0:
401,91,85119,2,0,P|387:177|382:221,1,96.3200011757813,0|0,1:2|0:2,0:2:0:0:
257,38,85470,1,10,0:2:0:0:
398,282,85645,1,10,1:3:0:0:
398,282,85733,1,8,1:3:0:0:
398,282,85821,2,0,P|457:269|511:263,1,96.3200011757813,2|0,1:2|0:2,0:2:0:0:
186,173,86172,2,0,P|127:160|73:154,1,96.3200011757813,10|0,0:2|0:2,0:2:0:0:
260,349,86523,5,14,0:2:0:0:
310,103,86698,1,0,1:2:0:0:
128,235,86873,1,0,1:2:0:0:
269,7,87049,5,14,0:2:0:0:
218,258,87224,1,0,1:2:0:0:
400,126,87399,1,0,1:2:0:0:
157,326,87575,5,14,0:2:0:0:
310,103,87751,1,0,1:2:0:0:
348,374,87926,1,0,1:2:0:0:
375,48,88101,5,14,0:2:0:0:
218,258,88277,1,0,1:2:0:0:
184,0,88452,1,0,1:2:0:0:
414,316,88628,5,14,1:2:0:0:
68,193,88803,1,8,1:2:0:0:
375,48,88979,1,8,1:2:0:0:
72,354,89154,1,14,1:2:0:0:
