osu file format v14

[General]
AudioFilename: audio.mp3
AudioLeadIn: 0
PreviewTime: 54417
Countdown: 0
SampleSet: Soft
StackLeniency: 0.7
Mode: 0
LetterboxInBreaks: 0
WidescreenStoryboard: 1

[Editor]
DistanceSpacing: 0.2
BeatDivisor: 4
GridSize: 32
TimelineZoom: 1.8

[Metadata]
Title:IGNITE (TV Size)
TitleUnicode:IGNITE (TV Size)
Artist:Aoi Eir
ArtistUnicode:藍井エイル
Creator:Paradoxal
Version:Nilou's Another
Source:ソードアート・オンラインⅡ
Tags:Sword Art Online SAO GGO opening op female vocalist japanese anime amats smoke uwuSyndicate69 owo-chan69 Syndicate_ -_nilou_- asukow grazuko jrock j-rock rock Wozu
BeatmapID:4518563
BeatmapSetID:2145273

[Difficulty]
HPDrainRate:5
CircleSize:3.8
OverallDifficulty:8
ApproachRate:9
SliderMultiplier:1.7
SliderTickRate:1

[Events]
//Background and Video events
0,0,"sinonbg.jpg",0,0
Video,0,"video.mp4"
//Break Periods
//Storyboard Layer 0 (Background)
//Storyboard Layer 1 (Fail)
//Storyboard Layer 2 (Pass)
//Storyboard Layer 3 (Foreground)
//Storyboard Layer 4 (Overlay)
//Storyboard Sound Samples

[TimingPoints]
909,350.877192982456,4,2,1,50,1,0
2312,-142.857142857143,4,2,1,50,0,0
10733,-142.857142857143,4,2,1,50,0,0
12137,-142.857142857143,4,2,1,50,0,0
12312,-142.857142857143,4,2,1,55,0,0
12487,-142.857142857143,4,2,1,60,0,0
12663,-142.857142857143,4,2,1,65,0,0
12838,-142.857142857143,4,2,1,70,0,0
13540,-111.111111111111,4,2,1,75,0,0
19154,-142.857142857143,4,2,1,60,0,0
30382,-125,4,2,1,65,0,0
38803,-125,4,2,1,65,0,0
41610,-111.111111111111,4,2,1,70,0,0
47224,-111.111111111111,4,2,1,60,0,0
50031,-111.111111111111,4,2,1,65,0,0
51435,-111.111111111111,4,2,1,70,0,0
51610,-111.111111111111,4,2,1,45,0,0
51786,-111.111111111111,4,2,1,49,0,0
51961,-111.111111111111,4,2,1,52,0,0
52137,-111.111111111111,4,2,1,56,0,0
52312,-111.111111111111,4,2,1,59,0,0
52487,-111.111111111111,4,2,1,63,0,0
52663,-111.111111111111,4,2,1,66,0,0
52838,-111.111111111111,4,2,1,70,0,0
54417,-111.111111111111,4,2,1,50,0,0
54944,-111.111111111111,4,2,1,65,0,0
55119,-200,4,2,1,65,0,0
55294,-200,4,2,1,50,0,0
55645,-95.2380952380952,4,2,1,80,0,0
78101,-95.2380952380952,4,2,1,80,0,0
86523,-95.2380952380952,4,2,1,80,0,0

[Colours]
Combo1 : 129,129,129
Combo2 : 0,145,145

[HitObjects]
79,53,2312,6,0,P|122:61|144:93,1,59.4999981842042,2|0,0:0|0:0,0:0:0:0:
213,58,2663,2,0,P|227:99|210:134,1,59.4999981842042,2|0,0:0|0:0,0:0:0:0:
168,209,3014,2,0,P|111:220|63:187,1,118.999996368408,2|2,0:0|0:0,0:0:0:0:
18,264,3540,6,0,P|24:298|33:335,1,59.4999981842042,2|0,0:0|0:0,0:0:0:0:
105,372,3891,1,2,0:0:0:0:
105,372,4066,2,0,P|134:365|163:360,1,59.4999981842042,2|0,0:0|0:0,0:0:0:0:
242,228,4417,2,0,P|212:234|183:239,2,59.4999981842042,2|2|2,0:0|0:0|0:0,0:0:0:0:
377,232,4944,1,2,0:0:0:0:
411,305,5119,6,0,P|472:302|518:249,1,118.999996368408,2|0,0:0|0:0,0:0:0:0:
454,112,5821,2,0,P|393:115|347:168,1,118.999996368408,2|0,0:0|0:0,0:0:0:0:
352,153,6347,1,0,0:0:0:0:
304,262,6523,6,0,P|248:240|191:225,1,118.999996368408,2|0,0:0|0:0,0:0:0:0:
155,86,7224,2,0,P|210:107|267:122,1,118.999996368408,2|0,0:0|0:0,0:0:0:0:
267,122,7751,1,0,0:0:0:0:
165,244,7926,6,0,P|120:260|41:242,1,118.999996368408,2|0,0:0|0:0,0:0:0:0:
244,226,8628,2,0,P|256:283|240:339,1,118.999996368408,2|0,0:0|0:0,0:0:0:0:
240,339,9154,1,0,0:0:0:0:
165,244,9330,6,0,P|132:236|102:222,1,59.4999981842042,2|0,0:0|0:0,0:0:0:0:
244,226,9680,2,0,P|277:234|307:248,1,59.4999981842042
410,345,10031,2,0,P|455:350|490:283,1,118.999996368408,2|0,0:0|0:0,0:0:0:0:
364,120,10733,5,2,0:0:0:0:
455,117,10908,2,0,P|444:151|435:194,1,59.4999981842042,2|0,0:0|0:0,0:0:0:0:
306,134,11259,2,0,P|334:125|363:119,1,59.4999981842042,2|0,0:0|0:0,0:0:0:0:
507,23,11610,2,0,P|478:31|449:37,1,59.4999981842042,2|0,0:0|0:0,0:0:0:0:
346,40,11961,1,2,0:0:0:0:
240,177,12137,5,2,0:0:0:0:
306,134,12312,1,2,0:0:0:0:
179,90,12487,1,2,0:0:0:0:
135,229,12663,1,2,0:0:0:0:
305,306,12838,5,10,1:2:0:0:
305,306,13014,1,10,1:2:0:0:
102,372,13365,2,0,P|92:336|91:322,1,29.7499990921021,2|2,0:0|0:0,0:0:0:0:
160,215,13540,6,0,L|146:316,1,76.4999976654053,6|0,1:1|0:0,0:0:0:0:
352,169,13891,2,0,L|366:68,1,76.4999976654053,8|2,1:2|0:0,0:0:0:0:
367,89,14154,1,8,0:0:0:0:
367,89,14242,1,0,1:2:0:0:
258,186,14417,1,2,0:0:0:0:
415,230,14593,2,0,P|459:210|496:205,1,76.4999976654053,10|2,1:2|0:0,0:0:0:0:
275,101,14944,6,0,P|221:91|131:32,1,152.999995330811,0|10,1:2|1:2,0:0:0:0:
50,162,15470,1,0,0:0:0:0:
50,162,15558,1,8,0:0:0:0:
50,162,15645,2,0,P|97:149|152:137,1,76.4999976654053,2|0,1:2|0:0,0:0:0:0:
277,260,15996,2,0,P|268:222|257:185,1,76.4999976654053,10|0,1:2|0:0,0:0:0:0:
119,113,16347,6,0,P|127:75|138:38,1,76.4999976654053,6|0,1:2|0:0,0:0:0:0:
304,121,16698,2,0,P|340:131|378:139,1,76.4999976654053,8|0,1:2|0:0,0:0:0:0:
176,218,17049,1,0,1:2:0:0:
310,289,17224,1,10,0:0:0:0:
310,289,17312,1,8,0:0:0:0:
310,289,17400,1,10,1:2:0:0:
478,175,17575,6,0,P|406:166|359:243,1,152.999995330811,10|4,0:0|0:3,0:0:0:0:
437,317,18101,1,4,1:3:0:0:
500,266,18277,1,6,1:3:0:0:
378,139,18452,1,10,0:0:0:0:
378,139,18628,1,0,1:2:0:0:
378,139,19154,6,0,P|311:150|146:237,1,237.999992736817,6|0,1:1|0:0,0:0:0:0:
96,367,20207,2,0,P|90:334|87:302,1,59.4999981842042,2|2,0:0|0:0,0:0:0:0:
135,247,20558,2,0,P|187:242|239:304,1,118.999996368408,2|2,0:0|0:0,0:0:0:0:
135,247,21084,2,0,P|131:217|126:188,1,59.4999981842042,2|0,0:0|0:0,0:0:0:0:
174,122,21435,2,0,P|203:118|232:113,1,59.4999981842042,2|0,0:0|0:0,0:0:0:0:
359,93,21786,1,2,1:2:0:0:
408,159,21961,6,0,P|470:168|516:126,1,118.999996368408,0|0,1:2|0:0,0:0:0:0:
512,135,22487,1,2,0:0:0:0:
393,26,22663,2,0,P|380:123|372:210,1,178.499994552612,2|0,0:0|0:0,0:0:0:0:
428,308,23365,6,0,P|435:266|437:222,1,59.4999981842042,2|0,0:0|0:0,0:0:0:0:
323,222,23716,2,0,P|362:207|401:186,1,59.4999981842042,2|0,0:0|0:0,0:0:0:0:
354,339,24066,2,0,L|279:326,1,59.4999981842042,2|0,0:0|0:0,0:0:0:0:
165,253,24417,1,2,0:0:0:0:
165,253,24768,5,2,1:2:0:0:
119,316,24944,2,0,P|136:358|144:387,1,59.4999981842042,2|0,0:0|0:0,0:0:0:0:
234,295,25294,2,0,P|269:275|288:244,1,59.4999981842042,2|0,0:0|0:0,0:0:0:0:
257,184,25645,2,0,P|257:143|239:111,1,59.4999981842042,2|0,0:0|0:0,0:0:0:0:
160,43,25996,1,2,1:2:0:0:
124,117,26172,6,0,P|130:167|142:246,1,118.999996368408,0|2,1:2|0:0,0:0:0:0:
388,267,26873,2,0,P|382:217|370:138,1,118.999996368408,2|2,0:0|0:0,0:0:0:0:
381,69,27400,1,0,1:2:0:0:
466,207,27575,6,0,P|399:186|279:139,1,178.499994552612,2|2,1:2|0:0,0:0:0:0:
218,52,28277,2,0,P|180:70|174:165,1,118.999996368408,2|0,0:0|0:0,0:0:0:0:
160,139,28803,1,0,0:0:0:0:
248,211,28979,6,0,P|261:170|274:135,1,59.4999981842042,2|0,0:0|0:0,0:0:0:0:
117,210,29330,2,0,P|88:219|60:228,1,59.4999981842042,2|2,0:0|0:0,0:0:0:0:
222,291,29680,1,2,0:0:0:0:
376,362,30031,2,0,P|380:324|394:287,1,59.4999981842042,2|2,0:0|0:0,0:0:0:0:
461,264,30294,1,0,0:0:0:0:
461,264,30382,6,0,P|363:263|335:232,1,136,6|0,1:1|1:2,0:0:0:0:
419,175,30908,1,2,0:0:0:0:
419,175,30996,1,0,0:0:0:0:
419,175,31084,2,0,P|474:168|509:160,1,68,0|2,1:2|0:0,0:0:0:0:
369,82,31435,2,0,P|390:30|401:-3,1,68,10|2,1:2|0:0,0:0:0:0:
311,7,31698,1,0,0:0:0:0:
311,7,31786,6,0,P|294:55|273:140,1,136,2|2,1:2|1:2,0:0:0:0:
124,233,32312,2,0,P|77:241|40:258,1,68,2|0,0:0|1:2,0:0:0:0:
58,248,32663,1,2,0:0:0:0:
250,305,32838,2,0,P|242:258|225:221,1,68,8|2,1:2|0:0,0:0:0:0:
152,223,33101,1,0,0:0:0:0:
152,223,33189,6,0,P|218:214|272:152,1,136,2|0,1:2|1:2,0:0:0:0:
265,166,33716,1,2,0:0:0:0:
349,257,33891,2,0,P|330:324|326:351,1,68,2|0,1:2|0:0,0:0:0:0:
265,166,34242,2,0,P|214:149|190:134,1,68,10|2,1:2|0:0,0:0:0:0:
386,120,34593,5,2,1:2:0:0:
386,120,34768,1,0,0:0:0:0:
449,210,34944,2,0,P|481:201|512:186,1,68,2|8,1:2|0:3,0:0:0:0:
386,120,35294,1,2,1:2:0:0:
386,120,35470,1,4,0:3:0:0:
265,166,35645,2,0,P|273:133|275:99,1,68,10|0,1:2|0:0,0:0:0:0:
87,111,35996,5,2,1:2:0:0:
165,0,36172,2,0,P|156:32|154:66,1,68,2|0,0:0|1:2,0:0:0:0:
198,210,36523,2,0,P|132:202|81:244,1,136,2|2,0:0|0:0,0:0:0:0:
20,187,37049,2,0,P|10:143|1:97,1,68,8|2,1:2|0:0,0:0:0:0:
156,98,37400,6,0,P|109:84|73:64,1,68,2|0,1:2|0:0,0:0:0:0:
237,55,37751,1,2,1:2:0:0:
233,215,37926,1,0,0:0:0:0:
309,176,38101,1,2,1:2:0:0:
309,176,38277,1,0,0:0:0:0:
423,253,38452,2,0,L|410:326,1,68,10|0,1:2|0:0,0:0:0:0:
411,319,38803,6,0,P|364:328|259:371,1,136,6|8,1:2|0:0,0:0:0:0:
185,250,39330,2,0,P|205:194|206:161,1,68,6|0,1:1|0:0,0:0:0:0:
94,324,39680,1,2,1:2:0:0:
215,372,39856,2,0,P|273:361|302:345,1,68,10|0,0:0|0:0,0:0:0:0:
88,317,40207,5,0,1:2:0:0:
185,250,40382,2,0,P|205:193|206:160,1,68,14|0,0:0|0:0,0:0:0:0:
99,57,40733,1,2,1:2:0:0:
24,106,40908,1,10,0:0:0:0:
69,181,41084,1,10,0:3:0:0:
69,181,41172,1,8,0:3:0:0:
69,181,41259,1,10,0:3:0:0:
197,107,41435,1,6,1:3:0:0:
287,231,41610,5,10,0:0:0:0:
287,231,41786,2,0,L|296:330,1,76.4999976654053,10|0,0:0|1:2,0:0:0:0:
359,358,42137,5,10,0:3:0:0:
456,277,42312,2,0,L|462:200,1,76.4999976654053,10|0,0:3|1:2,0:0:0:0:
302,29,42663,5,10,0:0:0:0:
244,86,42838,2,0,L|237:162,1,76.4999976654053,10|0,0:0|1:2,0:0:0:0:
211,311,43189,5,10,0:3:0:0:
282,263,43365,1,10,0:3:0:0:
213,181,43540,1,0,1:2:0:0:
132,278,43716,5,10,0:0:0:0:
132,278,43891,1,2,1:2:0:0:
380,278,44066,5,10,0:0:0:0:
380,278,44241,1,2,1:2:0:0:
371,106,44417,5,10,0:0:0:0:
294,137,44593,2,0,P|236:120|207:95,1,76.4999976654053,10|0,0:0|1:2,0:0:0:0:
45,112,44944,5,10,0:3:0:0:
93,0,45119,2,0,P|115:62|111:100,1,76.4999976654053,10|0,0:3|1:2,0:0:0:0:
130,261,45470,5,10,0:0:0:0:
1,230,45645,2,0,P|37:207|90:210,1,76.4999976654053,10|0,0:0|1:2,0:0:0:0:
218,341,45996,5,10,0:0:0:0:
218,341,46172,1,10,0:0:0:0:
127,362,46347,1,8,0:0:0:0:
127,362,46435,1,8,0:0:0:0:
127,362,46523,1,10,0:0:0:0:
56,304,46698,1,10,0:3:0:0:
69,204,46873,1,6,0:3:0:0:
172,167,47049,1,2,1:2:0:0:
268,277,47224,6,0,P|321:298|403:237,1,152.999995330811,6|2,1:1|0:0,0:0:0:0:
335,189,47751,1,0,1:2:0:0:
477,243,47926,2,0,P|408:227|329:185,1,152.999995330811,14|2,0:0|0:0,0:0:0:0:
261,108,48452,1,2,1:2:0:0:
366,62,48628,5,0,1:2:0:0:
304,191,48803,1,10,0:0:0:0:
174,141,48979,1,0,0:0:0:0:
261,108,49154,1,2,1:2:0:0:
269,269,49330,2,0,L|258:356,1,76.4999976654053,10|2,0:0|1:2,0:0:0:0:
123,273,49680,2,0,L|113:197,1,76.4999976654053,2|8,0:0|0:0,0:0:0:0:
289,355,50031,6,0,P|336:368|460:374,1,152.999995330811,2|8,1:2|0:0,0:0:0:0:
351,289,50558,1,2,1:2:0:0:
201,375,50733,1,10,0:0:0:0:
201,375,50908,1,0,1:2:0:0:
239,220,51084,2,0,P|231:182|217:146,1,76.4999976654053,8|2,0:0|1:2,0:0:0:0:
2,160,51435,5,10,0:0:0:0:
8,173,51610,5,2,0:0:0:0:
22,191,51786,5,8,1:2:0:0:
46,208,51961,5,10,0:0:0:0:
88,225,52137,5,8,1:2:0:0:
156,215,52312,5,10,0:0:0:0:
217,146,52487,5,10,1:2:0:0:
197,41,52663,5,10,0:0:0:0:
53,16,52838,5,8,1:2:0:0:
217,146,53014,1,10,0:0:0:0:
217,146,53101,1,10,0:0:0:0:
217,146,53189,1,10,1:2:0:0:
405,199,53365,1,10,0:0:0:0:
405,199,53452,1,8,0:0:0:0:
405,199,53540,2,0,L|461:186,1,38.2499988327027,10|8,1:2|0:0,0:0:0:0:
255,290,53716,2,0,L|199:277,1,38.2499988327027,10|8,0:0|0:0,0:0:0:0:
328,101,53891,5,10,1:2:0:0:
398,354,54066,1,10,0:0:0:0:
398,354,54944,5,2,0:1:0:0:
191,305,55119,1,2,0:1:0:0:
191,305,55645,6,0,P|130:285|47:379,1,178.499994552612,6|8,1:1|1:2,0:0:0:0:
216,384,56172,1,0,0:0:0:0:
310,278,56347,2,0,P|311:208|277:175,1,89.2499972763062,0|0,1:2|0:0,0:0:0:0:
316,101,56698,2,0,P|255:65|210:78,1,89.2499972763062,10|0,1:2|0:0,0:0:0:0:
209,80,56961,1,0,0:0:0:0:
209,80,57049,1,2,1:2:0:0:
224,221,57224,1,2,0:0:0:0:
394,121,57400,6,0,L|499:137,1,89.2499972763062,10|0,1:2|0:0,0:0:0:0:
301,194,57751,1,2,1:2:0:0:
209,80,57926,1,2,0:0:0:0:
376,41,58101,1,10,1:2:0:0:
316,101,58277,1,2,0:0:0:0:
129,33,58452,6,0,P|82:37|73:170,1,178.499994552612,2|8,1:2|1:2,0:0:0:0:
230,253,58979,1,0,0:0:0:0:
230,253,59066,1,8,0:0:0:0:
230,253,59154,2,0,P|295:232|440:209,1,178.499994552612,2|8,1:2|1:2,0:0:0:0:
403,211,59680,1,0,0:0:0:0:
336,342,59856,6,0,P|320:287|328:244,1,89.2499972763062,2|0,1:2|0:0,0:0:0:0:
492,237,60207,2,0,P|508:292|500:335,1,89.2499972763062,8|0,1:2|0:0,0:0:0:0:
381,191,60558,1,2,1:2:0:0:
465,142,60733,1,0,0:0:0:0:
425,299,60908,1,8,1:2:0:0:
241,238,61084,1,8,0:0:0:0:
241,238,61172,1,8,0:0:0:0:
241,238,61259,6,0,P|208:194|287:90,1,178.499994552612,2|8,1:2|1:2,0:0:0:0:
257,94,61786,1,0,0:0:0:0:
324,254,61961,2,0,P|315:303|307:358,1,89.2499972763062,2|0,1:2|0:0,0:0:0:0:
174,181,62312,2,0,P|119:173|63:146,1,89.2499972763062,12|2,1:2|0:0,0:0:0:0:
3,340,62663,6,0,P|77:314|205:285,1,178.499994552612,2|8,1:2|1:2,0:0:0:0:
262,185,63189,1,2,0:0:0:0:
147,93,63365,2,0,P|139:40|161:3,1,89.2499972763062,2|0,1:2|0:0,0:0:0:0:
331,138,63716,1,8,1:2:0:0:
257,275,63891,1,0,0:0:0:0:
257,275,63979,1,8,0:0:0:0:
257,275,64066,5,6,1:2:0:0:
357,384,64242,2,0,P|341:329|338:284,1,89.2499972763062,2|8,0:0|1:2,0:0:0:0:
185,220,64593,2,0,P|130:236|85:239,1,89.2499972763062,2|0,0:0|1:2,0:0:0:0:
286,200,64944,1,2,0:0:0:0:
210,377,65119,1,8,1:2:0:0:
69,246,65294,6,0,L|55:145,1,89.2499972763062,10|0,0:0|1:2,0:0:0:0:
114,45,65645,1,10,0:3:0:0:
242,130,65821,1,10,1:2:0:0:
242,130,65908,1,8,0:0:0:0:
242,130,65996,1,10,0:0:0:0:
352,245,66172,1,10,1:3:0:0:
352,245,66259,1,0,0:0:0:0:
352,245,66347,2,0,L|408:238,1,44.6249986381531,10|8,0:0|0:0,0:0:0:0:
319,384,66523,1,10,1:2:0:0:
297,380,66610,1,10,0:0:0:0:
275,376,66698,1,10,0:0:0:0:
253,372,66786,1,10,0:0:0:0:
231,367,66873,6,0,P|214:291|272:205,2,178.499994552612,6|12|0,1:1|1:2|1:2,0:0:0:0:
352,245,67751,1,0,0:0:0:0:
167,179,67926,2,0,L|76:193,1,89.2499972763062,10|0,1:2|0:0,0:0:0:0:
3,68,68277,6,0,P|65:74|98:113,1,89.2499972763062,2|2,1:2|0:0,0:0:0:0:
235,129,68628,2,0,L|249:38,1,89.2499972763062,8|2,1:2|0:0,0:0:0:0:
134,183,68979,1,2,1:2:0:0:
241,263,69154,1,2,0:0:0:0:
321,143,69330,1,10,1:2:0:0:
321,143,69505,1,2,0:0:0:0:
435,50,69680,6,0,P|484:60|497:181,1,178.499994552612,2|8,1:2|1:2,0:0:0:0:
458,349,70207,1,0,0:0:0:0:
458,349,70294,1,8,0:0:0:0:
458,349,70382,2,0,P|432:261|413:160,1,178.499994552612,2|10,1:2|1:2,0:0:0:0:
415,175,70908,1,2,0:0:0:0:
299,30,71084,6,0,P|244:37|203:79,1,89.2499972763062,2|0,1:2|0:0,0:0:0:0:
138,69,71435,2,0,P|116:120|132:176,1,89.2499972763062,8|8,1:2|0:0,0:0:0:0:
215,241,71786,1,2,1:2:0:0:
299,137,71961,1,0,0:0:0:0:
231,89,72137,1,8,1:2:0:0:
300,259,72312,1,8,0:0:0:0:
300,259,72400,1,8,0:0:0:0:
300,259,72487,6,0,P|247:270|119:322,1,178.499994552612,6|8,1:2|1:2,0:0:0:0:
131,315,73014,1,0,0:0:0:0:
2,195,73189,2,0,P|63:209|111:227,1,89.2499972763062,2|0,1:2|0:0,0:0:0:0:
222,94,73540,2,0,P|208:51|199:7,1,89.2499972763062,8|0,1:2|0:0,0:0:0:0:
327,121,73891,5,2,1:2:0:0:
182,196,74066,1,0,0:0:0:0:
327,121,74242,2,0,P|369:107|413:98,1,89.2499972763062,8|0,1:2|0:0,0:0:0:0:
372,313,74593,1,10,1:2:0:0:
226,268,74768,1,8,0:0:0:0:
117,373,74944,1,8,1:2:0:0:
94,353,75031,1,8,0:0:0:0:
84,325,75119,1,8,0:3:0:0:
88,296,75207,1,8,0:3:0:0:
106,272,75294,6,0,P|166:259|298:204,1,178.499994552612,6|8,1:1|1:2,0:0:0:0:
274,216,75821,1,2,0:0:0:0:
436,154,75996,2,0,P|371:137|313:108,1,89.2499972763062,0|2,1:2|0:0,0:0:0:0:
199,142,76347,1,8,1:2:0:0:
131,29,76523,1,10,0:0:0:0:
318,55,76698,5,2,1:2:0:0:
252,228,76873,1,8,0:0:0:0:
252,228,76961,1,0,0:0:0:0:
252,228,77049,1,10,1:2:0:0:
390,320,77224,1,10,0:0:0:0:
512,197,77400,1,8,1:2:0:0:
467,190,77487,1,8,0:0:0:0:
424,181,77575,1,8,0:0:0:0:
381,169,77663,1,8,0:0:0:0:
339,154,77750,1,10,1:3:0:0:
330,157,77838,1,8,0:3:0:0:
321,160,77926,1,6,0:3:0:0:
312,163,78014,1,4,0:3:0:0:
303,166,78101,6,0,P|340:87|444:110,1,178.499994552612,6|10,1:2|1:2,0:0:0:0:
381,260,78628,1,10,0:3:0:0:
381,260,78716,1,8,0:3:0:0:
381,260,78803,2,0,P|360:335|351:375,1,89.2499972763062,4|6,1:3|0:3,0:0:0:0:
227,206,79154,1,8,1:2:0:0:
324,168,79330,1,2,0:0:0:0:
267,357,79505,6,0,P|217:370|115:308,1,178.499994552612,4|8,1:1|1:2,0:0:0:0:
62,196,80031,1,10,0:3:0:0:
213,175,80207,1,10,1:3:0:0:
213,175,80294,1,8,0:3:0:0:
213,175,80382,1,6,0:3:0:0:
338,302,80558,2,0,P|350:237|363:193,1,89.2499972763062,10|2,1:2|0:0,0:0:0:0:
512,41,80908,6,0,P|469:86|331:55,1,178.499994552612,6|10,1:1|1:2,0:0:0:0:
193,7,81435,1,10,0:3:0:0:
193,7,81523,1,8,0:3:0:0:
193,7,81610,1,8,1:3:0:0:
122,95,81786,1,6,0:3:0:0:
278,90,81961,2,0,P|336:67|383:40,1,89.2499972763062,8|6,1:2|0:3,0:0:0:0:
208,174,82312,6,0,P|210:234|231:389,1,178.499994552612,4|10,1:2|1:2,0:0:0:0:
391,221,82838,2,0,P|390:163|381:111,1,89.2499972763062,10|2,0:0|1:2,0:0:0:0:
384,123,83101,1,8,0:0:0:0:
381,114,83189,1,10,0:0:0:0:
500,296,83365,1,10,1:2:0:0:
373,246,83540,1,2,0:0:0:0:
246,360,83716,6,0,P|195:369|91:275,1,178.499994552612,6|12,1:1|1:2,0:0:0:0:
227,153,84242,1,10,0:3:0:0:
227,153,84330,1,8,0:3:0:0:
227,153,84417,2,0,P|286:170|321:187,1,89.2499972763062,4|4,1:3|0:3,0:0:0:0:
131,202,84768,1,10,1:2:0:0:
41,101,84944,1,10,0:3:0:0:
41,101,85032,1,8,0:3:0:0:
41,101,85119,6,0,P|99:81|137:74,1,89.2499972763062,4|4,1:3|0:3,0:0:0:0:
72,274,85470,1,10,1:2:0:0:
233,190,85645,1,8,0:3:0:0:
233,190,85733,1,8,0:3:0:0:
233,190,85821,2,0,L|241:297,1,89.2499972763062,6|4,1:3|0:3,0:0:0:0:
422,185,86172,2,0,P|379:156|325:165,1,89.2499972763062,10|2,1:2|0:0,0:0:0:0:
159,335,86523,6,0,P|226:317|273:292,1,89.2499972763062,14|2,1:2|0:0,0:0:0:0:
203,160,86873,1,0,1:2:0:0:
80,301,87049,1,10,0:0:0:0:
250,347,87224,1,2,1:2:0:0:
250,347,87400,1,0,0:0:0:0:
393,203,87575,1,10,1:2:0:0:
287,231,87751,1,2,0:0:0:0:
422,351,87926,5,0,1:2:0:0:
503,150,88101,1,10,0:3:0:0:
310,115,88277,1,10,1:3:0:0:
503,150,88452,1,10,0:3:0:0:
346,309,88628,2,0,P|286:325|252:356,1,89.2499972763062,6|6,1:3|0:3,0:0:0:0:
92,171,88979,1,6,1:3:0:0:
399,110,89154,1,10,0:0:0:0:
