osu file format v14

[General]
AudioFilename: audio.mp3
AudioLeadIn: 0
PreviewTime: 54417
Countdown: 0
SampleSet: Soft
StackLeniency: 0.7
Mode: 0
LetterboxInBreaks: 0
WidescreenStoryboard: 1

[Editor]
Bookmarks: 78101,89330
DistanceSpacing: 1.4
BeatDivisor: 4
GridSize: 32
TimelineZoom: 1.8

[Metadata]
Title:IGNITE (TV Size)
TitleUnicode:IGNITE (TV Size)
Artist:Aoi Eir
ArtistUnicode:藍井エイル
Creator:Paradoxal
Version:AsuKo's Hard
Source:ソードアート・オンラインⅡ
Tags:Sword Art Online SAO GGO opening op female vocalist japanese anime amats smoke uwuSyndicate69 owo-chan69 Syndicate_ -_nilou_- asukow grazuko jrock j-rock rock Wozu
BeatmapID:4519180
BeatmapSetID:2145273

[Difficulty]
HPDrainRate:4.5
CircleSize:4
OverallDifficulty:7
ApproachRate:7.5
SliderMultiplier:1.4
SliderTickRate:1

[Events]
//Background and Video events
0,0,"sinonbg.jpg",0,0
Video,0,"video.mp4"
//Break Periods
//Storyboard Layer 0 (Background)
//Storyboard Layer 1 (Fail)
//Storyboard Layer 2 (Pass)
//Storyboard Layer 3 (Foreground)
//Storyboard Layer 4 (Overlay)
//Storyboard Sound Samples

[TimingPoints]
909,350.877192982456,4,2,1,50,1,0
2312,-125,4,2,1,50,0,0
12137,-125,4,2,1,50,0,0
12312,-125,4,2,1,55,0,0
12487,-125,4,2,1,60,0,0
12663,-125,4,2,1,65,0,0
12838,-125,4,2,1,70,0,0
13540,-100,4,2,1,75,0,0
19154,-125,4,2,1,60,0,0
30382,-111.111111111111,4,2,1,65,0,0
38803,-111.111111111111,4,2,1,65,0,0
41610,-111.111111111111,4,2,1,70,0,0
47224,-111.111111111111,4,2,1,60,0,0
50031,-111.111111111111,4,2,1,65,0,0
51435,-111.111111111111,4,2,1,70,0,0
51610,-111.111111111111,4,2,1,45,0,0
51786,-111.111111111111,4,2,1,49,0,0
51961,-111.111111111111,4,2,1,52,0,0
52137,-111.111111111111,4,2,1,56,0,0
52312,-111.111111111111,4,2,1,59,0,0
52487,-111.111111111111,4,2,1,63,0,0
52663,-111.111111111111,4,2,1,66,0,0
52838,-111.111111111111,4,2,1,70,0,0
53014,-100,4,2,1,70,0,0
54417,-100,4,2,1,50,0,0
54944,-100,4,2,1,65,0,0
55294,-100,4,2,1,50,0,0
55558,-100,4,2,1,50,0,0
55645,-90.9090909090908,4,2,1,80,0,0
78101,-100,4,2,1,80,0,0
86523,-90.9090909090909,4,2,1,80,0,0

[Colours]
Combo1 : 129,129,129
Combo2 : 0,145,145

[HitObjects]
0,98,2312,6,0,P|40:61|94:68,1,112,2|2,0:0|0:0,0:0:0:0:
215,166,3014,2,0,P|255:202|309:195,1,112,2|2,0:0|0:0,0:0:0:0:
387,190,3540,1,2,0:0:0:0:
416,38,3891,1,2,0:0:0:0:
416,38,4066,2,0,P|378:-2|324:2,1,112,2|2,0:0|0:0,0:0:0:0:
159,8,4768,2,0,P|168:32|180:71,1,56,2|2,0:0|0:0,0:0:0:0:
231,118,5119,6,0,P|208:198|191:281,1,168,2|0,0:0|0:0,0:0:0:0:
190,359,5821,2,0,B|126:345|126:345|99:357|99:357|20:338,1,168,2|0,0:0|0:0,0:0:0:0:
3,265,6523,2,0,P|13:213|71:197,1,112,2|0,0:0|0:0,0:0:0:0:
134,156,7049,1,0,0:0:0:0:
134,156,7224,2,0,P|118:94|102:31,1,112,2|0,0:0|0:0,0:0:0:0:
258,9,7926,6,0,P|328:27|425:52,1,168,2|0,0:0|0:0,0:0:0:0:
492,80,8628,2,0,P|414:76|356:147,1,168,2|0,0:0|0:0,0:0:0:0:
302,194,9330,2,0,P|391:170|476:154,1,168,2|0,0:0|0:0,0:0:0:0:
498,226,10031,2,0,P|482:288|466:351,1,112,2|0,0:0|0:0,0:0:0:0:
322,363,10733,5,2,0:0:0:0:
322,363,10908,2,0,P|254:349|218:383,1,112,2|2,0:0|0:0,0:0:0:0:
110,264,11610,2,0,P|178:278|214:244,1,112,2|2,0:0|0:0,0:0:0:0:
281,225,12137,1,2,0:0:0:0:
281,225,12312,1,2,0:0:0:0:
349,263,12488,2,0,P|342:290|334:317,1,56,2|2,0:0|0:0,0:0:0:0:
395,384,12838,5,10,1:2:0:0:
471,332,13014,1,10,1:2:0:0:
507,179,13365,5,2,0:0:0:0:
507,179,13452,1,2,0:0:0:0:
507,179,13540,2,0,P|469:123|402:126,1,140,6|8,1:1|1:2,0:0:0:0:
330,59,14066,1,2,0:0:0:0:
330,59,14154,1,8,0:0:0:0:
330,59,14242,2,0,P|290:68|244:80,1,70,0|2,1:2|0:0,0:0:0:0:
188,9,14593,1,10,1:2:0:0:
188,9,14768,1,2,0:0:0:0:
99,52,14944,6,0,P|77:77|75:112,1,70,0|0,1:2|0:0,0:0:0:0:
149,175,15294,2,0,P|184:165|218:154,1,70,10|0,1:2|0:0,0:0:0:0:
121,258,15645,2,0,P|86:248|52:237,1,70,2|0,1:2|0:0,0:0:0:0:
155,333,15996,2,0,P|190:323|224:312,1,70,10|0,1:2|0:0,0:0:0:0:
305,260,16347,6,0,P|319:191|337:123,2,140,6|8|0,1:2|1:2|1:2,0:0:0:0:
363,351,17224,1,10,0:0:0:0:
363,351,17312,1,8,0:0:0:0:
363,351,17400,1,10,1:2:0:0:
270,382,17575,6,0,P|202:364|133:351,1,140,10|4,0:0|0:3,0:0:0:0:
39,378,18101,1,4,1:3:0:0:
39,378,18277,1,6,1:3:0:0:
0,288,18452,1,10,0:0:0:0:
83,235,18628,1,0,1:2:0:0:
139,38,19154,6,0,B|63:-69|-54:2|-25:110|74:71,1,280,6|0,1:1|0:0,0:0:0:0:
97,145,20207,2,0,P|122:135|162:129,1,56,2|2,0:0|0:0,0:0:0:0:
220,92,20558,2,0,P|263:60|316:72,1,112,2|2,0:0|0:0,0:0:0:0:
379,119,21084,1,2,0:0:0:0:
325,266,21435,2,0,P|274:249|217:230,1,112,2|2,0:0|1:2,0:0:0:0:
159,281,21961,6,0,P|140:317|196:374,1,112,0|0,1:2|0:0,0:0:0:0:
257,384,22487,1,2,0:0:0:0:
257,384,22663,1,2,0:0:0:0:
405,332,23014,6,0,P|454:346|512:363,2,112,0|2|2,0:0|0:0|0:0,0:0:0:0:
256,277,24066,2,0,P|250:224|290:188,1,112,2|2,0:0|0:0,0:0:0:0:
414,292,24768,5,2,1:2:0:0:
414,292,24944,2,0,P|438:285|475:278,1,56,2|0,0:0|0:0,0:0:0:0:
460,201,25294,2,0,P|436:208|399:215,1,56,2|0,0:0|0:0,0:0:0:0:
327,204,25645,2,0,P|316:178|319:150,1,56,2|0,0:0|0:0,0:0:0:0:
338,77,25996,1,2,1:2:0:0:
338,77,26172,1,0,1:2:0:0:
488,118,26523,6,0,P|502:52|513:7,2,112,2|2|2,0:0|0:0|0:0,0:0:0:0:
419,156,27400,1,0,1:2:0:0:
469,213,27575,6,0,P|418:198|374:230,1,112,2|0,1:2|0:0,0:0:0:0:
349,307,28101,1,2,0:0:0:0:
349,307,28277,2,0,P|296:314|231:334,1,112,2|0,0:0|0:0,0:0:0:0:
107,383,28979,2,0,P|88:332|111:283,1,112,2|2,0:0|0:0,0:0:0:0:
165,226,29505,1,2,0:0:0:0:
165,226,29680,1,2,0:0:0:0:
8,21,30207,5,2,0:0:0:0:
8,21,30294,1,0,0:0:0:0:
8,21,30382,2,0,P|17:51|25:81,1,62.9999980773926,6|2,1:1|0:0,0:0:0:0:
8,167,30733,2,0,P|40:168|69:158,1,62.9999980773926,0|2,1:2|0:0,0:0:0:0:
114,82,31084,2,0,P|104:51|96:21,1,62.9999980773926,0|2,1:2|0:0,0:0:0:0:
182,2,31435,1,10,1:2:0:0:
182,2,31610,1,2,0:0:0:0:
234,73,31786,6,0,P|218:128|201:197,1,125.999996154785,2|2,1:2|1:2,0:0:0:0:
128,244,32312,2,0,P|102:226|71:224,1,62.9999980773926,2|0,0:0|1:2,0:0:0:0:
1,278,32663,2,0,P|8:304|20:346,1,62.9999980773926,2|8,0:0|1:2,0:0:0:0:
103,378,33014,1,2,0:0:0:0:
103,378,33189,6,0,P|159:359|239:338,1,125.999996154785,2|0,1:2|1:2,0:0:0:0:
308,314,33716,1,2,0:0:0:0:
379,365,33891,2,0,P|407:368|447:382,1,62.9999980773926,2|0,1:2|0:0,0:0:0:0:
507,321,34242,2,0,P|512:284|496:254,1,62.9999980773926,10|2,1:2|0:0,0:0:0:0:
497,253,34505,1,2,0:0:0:0:
490,246,34593,6,0,P|454:257|408:270,1,62.9999980773926,2|0,1:2|0:0,0:0:0:0:
343,285,34944,2,0,P|313:275|282:266,1,62.9999980773926,2|8,1:2|0:3,0:0:0:0:
222,202,35294,1,2,1:2:0:0:
222,202,35470,1,4,0:3:0:0:
286,141,35645,2,0,P|289:110|277:81,1,62.9999980773926,10|0,1:2|0:0,0:0:0:0:
222,11,35996,5,2,1:2:0:0:
139,43,36172,2,0,P|145:65|157:107,1,62.9999980773926,2|0,0:0|1:2,0:0:0:0:
217,167,36523,2,0,P|210:189|199:231,1,62.9999980773926,2|0,0:0|1:2,0:0:0:0:
251,298,36873,1,2,0:0:0:0:
204,373,37049,2,0,P|178:355|147:356,1,62.9999980773926,8|2,1:2|0:0,0:0:0:0:
137,360,37312,1,2,0:0:0:0:
125,370,37400,6,0,P|63:357|2:347,2,125.999996154785,2|2|2,1:2|1:2|1:2,0:0:0:0:
116,281,38277,1,0,0:0:0:0:
61,211,38452,2,0,P|27:220|1:230,1,62.9999980773926,10|0,1:2|0:0,0:0:0:0:
35,134,38803,6,0,P|78:178|139:183,1,125.999996154785,6|8,1:2|0:0,0:0:0:0:
217,146,39330,2,0,P|186:62|174:26,1,125.999996154785,6|2,1:1|1:2,0:0:0:0:
95,0,39856,2,0,P|34:3|0:53,1,125.999996154785,10|0,0:0|1:2,0:0:0:0:
29,128,40382,1,14,0:0:0:0:
174,27,40733,6,0,P|200:34|244:47,2,62.9999980773926,2|10|10,1:2|0:0|0:3,0:0:0:0:
110,89,41259,1,10,0:3:0:0:
110,89,41435,1,6,1:3:0:0:
187,161,41610,5,10,0:0:0:0:
269,107,41786,2,0,P|304:92|354:80,1,62.9999980773926,10|0,0:0|1:2,0:0:0:0:
390,23,42137,1,10,0:3:0:0:
390,23,42312,2,0,P|419:10|450:15,1,62.9999980773926,10|0,0:3|1:2,0:0:0:0:
503,85,42663,1,10,0:0:0:0:
459,161,42838,6,0,P|428:148|392:140,1,62.9999980773926,10|0,0:0|1:2,0:0:0:0:
323,186,43189,1,10,0:3:0:0:
323,186,43365,2,0,P|314:216|327:255,1,62.9999980773926,10|0,0:3|1:2,0:0:0:0:
393,296,43716,2,0,P|425:286|456:278,2,62.9999980773926,10|2|10,0:0|1:2|0:0,0:0:0:0:
347,371,44242,1,2,1:2:0:0:
347,371,44417,5,10,0:0:0:0:
269,329,44593,2,0,P|278:290|286:260,1,62.9999980773926,10|0,0:0|1:2,0:0:0:0:
202,246,44944,1,10,0:3:0:0:
202,246,45119,2,0,P|173:255|136:271,1,62.9999980773926,10|0,0:3|1:2,0:0:0:0:
63,240,45470,1,10,0:0:0:0:
63,240,45645,6,0,P|57:209|79:173,1,62.9999980773926,10|0,0:0|1:2,0:0:0:0:
153,153,45996,1,10,0:0:0:0:
92,88,46172,2,0,P|62:87|18:79,1,62.9999980773926,10|8,0:0|0:0,0:0:0:0:
16,83,46435,1,8,0:0:0:0:
3,83,46523,2,0,P|-6:48|7:20,1,62.9999980773926,10|10,0:0|0:3,0:0:0:0:
89,5,46873,1,6,0:3:0:0:
89,5,47049,1,2,1:2:0:0:
168,54,47224,6,0,P|220:36|292:23,1,125.999996154785,6|2,1:1|0:0,0:0:0:0:
487,10,47926,2,0,P|476:31|460:76,1,62.9999980773926,14|0,0:0|0:0,0:0:0:0:
405,135,48277,1,2,0:0:0:0:
405,135,48452,6,0,P|412:163|421:202,1,62.9999980773926,2|0,1:2|1:2,0:0:0:0:
488,252,48803,2,0,P|463:276|425:278,1,62.9999980773926,10|0,0:0|0:0,0:0:0:0:
354,245,49154,1,2,1:2:0:0:
354,245,49330,1,10,0:0:0:0:
228,368,49680,2,0,P|259:361|296:350,1,62.9999980773926,2|8,0:0|0:0,0:0:0:0:
376,358,50031,6,0,P|436:372|482:333,1,125.999996154785,2|8,1:2|0:0,0:0:0:0:
508,248,50558,1,2,1:2:0:0:
422,226,50733,2,0,P|359:240|294:268,1,125.999996154785,10|8,0:0|0:0,0:0:0:0:
111,322,51435,5,10,0:0:0:0:
111,322,51610,2,0,P|100:272|96:252,1,62.9999980773926,2|8,0:0|1:2,0:0:0:0:
21,214,51961,2,0,P|32:178|38:148,1,62.9999980773926,10|8,0:0|1:2,0:0:0:0:
97,88,52312,1,10,0:0:0:0:
97,88,52487,2,0,P|126:114|218:102,1,125.999996154785,10|8,1:2|1:2,0:0:0:0:
280,57,53014,5,10,0:0:0:0:
280,57,53101,1,10,0:0:0:0:
280,57,53189,2,0,P|300:52|326:44,3,35,10|8|10|8,1:2|0:0|0:0|0:0,0:0:0:0:
338,29,53540,2,0,P|353:33|373:39,3,35,10|8|10|8,1:2|0:0|0:0|0:0,0:0:0:0:
399,54,53891,1,10,1:2:0:0:
483,5,54066,1,10,0:0:0:0:
491,367,54944,5,2,0:1:0:0:
411,326,55119,2,0,P|476:336|496:238,1,175,2|2,0:1|0:0,0:0:0:0:
468,216,55645,6,0,B|381:212|408:267|326:264,1,154.000004699707,6|8,1:1|1:2,0:0:0:0:
232,210,56172,1,0,0:0:0:0:
288,118,56347,2,0,P|318:141|356:145,1,77.0000023498536,0|0,1:2|0:0,0:0:0:0:
444,84,56698,2,0,P|425:29|417:6,1,77.0000023498536,10|0,1:2|0:0,0:0:0:0:
314,8,57049,5,2,1:2:0:0:
314,8,57224,1,2,0:0:0:0:
218,57,57400,2,0,P|175:39|137:28,1,77.0000023498536,10|0,1:2|0:0,0:0:0:0:
44,11,57751,1,2,1:2:0:0:
7,111,57926,1,2,0:0:0:0:
63,202,58101,2,0,P|99:190|144:177,1,77.0000023498536,10|2,1:2|0:0,0:0:0:0:
242,156,58452,6,0,P|294:138|367:195,1,154.000004699707,2|8,1:2|1:2,0:0:0:0:
360,302,58979,1,0,0:0:0:0:
278,368,59154,2,0,P|198:351|115:340,1,154.000004699707,2|8,1:2|1:2,0:0:0:0:
22,310,59680,1,0,0:0:0:0:
98,241,59856,6,0,B|159:223|159:223|174:197|174:197|252:181,1,154.000004699707,2|8,1:2|1:2,0:0:0:0:
325,128,60382,1,0,0:0:0:0:
407,197,60558,2,0,P|364:257|291:251,1,154.000004699707,2|8,1:2|1:2,0:0:0:0:
192,276,61084,5,8,0:0:0:0:
192,276,61172,1,8,0:0:0:0:
192,276,61259,2,0,P|218:189|234:124,1,154.000004699707,2|8,1:2|1:2,0:0:0:0:
180,32,61786,1,0,0:0:0:0:
283,3,61961,2,0,B|361:8|340:54|418:68,1,154.000004699707,2|12,1:2|1:2,0:0:0:0:
508,7,62487,5,2,0:0:0:0:
508,7,62575,1,2,0:0:0:0:
508,7,62663,2,0,P|486:59|461:169,1,154.000004699707,2|8,1:2|1:2,0:0:0:0:
508,251,63189,1,2,0:0:0:0:
449,341,63365,2,0,P|377:319|290:302,1,154.000004699707,2|8,1:2|1:2,0:0:0:0:
204,344,63891,5,0,0:0:0:0:
204,344,63979,1,8,0:0:0:0:
204,344,64066,1,6,1:2:0:0:
124,271,64242,2,0,P|137:226|149:192,1,77.0000023498536,2|8,0:0|1:2,0:0:0:0:
208,108,64593,2,0,P|241:126|259:159,1,77.0000023498536,2|0,0:0|1:2,0:0:0:0:
351,217,64944,2,0,P|391:198|434:187,1,77.0000023498536,2|8,0:0|1:2,0:0:0:0:
501,116,65294,1,10,0:0:0:0:
314,19,65645,5,10,0:3:0:0:
314,19,65821,1,10,1:2:0:0:
241,98,65996,1,10,0:0:0:0:
241,98,66084,1,0,0:0:0:0:
241,98,66172,2,0,P|215:87|201:81,3,38.5000011749268,10|0|10|8,1:3|0:0|0:0|0:0,0:0:0:0:
184,61,66523,2,0,P|166:68|148:75,3,38.5000011749268,10|10|10|10,1:2|0:0|0:0|0:0,0:0:0:0:
125,88,66873,6,0,P|73:34|0:41,1,154.000004699707,6|12,1:1|1:2,0:0:0:0:
0,150,67400,1,0,0:0:0:0:
91,207,67575,2,0,P|126:191|169:178,1,77.0000023498536,0|0,1:2|0:0,0:0:0:0:
73,296,67926,2,0,P|37:280|-5:267,1,77.0000023498536,10|0,1:2|0:0,0:0:0:0:
0,382,68277,6,0,P|54:338|148:351,1,154.000004699707,2|8,1:2|1:2,0:0:0:0:
236,378,68803,1,2,0:0:0:0:
236,378,68891,1,8,0:0:0:0:
236,378,68979,2,0,P|252:328|262:300,1,77.0000023498536,2|2,1:2|0:0,0:0:0:0:
335,227,69330,1,10,1:2:0:0:
335,227,69505,1,2,0:0:0:0:
276,136,69680,6,0,P|202:130|154:187,1,154.000004699707,2|8,1:2|1:2,0:0:0:0:
87,101,70207,1,0,0:0:0:0:
153,16,70382,2,0,P|228:31|303:48,1,154.000004699707,2|10,1:2|1:2,0:0:0:0:
402,5,70908,5,2,0:0:0:0:
402,5,70996,1,2,0:0:0:0:
402,5,71084,2,0,P|386:57|364:155,1,154.000004699707,2|8,1:2|1:2,0:0:0:0:
268,204,71610,1,8,0:0:0:0:
341,282,71786,2,0,P|390:240|475:258,1,154.000004699707,2|8,1:2|1:2,0:0:0:0:
419,353,72312,5,8,0:0:0:0:
419,353,72400,1,8,0:0:0:0:
419,353,72487,2,0,P|337:337|258:322,1,154.000004699707,6|8,1:2|1:2,0:0:0:0:
175,381,73014,1,0,0:0:0:0:
75,340,73189,2,0,P|99:256|121:184,1,154.000004699707,2|8,1:2|1:2,0:0:0:0:
57,102,73716,1,0,0:0:0:0:
125,18,73891,6,0,B|202:18|181:70|262:76,1,154.000004699707,2|8,1:2|1:2,0:0:0:0:
357,20,74417,1,0,0:0:0:0:
357,20,74505,1,0,0:0:0:0:
357,20,74593,2,0,P|392:30|441:44,1,77.0000023498536,10|8,1:2|0:0,0:0:0:0:
511,113,74944,2,0,P|505:129|497:157,3,38.5000011749268,8|8|8|8,1:2|0:0|0:3|0:3,0:0:0:0:
512,184,75294,5,6,1:1:0:0:
432,257,75470,2,0,P|400:242|353:227,1,77.0000023498536,2|8,0:0|1:2,0:0:0:0:
271,166,75821,2,0,P|259:119|247:79,1,77.0000023498536,2|0,0:0|1:2,0:0:0:0:
195,228,76172,2,0,P|158:238|120:247,1,77.0000023498536,2|8,0:0|1:2,0:0:0:0:
65,340,76523,1,10,0:0:0:0:
163,382,76698,6,0,P|221:335|294:349,1,154.000004699707,2|10,1:2|1:2,0:0:0:0:
376,279,77224,1,10,0:0:0:0:
376,279,77312,1,8,0:0:0:0:
376,279,77400,2,0,L|357:224,3,38.5000011749268,8|8|8|8,1:2|0:0|0:0|0:0,0:0:0:0:
334,216,77751,2,0,L|353:161,3,38.5000011749268,10|8|6|4,1:3|0:3|0:3|0:3,0:0:0:0:
362,141,78101,6,0,P|302:158|245:102,1,140,6|10,1:2|1:2,0:0:0:0:
308,32,78628,2,0,P|324:35|350:42,2,35,10|8|4,0:3|0:3|1:3,0:0:0:0:
221,5,78979,2,0,P|183:14|136:26,1,70,6|8,0:3|1:2,0:0:0:0:
56,0,79330,6,0,P|49:40|63:68,1,70,2|4,0:0|1:1,0:0:0:0:
136,126,79680,2,0,P|126:156|115:199,1,70,2|8,0:0|1:2,0:0:0:0:
180,268,80031,2,0,P|195:332|142:372,1,140,10|6,0:3|0:3,0:0:0:0:
44,383,80558,2,0,P|32:334|26:309,1,70,10|2,1:2|0:0,0:0:0:0:
0,221,80908,6,0,P|18:145|34:83,1,140,6|10,1:1|1:2,0:0:0:0:
120,37,81435,2,0,P|114:20|109:4,2,35,10|8|8,0:3|0:3|1:3,0:0:0:0:
188,107,81786,2,0,P|216:127|250:130,1,70,6|8,0:3|1:2,0:0:0:0:
308,41,82137,6,0,P|336:20|370:17,1,70,6|4,0:3|1:2,0:0:0:0:
452,71,82487,2,0,P|440:98|426:137,1,70,2|10,0:0|1:2,0:0:0:0:
338,176,82838,2,0,P|351:227|374:317,1,140,10|10,0:0|0:0,0:0:0:0:
442,382,83365,1,10,1:2:0:0:
442,382,83540,1,2,0:0:0:0:
502,304,83716,6,0,P|491:264|484:234,1,70,6|0,1:1|0:0,0:0:0:0:
425,158,84066,2,0,P|393:194|358:198,1,70,12|10,1:2|0:3,0:0:0:0:
362,198,84330,1,8,0:3:0:0:
351,194,84417,2,0,P|342:149|336:124,1,70,4|4,1:3|0:3,0:0:0:0:
244,91,84768,2,0,P|210:84|179:100,1,70,10|10,1:2|0:3,0:0:0:0:
175,108,85031,1,8,0:3:0:0:
170,117,85119,2,0,P|183:147|200:193,1,70,4|4,1:3|0:3,0:0:0:0:
250,263,85470,5,10,1:2:0:0:
201,350,85645,1,8,0:3:0:0:
201,350,85733,1,8,0:3:0:0:
201,350,85821,2,0,P|173:375|130:378,1,70,6|4,1:3|0:3,0:0:0:0:
44,365,86172,2,0,P|33:323|25:290,1,70,10|2,1:2|0:0,0:0:0:0:
94,212,86523,6,0,P|111:158|120:127,1,77.0000023498536,14|2,1:2|0:0,0:0:0:0:
189,58,86873,1,0,1:2:0:0:
94,5,87049,2,0,P|56:15|19:25,1,77.0000023498536,10|2,0:0|1:2,0:0:0:0:
0,131,87400,1,0,0:0:0:0:
94,212,87575,2,0,P|131:201|168:191,1,77.0000023498536,10|2,1:2|0:0,0:0:0:0:
227,277,87926,2,0,P|216:314|205:351,2,77.0000023498536,0|10|10,1:2|0:3|1:3,0:0:0:0:
348,298,88452,1,10,0:3:0:0:
405,189,88628,1,6,1:3:0:0:
405,189,88803,1,6,0:3:0:0:
318,101,88979,1,6,1:3:0:0:
207,156,89155,1,10,0:0:0:0:
