osu file format v14

[General]
AudioFilename: audio.mp3
AudioLeadIn: 0
PreviewTime: 59106
Countdown: 0
SampleSet: Soft
StackLeniency: 0.7
Mode: 0
LetterboxInBreaks: 0
WidescreenStoryboard: 1

[Editor]
Bookmarks: 6311,16254,17282
DistanceSpacing: 0.5
BeatDivisor: 4
GridSize: 4
TimelineZoom: 2.2

[Metadata]
Title:IGNITE (Shanditus Remix)
TitleUnicode:IGNITE (Shanditus Remix)
Artist:Aoi Eir
ArtistUnicode:Aoi Eir
Creator:Neptune
Version:Neptune
Source:
Tags:
BeatmapID:1403742
BeatmapSetID:663170

[Difficulty]
HPDrainRate:8
CircleSize:4
OverallDifficulty:9
ApproachRate:9.6
SliderMultiplier:1.8
SliderTickRate:1

[Events]
//Background and Video events
0,0,"anime-girl-fighting-sci-fi-sword-bodysuit-anime-12461.jpg",0,0
//Break Periods
//Storyboard Layer 0 (Background)
//Storyboard Layer 1 (Fail)
//Storyboard Layer 2 (Pass)
//Storyboard Layer 3 (Foreground)
//Storyboard Sound Samples

[TimingPoints]
135,342.857142857143,4,2,0,40,1,0
2877,-200,4,2,0,40,0,0
4163,-133.333333333333,4,2,0,40,0,0
5363,-200,4,2,0,40,0,0
13849,-100,4,2,0,60,0,0
60477,-100,4,2,0,60,0,1
93392,-100,4,2,0,50,0,0

[Colours]
Combo1 : 36,36,36
Combo2 : 217,102,53

[HitObjects]
76,324,2877,5,0,0:0:0:0:
192,324,3049,1,0,0:0:0:0:
136,240,3220,1,0,0:0:0:0:
252,160,3391,1,0,0:0:0:0:
252,260,3563,5,0,0:0:0:0:
376,260,3735,1,0,0:0:0:0:
308,336,3906,1,0,0:0:0:0:
192,244,4077,1,0,0:0:0:0:
76,324,4249,5,0,0:0:0:0:
192,324,4421,1,0,0:0:0:0:
136,240,4592,1,0,0:0:0:0:
252,160,4763,5,0,0:0:0:0:
256,252,4935,1,0,0:0:0:0:
400,228,5107,5,0,0:0:0:0:
460,320,5278,1,0,0:0:0:0:
344,320,5449,1,0,0:0:0:0:
236,212,5620,6,2,L|332:188,1,90
284,24,6135,1,0,0:0:0:0:
284,24,6220,1,0,0:0:0:0:
284,24,6306,2,0,L|192:44,1,90
24,260,6992,6,0,L|112:240,1,90
220,72,7506,1,0,0:0:0:0:
220,72,7592,1,0,0:0:0:0:
220,72,7677,2,0,L|256:160,1,90
432,228,8363,6,0,P|372:192|300:216,1,135
204,320,9049,2,0,P|168:320|108:280,1,90
124,84,9735,2,0,P|180:80|260:104,1,135
392,264,10420,2,0,P|340:280|292:268,1,90
200,152,11105,5,0,0:0:0:0:
368,96,11277,1,0,0:0:0:0:
100,72,11620,5,0,0:0:0:0:
260,172,11963,2,0,L|344:216,1,90
20,260,12477,5,0,0:0:0:0:
40,220,12820,5,0,0:0:0:0:
60,180,13163,5,0,0:0:0:0:
80,156,13506,5,0,0:0:0:0:
92,148,13592,1,0,0:0:0:0:
108,144,13677,1,0,0:0:0:0:
124,140,13763,1,0,0:0:0:0:
152,140,13849,6,0,P|192:172|192:232,1,90
56,288,14192,1,0,0:0:0:0:
204,284,14363,1,0,0:0:0:0:
204,296,14449,1,0,0:0:0:0:
204,308,14535,6,0,P|260:312|300:300,1,90
408,240,14877,1,0,0:0:0:0:
408,104,15049,1,0,0:0:0:0:
392,100,15135,1,0,0:0:0:0:
372,96,15221,6,0,P|340:132|364:192,1,90
448,252,15564,1,0,0:0:0:0:
304,252,15735,1,0,0:0:0:0:
304,260,15821,1,0,0:0:0:0:
304,268,15907,6,0,P|259:273|215:263,1,90
240,128,16249,1,0,0:0:0:0:
400,160,16420,2,0,L|388:204,1,45
336,344,16592,6,0,L|244:324,1,90
344,328,16935,6,0,L|244:308,1,90
232,308,17192,1,0,0:0:0:0:
208,300,17277,6,0,L|112:276,1,90
0,248,17620,1,0,0:0:0:0:
108,72,17792,2,0,P|111:94|108:116,1,45
96,284,17963,6,0,P|16:292|-20:284,1,90
12,264,18220,1,0,0:0:0:0:
8,236,18306,6,0,P|60:232|108:240,1,90
200,300,18649,1,0,0:0:0:0:
268,136,18820,2,0,P|236:140|184:128,1,45
156,72,18992,2,0,P|240:48|284:56,1,90
240,208,19249,1,0,0:0:0:0:
240,208,19334,6,0,P|196:204|152:180,1,90
52,96,19677,1,0,0:0:0:0:
60,276,19849,1,0,0:0:0:0:
60,276,19934,1,0,0:0:0:0:
60,276,20020,2,0,P|103:285|148:280,1,90
288,228,20363,5,0,0:0:0:0:
240,76,20535,2,0,L|192:96,1,45
60,156,20706,6,0,L|116:248,1,90
196,360,21049,2,0,L|280:296,1,90
224,216,21306,5,0,0:0:0:0:
224,216,21392,2,0,L|148:272,1,90
32,360,21735,1,0,0:0:0:0:
32,204,21906,2,0,L|84:204,1,45
232,204,22077,6,0,L|252:112,1,90
248,212,22420,6,0,L|268:112,1,90
272,232,22677,1,0,0:0:0:0:
276,208,22762,6,0,L|300:112,1,90
328,0,23105,1,0,0:0:0:0:
196,8,23277,2,0,L|180:68,1,45
156,216,23449,6,0,L|176:124,1,90
172,224,23792,6,0,L|192:124,1,90
216,240,24049,1,0,0:0:0:0:
220,224,24135,1,0,0:0:0:0:
224,208,24220,1,0,0:0:0:0:
228,192,24306,1,0,0:0:0:0:
232,176,24392,1,0,0:0:0:0:
240,152,24477,2,0,L|252:92,1,45
132,140,24649,2,0,L|144:92,1,45
100,256,24820,6,0,L|144:276,1,45
240,316,24992,1,0,0:0:0:0:
240,128,25163,1,0,0:0:0:0:
416,236,25335,1,0,0:0:0:0:
392,236,25420,1,0,0:0:0:0:
368,236,25506,1,0,0:0:0:0:
344,236,25592,1,0,0:0:0:0:
320,236,25677,1,0,0:0:0:0:
172,312,25849,5,0,0:0:0:0:
36,172,26020,1,0,0:0:0:0:
36,172,26106,1,0,0:0:0:0:
36,172,26192,2,0,L|36:224,1,45
40,320,26364,1,0,0:0:0:0:
200,320,26535,5,0,0:0:0:0:
204,92,26707,1,0,0:0:0:0:
204,108,26792,1,0,0:0:0:0:
204,128,26877,1,0,0:0:0:0:
204,144,26963,1,0,0:0:0:0:
204,164,27049,2,0,L|204:216,1,45
208,312,27220,5,0,0:0:0:0:
120,212,27392,1,0,0:0:0:0:
120,184,27478,1,0,0:0:0:0:
120,156,27564,2,0,L|120:92,1,45
120,16,27736,1,0,0:0:0:0:
256,152,27906,5,0,0:0:0:0:
412,28,28079,1,0,0:0:0:0:
404,44,28164,1,0,0:0:0:0:
388,52,28250,1,0,0:0:0:0:
372,56,28335,1,0,0:0:0:0:
356,48,28420,1,0,0:0:0:0:
236,12,28593,5,0,0:0:0:0:
120,88,28764,1,0,0:0:0:0:
120,112,28849,1,0,0:0:0:0:
120,136,28935,6,0,P|168:140|204:96,1,90
316,184,29277,1,0,0:0:0:0:
440,80,29449,1,0,0:0:0:0:
440,80,29535,1,0,0:0:0:0:
440,80,29620,6,0,L|348:80,1,90
244,184,29963,2,0,L|244:288,1,90
248,384,30220,1,0,0:0:0:0:
248,384,30306,6,0,L|320:316,1,90
440,200,30649,1,0,0:0:0:0:
268,200,30820,1,0,0:0:0:0:
252,196,30906,1,0,0:0:0:0:
240,180,30992,1,0,0:0:0:0:
244,164,31077,1,0,0:0:0:0:
256,148,31163,1,0,0:0:0:0:
360,72,31335,5,0,0:0:0:0:
444,172,31506,1,0,0:0:0:0:
421,202,31592,1,0,0:0:0:0:
414,233,31677,1,0,0:0:0:0:
437,264,31763,1,0,0:0:0:0:
468,271,31849,1,0,0:0:0:0:
460,140,32020,5,0,0:0:0:0:
324,72,32192,2,0,P|324:108|324:152,1,45
220,72,32363,2,0,P|220:112|220:152,1,45
120,72,32535,1,0,0:0:0:0:
116,220,32706,5,0,0:0:0:0:
240,312,32877,1,0,0:0:0:0:
240,312,32963,1,0,0:0:0:0:
240,312,33049,6,0,B|348:312|348:312|364:276,1,135
368,216,33392,1,0,0:0:0:0:
176,224,33563,1,0,0:0:0:0:
176,224,33649,1,0,0:0:0:0:
176,224,33735,2,0,L|176:276,1,45
176,368,33906,1,0,0:0:0:0:
23,223,34077,5,0,0:0:0:0:
160,110,34249,1,0,0:0:0:0:
160,110,34335,1,0,0:0:0:0:
160,110,34420,6,0,P|156:158|200:194,1,90
372,189,34762,1,0,0:0:0:0:
376,32,34934,1,0,0:0:0:0:
376,32,35020,1,0,0:0:0:0:
376,32,35105,6,0,L|284:32,1,90
124,32,35448,2,0,L|124:136,1,90
125,307,35705,1,0,0:0:0:0:
125,307,35791,6,0,L|124:216,1,90
227,76,36135,5,0,0:0:0:0:
333,190,36306,1,0,0:0:0:0:
333,218,36392,1,0,0:0:0:0:
333,242,36477,1,0,0:0:0:0:
333,266,36563,1,0,0:0:0:0:
333,290,36649,1,0,0:0:0:0:
171,286,36820,5,0,0:0:0:0:
352,156,36992,1,0,0:0:0:0:
352,156,37077,1,0,0:0:0:0:
352,156,37163,2,0,L|300:156,1,45
208,156,37335,1,0,0:0:0:0:
80,300,37506,5,0,0:0:0:0:
80,61,37677,1,0,0:0:0:0:
80,85,37763,1,0,0:0:0:0:
80,109,37848,1,0,0:0:0:0:
80,133,37934,1,0,0:0:0:0:
80,160,38020,2,0,L|80:212,1,45
80,304,38191,5,0,0:0:0:0:
292,304,38363,2,0,L|292:256,1,45
292,204,38535,2,0,L|292:156,1,45
288,48,38706,1,0,0:0:0:0:
160,136,38877,1,0,0:0:0:0:
44,68,39049,1,0,0:0:0:0:
44,68,39135,1,0,0:0:0:0:
44,68,39220,1,0,0:0:0:0:
44,68,39306,1,0,0:0:0:0:
44,68,39392,1,0,0:0:0:0:
16,220,39563,5,0,0:0:0:0:
136,304,39735,2,0,L|184:304,1,45
279,306,39906,6,0,P|327:302|363:258,1,90
239,151,40248,1,0,0:0:0:0:
411,157,40420,1,0,0:0:0:0:
411,157,40506,1,0,0:0:0:0:
411,157,40591,6,0,L|503:157,1,90
292,156,40934,2,0,L|292:260,1,90
152,248,41277,6,0,L|151:144,1,90
156,8,41535,1,0,0:0:0:0:
156,8,41620,2,0,L|268:8,1,90
372,8,41877,1,0,0:0:0:0:
372,8,41963,2,0,L|371:63,1,45
372,120,42135,2,0,L|372:188,1,45
372,252,42306,5,0,0:0:0:0:
68,264,42477,1,0,0:0:0:0:
68,264,42563,1,0,0:0:0:0:
68,264,42649,6,0,P|88:212|184:168,1,135
300,240,42992,2,0,P|240:248|200:240,1,90
48,120,43335,6,0,P|86:93|140:92,1,90
368,116,43677,1,0,0:0:0:0:
208,212,43849,1,0,0:0:0:0:
368,264,44020,6,0,P|332:276|220:264,1,135
128,184,44363,2,0,P|180:176|244:188,1,90
444,256,44706,1,0,0:0:0:0:
440,84,44877,1,0,0:0:0:0:
332,220,45049,2,0,P|276:220|240:200,1,90
232,188,45306,1,0,0:0:0:0:
232,160,45392,5,0,0:0:0:0:
224,20,45563,1,0,0:0:0:0:
120,204,45735,1,0,0:0:0:0:
352,276,45906,1,0,0:0:0:0:
300,136,46077,5,0,0:0:0:0:
172,352,46249,1,0,0:0:0:0:
412,352,46420,1,0,0:0:0:0:
409,43,46592,1,0,0:0:0:0:
260,256,46763,5,0,0:0:0:0:
152,48,46935,1,0,0:0:0:0:
69,274,47106,6,0,P|81:334|121:374,1,90
217,168,47449,2,0,P|205:108|165:68,1,90
52,192,47792,5,0,0:0:0:0:
252,192,47963,1,0,0:0:0:0:
148,32,48135,1,0,0:0:0:0:
6,247,48306,1,0,0:0:0:0:
6,247,48477,6,0,P|30:315|106:315,1,135
191,243,48820,1,0,0:0:0:0:
257,384,48992,1,0,0:0:0:0:
418,309,49163,1,0,0:0:0:0:
359,144,49335,1,0,0:0:0:0:
359,144,49506,6,0,P|303:144|231:164,1,90
176,236,49849,5,0,0:0:0:0:
416,236,50020,1,0,0:0:0:0:
416,236,50192,6,0,B|400:296|400:296|356:320,1,90
224,368,50535,5,0,0:0:0:0:
92,224,50706,1,0,0:0:0:0:
224,368,50877,5,0,0:0:0:0:
340,224,51049,1,0,0:0:0:0:
224,368,51220,5,0,0:0:0:0:
224,160,51392,1,0,0:0:0:0:
88,200,51563,5,0,0:0:0:0:
224,64,51735,1,0,0:0:0:0:
360,192,51906,1,0,0:0:0:0:
244,324,52077,1,0,0:0:0:0:
216,324,52163,1,0,0:0:0:0:
184,324,52249,5,0,0:0:0:0:
188,64,52420,1,0,0:0:0:0:
100,276,52592,6,0,P|88:200|120:112,1,135
188,208,52935,2,0,P|228:212|264:200,1,45
344,160,53106,2,0,P|324:224|288:260,1,90
200,152,53449,1,0,0:0:0:0:
200,152,53535,1,0,0:0:0:0:
200,152,53620,6,0,P|144:156|92:208,1,90
8,308,53963,1,0,0:0:0:0:
200,312,54135,2,0,P|156:318|112:310,1,90
216,192,54477,1,0,0:0:0:0:
352,304,54649,1,0,0:0:0:0:
160,320,54820,1,0,0:0:0:0:
160,320,54906,1,0,0:0:0:0:
160,320,54992,6,0,L|160:236,1,45
148,152,55163,2,0,L|172:104,1,45
316,304,55335,2,0,L|316:220,1,45
312,148,55506,2,0,L|288:100,1,45
152,304,55677,5,0,0:0:0:0:
152,304,55763,1,0,0:0:0:0:
152,304,55849,2,0,L|127:341,1,45
124,148,56020,1,0,0:0:0:0:
124,148,56106,1,0,0:0:0:0:
124,148,56192,2,0,L|148:208,1,45
228,316,56363,6,0,L|248:264,1,45
352,176,56535,2,0,L|332:232,1,45
356,352,56706,2,0,L|372:304,1,45
476,236,56877,2,0,L|456:276,1,45
400,384,57049,5,0,0:0:0:0:
400,384,57135,1,0,0:0:0:0:
400,384,57221,6,0,L|424:344,1,45
340,216,57392,2,0,L|404:256,1,45
440,96,57563,2,0,L|460:148,1,45
488,256,57735,5,0,0:0:0:0:
380,64,57906,1,0,0:0:0:0:
356,312,58077,5,0,0:0:0:0:
276,168,58249,1,0,0:0:0:0:
224,348,58420,5,0,0:0:0:0:
160,236,58592,1,8,0:0:0:0:
40,360,58763,5,0,0:0:0:0:
56,324,58849,1,0,0:0:0:0:
96,304,58935,1,0,0:0:0:0:
148,252,59020,1,0,0:0:0:0:
156,232,59106,1,0,0:0:0:0:
256,192,59277,12,0,60306,0:0:0:0:
269,207,60477,6,0,P|282:164|280:120,1,90
192,12,60819,1,0,0:0:0:0:
132,176,60992,1,0,0:0:0:0:
116,220,61077,1,0,0:0:0:0:
112,264,61163,1,0,0:0:0:0:
124,308,61249,1,0,0:0:0:0:
152,348,61335,1,0,0:0:0:0:
272,224,61506,5,0,0:0:0:0:
132,176,61677,1,0,0:0:0:0:
116,220,61762,1,0,0:0:0:0:
112,264,61848,1,0,0:0:0:0:
124,308,61934,1,0,0:0:0:0:
152,348,62020,1,0,0:0:0:0:
284,260,62192,6,0,P|288:212|268:172,1,90
228,152,62449,1,0,0:0:0:0:
184,144,62535,1,0,0:0:0:0:
140,148,62620,1,0,0:0:0:0:
96,160,62706,1,0,0:0:0:0:
36,280,62877,6,0,P|96:296|144:292,1,90
168,284,63135,1,0,0:0:0:0:
204,260,63221,1,0,0:0:0:0:
228,224,63306,1,0,0:0:0:0:
240,180,63392,1,0,0:0:0:0:
228,48,63563,5,0,0:0:0:0:
152,164,63735,1,0,0:0:0:0:
152,164,63820,1,0,0:0:0:0:
156,168,63906,2,0,L|140:224,1,45
100,328,64077,2,0,P|152:352|192:360,1,90
360,360,64420,1,0,0:0:0:0:
360,360,64506,1,0,0:0:0:0:
360,360,64592,6,0,L|312:360,1,45
152,312,64763,2,0,L|180:268,1,45
172,112,64934,2,0,L|152:156,1,45
292,240,65106,2,0,L|310:280,1,45
308,100,65277,6,0,L|283:62,1,45
144,24,65449,2,0,L|104:48,1,45
72,184,65620,2,0,L|96:228,1,45
244,252,65792,2,0,L|288:228,1,45
348,104,65963,5,0,0:0:0:0:
304,100,66049,1,0,0:0:0:0:
264,104,66135,1,0,0:0:0:0:
220,120,66220,1,0,0:0:0:0:
176,152,66306,2,0,P|196:160|219:163,1,45
396,172,66476,1,0,0:0:0:0:
396,172,66563,1,0,0:0:0:0:
396,172,66649,6,0,P|376:160|340:144,1,45
256,96,66819,2,0,P|224:88|196:88,1,45
96,144,66992,2,0,P|144:172|192:180,1,90
388,216,67335,5,0,0:0:0:0:
344,220,67421,1,0,0:0:0:0:
304,216,67507,1,0,0:0:0:0:
260,200,67592,1,0,0:0:0:0:
216,172,67678,2,0,P|236:163|259:161,1,45
464,164,67849,1,0,0:0:0:0:
464,164,67936,1,0,0:0:0:0:
463,163,68021,6,0,P|442:155|408:160,1,45
296,220,68192,2,0,P|274:213|258:198,1,45
260,64,68363,2,0,P|219:77|171:113,1,90
72,272,68706,6,0,L|116:300,1,45
256,368,68877,1,0,0:0:0:0:
256,368,68963,1,0,0:0:0:0:
256,368,69049,2,0,L|312:304,1,45
352,256,69220,1,0,0:0:0:0:
352,256,69306,1,0,0:0:0:0:
352,256,69392,6,0,L|383:211,1,45
428,140,69563,2,0,L|452:96,1,45
496,8,69735,2,0,L|448:8,1,45
328,88,69906,2,0,L|360:128,1,45
448,244,70077,6,0,L|416:204,1,45
328,88,70249,6,0,L|376:152,1,45
244,208,70420,2,0,L|214:176,1,45
96,256,70592,2,0,L|127:287,1,45
192,352,70763,5,0,0:0:0:0:
216,352,70849,1,0,0:0:0:0:
244,352,70934,1,0,0:0:0:0:
272,352,71020,1,0,0:0:0:0:
343,348,71106,1,0,0:0:0:0:
312,296,71192,1,0,0:0:0:0:
288,244,71277,1,0,0:0:0:0:
260,192,71363,1,0,0:0:0:0:
228,132,71449,6,0,L|144:196,1,90
40,272,71792,1,0,0:0:0:0:
220,272,71965,1,0,0:0:0:0:
252,296,72050,1,0,0:0:0:0:
284,324,72136,1,0,0:0:0:0:
316,344,72220,1,0,0:0:0:0:
348,368,72308,1,0,0:0:0:0:
496,272,72477,6,0,L|496:180,1,90
488,120,72735,1,0,0:0:0:0:
440,120,72820,1,0,0:0:0:0:
392,120,72906,1,0,0:0:0:0:
344,120,72992,6,0,L|344:200,1,45
232,168,73163,2,0,L|232:120,1,45
112,120,73335,2,0,L|112:168,1,45
116,272,73506,5,0,0:0:0:0:
160,272,73592,1,0,0:0:0:0:
212,240,73677,1,0,0:0:0:0:
256,240,73763,1,0,0:0:0:0:
312,272,73849,1,0,0:0:0:0:
356,272,73935,1,0,0:0:0:0:
416,232,74020,2,0,L|416:292,1,45
364,384,74192,6,0,L|364:332,1,45
240,296,74363,2,0,L|204:324,1,45
196,160,74535,2,0,L|144:164,1,45
248,40,74707,2,0,L|192:12,1,45
160,12,74877,5,0,0:0:0:0:
188,12,74964,1,0,0:0:0:0:
216,12,75049,1,0,0:0:0:0:
248,12,75135,1,0,0:0:0:0:
316,12,75220,1,0,0:0:0:0:
280,64,75307,1,0,0:0:0:0:
240,112,75392,1,0,0:0:0:0:
200,164,75478,1,0,0:0:0:0:
136,220,75563,6,0,L|167:251,1,45
256,372,75735,2,0,L|256:327,1,45
260,224,75907,2,0,L|260:172,1,45
176,80,76078,2,0,L|216:28,1,45
268,16,76249,1,0,0:0:0:0:
304,68,76335,1,0,0:0:0:0:
336,124,76420,1,0,0:0:0:0:
360,184,76506,1,0,0:0:0:0:
400,252,76592,2,0,P|428:204|436:156,1,90
316,56,76935,5,0,0:0:0:0:
272,52,77021,1,0,0:0:0:0:
232,56,77107,1,0,0:0:0:0:
188,72,77192,1,0,0:0:0:0:
144,108,77278,2,0,P|164:116|187:119,1,45
392,132,77448,1,0,0:0:0:0:
392,132,77535,1,0,0:0:0:0:
392,132,77621,6,0,P|372:120|336:104,1,45
248,88,77791,2,0,P|216:80|188:80,1,45
72,140,77964,2,8,P|120:168|168:176,1,90
456,232,78306,5,0,0:0:0:0:
412,236,78392,1,0,0:0:0:0:
372,232,78478,1,0,0:0:0:0:
328,216,78563,1,0,0:0:0:0:
284,184,78649,2,0,P|304:176|327:173,1,45
504,180,78819,1,0,0:0:0:0:
504,180,78906,1,0,0:0:0:0:
504,180,78992,6,0,P|488:200|444:224,1,45
384,280,79162,2,0,P|352:288|304:272,1,45
328,152,79335,2,0,P|284:163|246:187,1,90
28,208,79677,6,0,L|28:264,1,45
44,384,79848,1,0,0:0:0:0:
44,384,79934,1,0,0:0:0:0:
44,384,80020,2,0,L|96:320,1,45
156,264,80192,1,0,0:0:0:0:
156,264,80277,1,0,0:0:0:0:
156,264,80363,2,0,L|204:200,1,45
268,128,80534,6,0,L|320:72,1,45
464,128,80706,2,0,L|432:96,1,45
376,260,80877,2,0,L|359:217,1,45
200,256,81049,6,0,L|228:216,1,45
24,216,81220,2,0,L|52:251,1,45
128,120,81392,2,0,L|128:172,1,45
84,328,81563,2,0,L|52:296,1,45
40,248,81734,1,0,0:0:0:0:
64,248,81820,1,0,0:0:0:0:
92,248,81905,1,0,0:0:0:0:
120,248,81991,1,0,0:0:0:0:
190,244,82077,1,0,0:0:0:0:
168,200,82163,1,0,0:0:0:0:
152,156,82248,1,0,0:0:0:0:
136,112,82334,1,0,0:0:0:0:
104,112,82420,5,0,0:0:0:0:
96,142,82506,1,0,0:0:0:0:
87,174,82592,1,0,0:0:0:0:
72,213,82677,1,0,0:0:0:0:
60,248,82763,6,0,L|45:298,1,45
152,328,82935,2,0,L|136:372,1,45
36,304,83106,2,0,L|22:347,1,45
60,208,83277,2,0,L|76:144,1,45
192,228,83449,2,0,L|204:164,1,45
360,328,83620,6,0,L|376:372,1,45
474,304,83791,2,0,L|488:348,1,45
452,208,83962,2,0,L|436:144,1,45
320,228,84134,2,0,L|308:164,1,45
384,88,84306,2,0,L|276:52,1,90
152,328,84649,6,0,L|136:372,1,45
37,304,84820,2,0,L|24:348,1,45
60,208,84991,2,0,L|70:164,1,45
192,228,85163,2,0,L|204:164,1,45
132,60,85335,1,0,0:0:0:0:
132,60,85420,1,0,0:0:0:0:
132,60,85506,6,0,L|132:132,1,45
128,236,85677,2,0,L|196:236,1,45
328,232,85849,1,0,0:0:0:0:
328,232,85935,1,0,0:0:0:0:
328,232,86020,2,0,L|332:180,1,45
340,68,86192,1,0,0:0:0:0:
340,68,86277,1,0,0:0:0:0:
340,68,86363,2,0,L|280:68,1,45
196,56,86535,6,0,L|148:56,1,45
56,156,86706,2,0,L|56:224,1,45
188,200,86877,2,0,L|188:148,1,45
256,56,87049,2,0,L|361:57,1,90
416,336,87392,6,0,L|496:336,1,45
320,232,87563,2,0,L|368:232,1,45
224,336,87735,2,0,L|275:336,1,45
152,176,87906,6,0,L|184:208,1,45
184,240,88077,1,0,0:0:0:0:
184,252,88163,1,0,0:0:0:0:
184,264,88249,1,0,0:0:0:0:
184,276,88335,1,0,0:0:0:0:
184,288,88420,1,0,0:0:0:0:
184,300,88506,1,0,0:0:0:0:
184,328,88592,5,0,0:0:0:0:
192,356,88677,1,0,0:0:0:0:
212,376,88763,1,0,0:0:0:0:
240,384,88849,1,0,0:0:0:0:
264,384,88935,1,0,0:0:0:0:
288,384,89020,1,0,0:0:0:0:
316,372,89106,1,0,0:0:0:0:
336,360,89192,1,0,0:0:0:0:
348,344,89277,1,0,0:0:0:0:
352,324,89363,1,0,0:0:0:0:
348,300,89449,1,0,0:0:0:0:
340,280,89535,1,0,0:0:0:0:
288,304,89620,6,0,P|264:308|220:300,1,45
200,260,89791,1,0,0:0:0:0:
220,216,89877,1,0,0:0:0:0:
268,176,89963,6,0,P|304:200|316:216,1,45
340,252,90134,1,0,0:0:0:0:
328,300,90220,1,0,0:0:0:0:
288,332,90306,6,0,P|236:332|216:324,1,45
184,308,90477,1,0,0:0:0:0:
176,244,90563,1,0,0:0:0:0:
208,188,90648,1,0,0:0:0:0:
268,168,90734,1,0,0:0:0:0:
324,196,90820,1,0,0:0:0:0:
352,252,90906,1,0,0:0:0:0:
411,286,90992,6,0,P|445:279|474:263,1,45
488,212,91163,1,0,0:0:0:0:
472,156,91249,1,0,0:0:0:0:
420,132,91334,1,0,0:0:0:0:
364,144,91420,1,0,0:0:0:0:
324,188,91506,1,0,0:0:0:0:
304,244,91592,1,0,0:0:0:0:
262,309,91677,6,0,L|263:260,1,45
260,212,91848,1,0,0:0:0:0:
256,168,91934,1,0,0:0:0:0:
252,124,92020,1,0,0:0:0:0:
248,80,92105,1,0,0:0:0:0:
240,20,92192,6,0,L|292:48,1,45
288,264,92363,2,0,L|240:288,1,45
104,124,92535,2,0,L|152:124,1,45
312,152,92706,2,0,L|364:112,1,45
472,76,92877,2,0,L|528:104,1,45
456,240,93049,2,0,L|456:300,1,45
264,216,93220,2,0,L|328:236,1,45
440,264,93392,6,0,P|484:196|428:148,1,135
355,207,93735,2,0,P|323:215|303:199,1,45
211,127,93906,2,0,P|207:99|223:63,1,45
287,0,94078,6,0,P|355:4|395:56,1,135
431,175,94420,2,0,P|431:227|415:235,1,45
375,319,94592,2,0,P|339:335|303:335,1,45
215,323,94763,6,0,P|171:303|135:215,1,135
135,119,95106,2,0,P|155:95|187:83,1,45
304,88,95277,1,0,0:0:0:0:
452,272,95449,6,0,P|432:332|388:364,1,90
180,348,95792,1,0,0:0:0:0:
384,272,95963,1,0,0:0:0:0:
384,272,96049,1,0,0:0:0:0:
384,272,96135,6,0,P|340:268|304:264,1,45
232,352,96306,2,0,L|192:320,1,45
48,312,96477,2,0,P|40:268|32:232,1,45
28,128,96649,1,0,0:0:0:0:
28,128,96820,6,0,L|44:32,1,90
184,168,97163,2,0,L|204:64,1,90
400,288,97506,6,0,P|356:284|320:264,1,45
284,224,97677,2,0,P|244:260|228:316,1,90
220,308,97935,1,0,0:0:0:0:
204,308,98020,1,0,0:0:0:0:
188,300,98106,1,0,0:0:0:0:
180,284,98192,6,0,P|216:258|261:256,1,90
284,280,98449,1,0,0:0:0:0:
268,308,98534,1,0,0:0:0:0:
240,324,98620,1,0,0:0:0:0:
208,328,98706,1,0,0:0:0:0:
180,312,98792,1,0,0:0:0:0:
116,272,98877,6,0,P|144:324|268:344,1,180
328,200,99392,2,0,P|324:140|304:112,1,90
80,36,99735,2,0,P|84:88|104:124,1,90
200,272,100077,2,0,P|236:300|268:300,1,45
352,300,100249,2,0,P|412:236|416:188,1,135
372,52,100592,1,0,0:0:0:0:
168,208,100763,1,0,0:0:0:0:
460,208,100935,2,0,P|404:196|316:220,1,135
256,308,101277,2,0,P|260:368|348:356,1,135
440,340,101620,5,0,0:0:0:0:
344,224,101791,1,0,0:0:0:0:
192,172,101962,1,0,0:0:0:0:
20,200,102134,1,0,0:0:0:0:
24,364,102306,2,0,P|101:370|139:349,1,90
232,260,102649,1,0,0:0:0:0:
36,72,102820,1,0,0:0:0:0:
12,252,102992,2,0,P|80:256|200:228,1,180
336,152,103506,6,0,P|332:92|312:64,1,90
120,8,103850,2,0,P|124:60|136:96,1,90
200,256,104192,2,0,P|236:284|268:284,1,45
352,284,104363,6,0,P|412:220|416:172,1,135
332,72,104706,2,0,P|284:56|256:56,1,45
192,136,104877,2,0,P|156:168|152:192,1,45
220,272,105049,6,0,P|256:300|268:304,1,45
418,248,105220,2,0,P|403:264|384:276,1,45
432,104,105392,2,0,P|451:114|465:131,1,45
512,256,105563,2,0,P|504:300|488:312,1,45
400,376,105735,6,0,P|356:368|344:352,1,45
256,280,105906,2,0,P|273:238|282:228,1,45
364,132,106077,2,0,P|349:116|330:105,1,45
200,44,106249,2,0,P|180:54|166:71,1,45
72,192,106420,6,0,P|80:236|96:248,1,45
156,344,106592,2,0,P|200:336|212:320,1,45
272,236,106763,2,0,P|276:188|268:160,1,45
180,104,106935,2,0,P|140:96|120:100,1,45
256,192,107106,12,0,109335,0:0:0:0:
