osu file format v14

[General]
AudioFilename: Sword Art Online II - IGNITE.mp3
AudioLeadIn: 0
PreviewTime: 54645
Countdown: 0
SampleSet: Soft
StackLeniency: 0.7
Mode: 3
LetterboxInBreaks: 0
SpecialStyle: 0
WidescreenStoryboard: 0

[Editor]
DistanceSpacing: 0.8
BeatDivisor: 4
GridSize: 16
TimelineZoom: 1.9

[Metadata]
Title:IGNITE (Piano Ver.)
TitleUnicode:IGNITE (Piano Ver.)
Artist:Aoi Eir
ArtistUnicode:Aoi Eir
Creator:FelipeLink
Version:Feels
Source:
Tags:piano feels SAO sword art online 7K
BeatmapID:803314
BeatmapSetID:365490

[Difficulty]
HPDrainRate:7
CircleSize:7
OverallDifficulty:7
ApproachRate:5
SliderMultiplier:1.4
SliderTickRate:1

[Events]
//Background and Video events
0,0,"Shino.png",0,0
//Break Periods
//Storyboard Layer 0 (Background)
//Storyboard Layer 1 (Fail)
//Storyboard Layer 2 (Pass)
//Storyboard Layer 3 (Foreground)
//Storyboard Sound Samples

[TimingPoints]
52,348.837209302326,4,2,0,30,1,0
139,-100,4,2,0,30,0,0

[HitObjects]
402,192,226,5,8,0:0:0:0:
402,192,400,1,8,0:0:0:0:
402,192,575,1,8,0:0:0:0:
402,192,749,1,8,0:0:0:0:
329,192,924,1,8,0:0:0:0:
256,192,1098,1,8,0:0:0:0:
475,192,1272,128,8,1970:0:0:0:0:
109,192,1447,1,2,0:0:0:0:
329,192,2145,1,2,0:0:0:0:
36,192,2842,1,2,0:0:0:0:
402,192,3017,1,2,0:0:0:0:
36,192,3191,1,2,0:0:0:0:
256,192,3365,1,2,0:0:0:0:
182,192,3540,1,2,0:0:0:0:
256,192,3714,1,2,0:0:0:0:
182,192,3889,1,2,0:0:0:0:
36,192,4063,128,0,4674:0:0:0:0:
329,192,4063,128,0,4674:0:0:0:0:
402,192,4935,1,8,0:0:0:0:
475,192,4935,128,8,5633:0:0:0:0:
402,192,5633,128,8,6331:0:0:0:0:
329,192,6331,128,0,7028:0:0:0:0:
256,192,6854,1,2,0:0:0:0:
402,192,7028,128,0,7726:0:0:0:0:
109,192,7028,1,0,0:0:0:0:
36,192,7028,1,0,0:0:0:0:
182,192,7377,1,2,0:0:0:0:
36,192,7377,1,2,0:0:0:0:
182,192,7726,1,2,0:0:0:0:
36,192,7726,1,2,0:0:0:0:
475,192,7726,128,8,8424:0:0:0:0:
182,192,8075,1,2,0:0:0:0:
36,192,8075,1,2,0:0:0:0:
182,192,8424,1,2,0:0:0:0:
402,192,8424,128,0,9121:0:0:0:0:
36,192,8598,1,0,0:0:0:0:
109,192,8772,1,0,0:0:0:0:
182,192,8947,1,2,0:0:0:0:
475,192,9121,128,8,9470:0:0:0:0:
256,192,9470,1,2,0:0:0:0:
475,192,9819,128,8,9993:0:0:0:0:
182,192,9819,1,0,0:0:0:0:
402,192,9993,128,8,10342:0:0:0:0:
109,192,9993,1,0,0:0:0:0:
329,192,10342,128,8,10691:0:0:0:0:
36,192,10342,1,0,0:0:0:0:
475,192,10691,1,8,0:0:0:0:
256,192,11040,128,2,11389:0:0:0:0:
402,192,11389,1,8,0:0:0:0:
402,192,11563,1,8,0:0:0:0:
402,192,11738,1,8,0:0:0:0:
256,192,11912,1,2,0:0:0:0:
256,192,12086,1,2,0:0:0:0:
256,192,12435,1,0,0:0:0:0:
329,192,12522,1,0,0:0:0:0:
402,192,12610,1,0,0:0:0:0:
475,192,12784,1,8,0:0:0:0:
182,192,12958,1,0,0:0:0:0:
402,192,13133,1,8,0:0:0:0:
109,192,13307,1,0,0:0:0:0:
475,192,13482,1,8,0:0:0:0:
256,192,13656,1,0,0:0:0:0:
402,192,13831,1,2,0:0:0:0:
109,192,14005,1,0,0:0:0:0:
256,192,14179,1,2,0:0:0:0:
475,192,14354,1,8,0:0:0:0:
182,192,14528,1,0,0:0:0:0:
256,192,14703,1,2,0:0:0:0:
256,192,14877,1,2,0:0:0:0:
402,192,15052,1,8,0:0:0:0:
182,192,15226,1,0,0:0:0:0:
402,192,15400,1,8,0:0:0:0:
109,192,15575,1,2,0:0:0:0:
256,192,15575,1,2,0:0:0:0:
109,192,15924,1,2,0:0:0:0:
256,192,15924,1,2,0:0:0:0:
109,192,16272,1,2,0:0:0:0:
256,192,16272,1,2,0:0:0:0:
475,192,16272,1,8,0:0:0:0:
329,192,16447,1,8,0:0:0:0:
256,192,16621,1,2,0:0:0:0:
475,192,16621,128,8,16883:0:0:0:0:
402,192,16621,128,0,16883:0:0:0:0:
256,192,16970,1,2,0:0:0:0:
256,192,17319,1,2,0:0:0:0:
475,192,17493,1,8,0:0:0:0:
329,192,17668,1,8,0:0:0:0:
475,192,17842,1,8,0:0:0:0:
329,192,18017,1,8,0:0:0:0:
109,192,18191,128,2,20110:0:0:0:0:
182,192,18365,1,2,0:0:0:0:
182,192,18714,1,2,0:0:0:0:
182,192,19063,1,2,0:0:0:0:
182,192,19412,1,2,0:0:0:0:
182,192,19761,1,2,0:0:0:0:
182,192,20110,1,2,0:0:0:0:
109,192,20458,1,2,0:0:0:0:
256,192,20458,1,8,0:0:0:0:
109,192,20807,128,2,23424:0:0:0:0:
182,192,20807,1,2,0:0:0:0:
182,192,21156,1,2,0:0:0:0:
182,192,21505,1,2,0:0:0:0:
182,192,21854,1,2,0:0:0:0:
182,192,22203,1,2,0:0:0:0:
182,192,22552,1,2,0:0:0:0:
182,192,22900,1,2,0:0:0:0:
256,192,23075,1,8,0:0:0:0:
182,192,23249,1,2,0:0:0:0:
329,192,23424,1,2,0:0:0:0:
36,192,23772,128,2,24906:0:0:0:0:
475,192,23772,1,8,0:0:0:0:
402,192,23947,1,8,0:0:0:0:
329,192,24121,1,8,0:0:0:0:
256,192,24296,1,8,0:0:0:0:
475,192,24645,1,8,0:0:0:0:
256,192,24993,1,8,0:0:0:0:
109,192,25168,128,2,26302:0:0:0:0:
475,192,25342,1,8,0:0:0:0:
402,192,25517,1,8,0:0:0:0:
329,192,25691,1,8,0:0:0:0:
256,192,25865,1,2,0:0:0:0:
182,192,26040,1,10,0:0:0:0:
402,192,26214,1,8,0:0:0:0:
182,192,26389,1,2,0:0:0:0:
475,192,26563,1,8,0:0:0:0:
109,192,26563,128,2,27958:0:0:0:0:
182,192,26738,1,2,0:0:0:0:
182,192,27086,1,2,0:0:0:0:
256,192,27261,1,2,0:0:0:0:
182,192,27435,1,2,0:0:0:0:
182,192,27784,1,2,0:0:0:0:
182,192,27958,1,2,0:0:0:0:
329,192,28482,1,8,0:0:0:0:
109,192,28482,1,0,0:0:0:0:
475,192,28656,1,8,0:0:0:0:
256,192,28656,1,0,0:0:0:0:
329,192,29005,1,8,0:0:0:0:
402,192,29179,128,8,29703:0:0:0:0:
256,192,29354,1,2,0:0:0:0:
182,192,29528,1,2,0:0:0:0:
256,192,29703,1,2,0:0:0:0:
256,192,30052,1,2,0:0:0:0:
182,192,30226,1,2,0:0:0:0:
109,192,30400,1,2,0:0:0:0:
256,192,30575,1,2,0:0:0:0:
329,192,30749,128,8,31011:0:0:0:0:
109,192,30749,1,2,0:0:0:0:
256,192,31098,1,2,0:0:0:0:
329,192,31272,128,8,31534:0:0:0:0:
402,192,31621,1,8,0:0:0:0:
256,192,31796,1,2,0:0:0:0:
475,192,31970,128,8,32493:0:0:0:0:
402,192,31970,128,8,32493:0:0:0:0:
329,192,32668,1,8,0:0:0:0:
182,192,32668,1,2,0:0:0:0:
329,192,32842,1,8,0:0:0:0:
182,192,32842,1,2,0:0:0:0:
329,192,33453,1,8,0:0:0:0:
402,192,33496,1,8,0:0:0:0:
475,192,33540,1,8,0:0:0:0:
475,192,34063,1,8,0:0:0:0:
402,192,34238,1,8,0:0:0:0:
256,192,34586,1,2,0:0:0:0:
329,192,34935,1,8,0:0:0:0:
256,192,35110,1,2,0:0:0:0:
109,192,35458,1,2,0:0:0:0:
475,192,35807,1,8,0:0:0:0:
109,192,35982,1,2,0:0:0:0:
182,192,36069,1,2,0:0:0:0:
256,192,36156,1,2,0:0:0:0:
329,192,36243,1,2,0:0:0:0:
402,192,36331,1,2,0:0:0:0:
402,192,36679,1,8,0:0:0:0:
256,192,36679,1,2,0:0:0:0:
329,192,37028,1,8,0:0:0:0:
402,192,37377,1,8,0:0:0:0:
182,192,37552,1,2,0:0:0:0:
402,192,37726,128,8,38075:0:0:0:0:
182,192,38249,128,2,38598:0:0:0:0:
402,192,38772,128,8,39296:0:0:0:0:
256,192,39296,128,2,39557:0:0:0:0:
329,192,39645,1,2,0:0:0:0:
256,192,39819,1,2,0:0:0:0:
182,192,39993,1,2,0:0:0:0:
109,192,40168,1,2,0:0:0:0:
36,192,40342,1,2,0:0:0:0:
475,192,40865,1,8,0:0:0:0:
329,192,41040,1,8,0:0:0:0:
256,192,41214,1,8,0:0:0:0:
329,192,41389,1,8,0:0:0:0:
256,192,41738,1,8,0:0:0:0:
329,192,41912,1,8,0:0:0:0:
402,192,42086,1,8,0:0:0:0:
402,192,42261,1,8,0:0:0:0:
475,192,42610,1,2,0:0:0:0:
402,192,42784,1,2,0:0:0:0:
329,192,42958,1,2,0:0:0:0:
256,192,43133,1,2,0:0:0:0:
182,192,43307,1,2,0:0:0:0:
475,192,43656,1,8,0:0:0:0:
329,192,44005,1,8,0:0:0:0:
329,192,44179,1,8,0:0:0:0:
256,192,44354,1,8,0:0:0:0:
475,192,44528,1,8,0:0:0:0:
402,192,44703,1,8,0:0:0:0:
475,192,44877,1,8,0:0:0:0:
256,192,45052,1,8,0:0:0:0:
256,192,45400,1,2,0:0:0:0:
329,192,45575,1,2,0:0:0:0:
182,192,45749,1,2,0:0:0:0:
109,192,45924,1,2,0:0:0:0:
36,192,46098,1,2,0:0:0:0:
256,192,46098,1,2,0:0:0:0:
182,192,46447,1,2,0:0:0:0:
36,192,46447,1,2,0:0:0:0:
109,192,46621,1,2,0:0:0:0:
256,192,46796,1,2,0:0:0:0:
109,192,46970,1,2,0:0:0:0:
36,192,47145,1,2,0:0:0:0:
256,192,47319,1,2,0:0:0:0:
182,192,47668,1,2,0:0:0:0:
36,192,47668,1,2,0:0:0:0:
256,192,48017,1,2,0:0:0:0:
36,192,48017,1,2,0:0:0:0:
256,192,48540,1,2,0:0:0:0:
402,192,48889,1,8,0:0:0:0:
475,192,48889,1,8,0:0:0:0:
256,192,49412,1,2,0:0:0:0:
256,192,49586,1,2,0:0:0:0:
256,192,50110,1,2,0:0:0:0:
402,192,50284,1,8,0:0:0:0:
256,192,50458,1,2,0:0:0:0:
402,192,50807,1,8,0:0:0:0:
182,192,50807,1,2,0:0:0:0:
256,192,51156,1,8,0:0:0:0:
256,192,51331,1,8,0:0:0:0:
256,192,51854,1,2,0:0:0:0:
475,192,51941,1,8,0:0:0:0:
329,192,52028,1,8,0:0:0:0:
256,192,52203,1,2,0:0:0:0:
329,192,52377,1,8,0:0:0:0:
402,192,52552,1,8,0:0:0:0:
329,192,52726,1,8,0:0:0:0:
475,192,52726,1,8,0:0:0:0:
182,192,52900,1,2,0:0:0:0:
36,192,52900,1,2,0:0:0:0:
475,192,54645,1,8,0:0:0:0:
475,192,54819,1,8,0:0:0:0:
475,192,54993,1,8,0:0:0:0:
475,192,55168,1,8,0:0:0:0:
402,192,55342,1,8,0:0:0:0:
329,192,55517,1,8,0:0:0:0:
475,192,55691,128,8,57174:0:0:0:0:
182,192,55865,128,2,56214:0:0:0:0:
36,192,56214,128,2,56563:0:0:0:0:
182,192,56563,128,2,56912:0:0:0:0:
36,192,56912,128,2,57261:0:0:0:0:
182,192,57261,128,2,57610:0:0:0:0:
329,192,57435,1,0,0:0:0:0:
36,192,57610,128,2,57958:0:0:0:0:
402,192,57610,1,0,0:0:0:0:
256,192,57958,1,8,0:0:0:0:
256,192,58133,1,8,0:0:0:0:
475,192,58307,1,8,0:0:0:0:
402,192,58482,128,8,59354:0:0:0:0:
182,192,58656,128,2,59005:0:0:0:0:
36,192,59005,128,2,59354:0:0:0:0:
329,192,59354,128,8,60052:0:0:0:0:
109,192,59354,128,2,59703:0:0:0:0:
36,192,59703,128,2,60052:0:0:0:0:
256,192,60052,128,8,60749:0:0:0:0:
109,192,60052,128,2,60400:0:0:0:0:
36,192,60400,128,2,60749:0:0:0:0:
182,192,60749,128,2,61098:0:0:0:0:
109,192,60749,128,2,61098:0:0:0:0:
36,192,61098,128,2,61447:0:0:0:0:
109,192,61447,128,2,61796:0:0:0:0:
36,192,61796,128,2,62145:0:0:0:0:
109,192,62145,128,2,62493:0:0:0:0:
36,192,62493,128,2,62842:0:0:0:0:
109,192,62842,128,2,63191:0:0:0:0:
402,192,62842,128,8,63191:0:0:0:0:
36,192,63191,128,2,63540:0:0:0:0:
109,192,63540,128,2,63889:0:0:0:0:
475,192,63540,128,8,63889:0:0:0:0:
36,192,63889,128,2,64238:0:0:0:0:
109,192,64238,128,2,64586:0:0:0:0:
402,192,64412,128,8,64761:0:0:0:0:
36,192,64586,128,2,64935:0:0:0:0:
329,192,64761,128,8,65110:0:0:0:0:
109,192,64935,128,2,65284:0:0:0:0:
256,192,65110,128,8,65458:0:0:0:0:
36,192,65284,128,2,65458:0:0:0:0:
329,192,65982,128,8,66156:0:0:0:0:
329,192,66331,1,2,0:0:0:0:
256,192,66505,1,2,0:0:0:0:
182,192,66679,1,2,0:0:0:0:
109,192,66854,1,2,0:0:0:0:
475,192,67028,128,8,67377:0:0:0:0:
402,192,67377,128,8,67726:0:0:0:0:
256,192,67377,1,2,0:0:0:0:
475,192,67726,128,8,68075:0:0:0:0:
256,192,67726,1,2,0:0:0:0:
402,192,68075,128,8,68424:0:0:0:0:
256,192,68075,1,2,0:0:0:0:
475,192,68424,128,8,68772:0:0:0:0:
256,192,68598,1,2,0:0:0:0:
402,192,68772,128,2,69034:0:0:0:0:
256,192,68947,1,2,0:0:0:0:
256,192,69296,1,2,0:0:0:0:
329,192,69470,1,8,0:0:0:0:
475,192,69470,1,8,0:0:0:0:
256,192,69645,128,2,70517:0:0:0:0:
329,192,70517,128,2,70953:0:0:0:0:
475,192,71040,1,8,0:0:0:0:
402,192,71127,1,8,0:0:0:0:
256,192,71214,128,2,71912:0:0:0:0:
329,192,71912,128,8,72610:0:0:0:0:
256,192,72610,128,2,73307:0:0:0:0:
329,192,73307,128,8,74005:0:0:0:0:
256,192,74005,128,2,74703:0:0:0:0:
329,192,74703,128,8,75052:0:0:0:0:
475,192,75400,1,8,0:0:0:0:
256,192,75575,1,2,0:0:0:0:
475,192,75924,1,8,0:0:0:0:
256,192,75924,1,2,0:0:0:0:
402,192,76272,1,8,0:0:0:0:
256,192,76272,1,2,0:0:0:0:
329,192,76621,1,8,0:0:0:0:
256,192,76621,1,2,0:0:0:0:
475,192,76796,1,8,0:0:0:0:
329,192,76970,1,8,0:0:0:0:
256,192,77145,1,2,0:0:0:0:
402,192,77319,1,8,0:0:0:0:
475,192,78017,1,8,0:0:0:0:
402,192,78191,1,8,0:0:0:0:
256,192,78540,1,8,0:0:0:0:
256,192,78714,1,8,0:0:0:0:
329,192,79063,1,8,0:0:0:0:
256,192,79412,1,2,0:0:0:0:
402,192,79761,1,8,0:0:0:0:
402,192,80110,1,8,0:0:0:0:
256,192,80633,1,2,0:0:0:0:
329,192,80982,1,8,0:0:0:0:
475,192,80982,1,8,0:0:0:0:
256,192,81331,1,8,0:0:0:0:
256,192,81505,1,8,0:0:0:0:
402,192,81854,1,8,0:0:0:0:
256,192,82203,1,2,0:0:0:0:
402,192,82203,1,8,0:0:0:0:
475,192,82552,1,8,0:0:0:0:
256,192,82552,1,2,0:0:0:0:
256,192,82900,1,2,0:0:0:0:
402,192,82900,1,8,0:0:0:0:
329,192,83249,1,8,0:0:0:0:
402,192,83598,1,8,0:0:0:0:
256,192,83772,128,8,85342:0:0:0:0:
329,192,85517,1,8,0:0:0:0:
402,192,85865,1,8,0:0:0:0:
329,192,86214,128,8,87784:0:0:0:0:
402,192,86214,128,8,87784:0:0:0:0:
475,192,86214,128,8,87784:0:0:0:0:
36,192,87958,1,2,0:0:0:0:
109,192,88133,1,2,0:0:0:0:
256,192,88307,1,2,0:0:0:0:
402,192,88482,1,8,0:0:0:0:
475,192,88656,1,8,0:0:0:0:
402,192,88831,1,4,0:0:0:0:
329,192,89005,1,4,0:0:0:0:
36,192,89179,1,4,0:0:0:0:
109,192,89179,1,4,0:0:0:0:
182,192,89179,1,4,0:0:0:0:
475,192,89179,1,4,0:0:0:0:
402,192,89179,1,4,0:0:0:0:
329,192,89179,1,4,0:0:0:0:
