osu file format v14

[General]
AudioFilename: Sword Art Online II - IGNITE.mp3
AudioLeadIn: 0
PreviewTime: 54645
Countdown: 0
SampleSet: Soft
StackLeniency: 0.7
Mode: 3
LetterboxInBreaks: 0
SpecialStyle: 0
WidescreenStoryboard: 0

[Editor]
DistanceSpacing: 0.8
BeatDivisor: 4
GridSize: 16
TimelineZoom: 1.9

[Metadata]
Title:IGNITE (Piano Ver.)
TitleUnicode:IGNITE (Piano Ver.)
Artist:Aoi Eir
ArtistUnicode:Aoi Eir
Creator:FelipeLink
Version:Depression
Source:
Tags:piano feels SAO sword art online 7K
BeatmapID:802182
BeatmapSetID:365490

[Difficulty]
HPDrainRate:9
CircleSize:7
OverallDifficulty:9
ApproachRate:5
SliderMultiplier:1.4
SliderTickRate:1

[Events]
//Background and Video events
0,0,"Shino.png",0,0
//Break Periods
//Storyboard Layer 0 (Background)
//Storyboard Layer 1 (Fail)
//Storyboard Layer 2 (Pass)
//Storyboard Layer 3 (Foreground)
//Storyboard Sound Samples
Sample,46373,0,"G3H.wav",70

[TimingPoints]
52,348.837209302326,4,2,0,30,1,0
54645,348.837209302326,4,2,0,30,1,1
89528,348.837209302326,4,2,0,30,1,0

[HitObjects]
402,192,226,5,8,0:0:0:70:C6H_s.wav
402,192,400,1,8,0:0:0:70:C6H_s.wav
402,192,575,1,8,0:0:0:70:C6H_s.wav
402,192,749,1,8,0:0:0:70:C6H_s.wav
329,192,924,1,8,0:0:0:70:B5H_s.wav
182,192,1098,1,8,0:0:0:70:A5H_s.wav
475,192,1272,128,8,1970:0:0:0:70:C6H.wav
182,192,1447,1,2,0:0:0:70:C4H_s.wav
36,192,1447,1,2,0:0:0:70:E2H_s.wav
182,192,1621,1,2,0:0:0:70:C4H_s.wav
182,192,1796,1,2,0:0:0:70:C4H_s.wav
182,192,1970,1,2,0:0:0:70:C4H_s.wav
182,192,2145,1,2,0:0:0:70:C4H_s.wav
329,192,2145,1,0,0:0:0:70:G4H_s.wav
182,192,2319,1,2,0:0:0:70:C4H_s.wav
182,192,2493,1,2,0:0:0:70:C4H_s.wav
182,192,2668,1,2,0:0:0:70:C4H_s.wav
182,192,2842,1,2,0:0:0:70:F2H_s.wav
36,192,2842,1,8,0:0:0:70:F2H_s.wav
182,192,3017,1,2,0:0:0:70:E3H_s.wav
329,192,3017,1,0,0:0:0:70:E5H_s.wav
182,192,3191,1,2,0:0:0:70:E3H_s.wav
329,192,3191,1,0,0:0:0:70:E5H_s.wav
182,192,3365,1,2,0:0:0:70:E3H_s.wav
329,192,3365,1,0,0:0:0:70:E5H_s.wav
182,192,3540,1,2,0:0:0:70:C3H_s.wav
329,192,3540,1,2,0:0:0:70:E5H_s.wav
182,192,3714,1,2,0:0:0:70:C3H_s.wav
329,192,3714,1,0,0:0:0:70:E5H_s.wav
256,192,3889,1,0,0:0:0:70:G3H_s.wav
182,192,3889,1,2,0:0:0:70:C3H_s.wav
402,192,3889,1,8,0:0:0:70:C6H_s.wav
182,192,4063,1,2,0:0:0:70:C3H_s.wav
329,192,4063,128,0,4935:0:0:0:70:B5H.wav
256,192,4238,1,2,0:0:0:70:D3H_s.wav
36,192,4238,1,8,0:0:0:70:G2H_s.wav
256,192,4412,1,2,0:0:0:70:D3H_s.wav
256,192,4586,1,2,0:0:0:70:D3H_s.wav
256,192,4761,1,2,0:0:0:70:D3H_s.wav
182,192,4935,1,10,0:0:0:70:G3H_s.wav
256,192,4935,1,2,0:0:0:70:D3H_s.wav
475,192,4935,128,8,5633:0:0:0:70:A5H.wav
256,192,5110,1,2,0:0:0:70:D3H_s.wav
256,192,5284,1,2,0:0:0:70:D3H_s.wav
256,192,5458,1,2,0:0:0:70:D3H_s.wav
109,192,5633,1,8,0:0:0:70:G2H_s.wav
256,192,5633,1,2,0:0:0:70:D3H_s.wav
402,192,5633,128,8,6331:0:0:0:70:G5H.wav
256,192,5807,1,2,0:0:0:70:D3H_s.wav
256,192,5982,1,2,0:0:0:70:D3H_s.wav
256,192,6156,1,2,0:0:0:70:D3H_s.wav
182,192,6331,1,8,0:0:0:70:G3H_s.wav
256,192,6331,1,2,0:0:0:70:D3H_s.wav
329,192,6331,128,0,7377:0:0:0:70:F5H.wav
256,192,6505,1,2,0:0:0:70:D3H_s.wav
256,192,6679,1,2,0:0:0:70:D3H_s.wav
256,192,6854,1,2,0:0:0:70:D3H_s.wav
182,192,7028,1,2,0:0:0:70:B2H_s.wav
402,192,7028,128,0,7726:0:0:0:70:G5H.wav
36,192,7028,1,0,0:0:0:70:D3H_s.wav
182,192,7203,1,2,0:0:0:70:B2H_s.wav
182,192,7377,1,2,0:0:0:70:B2H_s.wav
36,192,7377,1,8,0:0:0:70:D3H_s.wav
182,192,7552,1,2,0:0:0:70:B2H_s.wav
182,192,7726,1,2,0:0:0:70:B2H_s.wav
36,192,7726,1,8,0:0:0:70:D3H_s.wav
475,192,7726,128,8,8424:0:0:0:70:D6H.wav
182,192,7900,1,2,0:0:0:70:B2H_s.wav
182,192,8075,1,2,0:0:0:70:B2H_s.wav
36,192,8075,1,8,0:0:0:70:D3H_s.wav
182,192,8249,1,2,0:0:0:70:B2H_s.wav
256,192,8424,1,8,0:0:0:70:G5H_s.wav
182,192,8424,1,2,0:0:0:70:B2H_s.wav
109,192,8424,1,2,0:0:0:70:D3H_s.wav
402,192,8424,128,0,9121:0:0:0:70:G5H.wav
182,192,8598,1,2,0:0:0:70:B2H_s.wav
182,192,8772,1,2,0:0:0:70:B2H_s.wav
36,192,8772,1,8,0:0:0:70:D3H_s.wav
182,192,8947,1,2,0:0:0:70:B2H_s.wav
182,192,9121,1,2,0:0:0:70:B2H_s.wav
36,192,9121,1,8,0:0:0:70:D3H_s.wav
475,192,9121,128,0,9645:0:0:0:70:D6H.wav
182,192,9296,1,2,0:0:0:70:B2H_s.wav
329,192,9296,1,0,0:0:0:70:D3H_s.wav
182,192,9470,1,2,0:0:0:70:B2H_s.wav
109,192,9819,1,8,0:0:0:70:A2H_s.wav
256,192,9819,1,2,0:0:0:70:C3H_s.wav
475,192,9819,128,8,9993:0:0:0:70:E6H.wav
109,192,9993,1,8,0:0:0:70:A2H_s.wav
256,192,9993,1,2,0:0:0:70:C3H_s.wav
402,192,9993,128,8,10342:0:0:0:70:D6H.wav
256,192,10168,1,2,0:0:0:70:C3H_s.wav
109,192,10342,1,8,0:0:0:70:A2H_s.wav
256,192,10342,1,2,0:0:0:70:C3H_s.wav
329,192,10342,128,2,10691:0:0:0:70:C6H.wav
402,192,10517,1,2,0:0:0:70:G3H_s.wav
256,192,10517,1,2,0:0:0:70:C3H_s.wav
109,192,10517,1,2,0:0:0:70:A2H_s.wav
109,192,10691,1,2,0:0:0:70:A2H_s.wav
256,192,10691,1,2,0:0:0:70:C3H_s.wav
109,192,10865,1,0,0:0:0:70:A2H_s.wav
256,192,10865,1,0,0:0:0:70:C3H_s.wav
475,192,10865,128,0,11040:0:0:0:70:B5H_s.wav
182,192,11040,128,0,11214:0:0:0:70:C6H.wav
329,192,11040,128,0,11214:0:0:0:70:C6H.wav
256,192,11389,1,2,0:0:0:70:A3H_s.wav
109,192,11389,1,2,0:0:0:70:C3H_s.wav
402,192,11389,1,2,0:0:0:70:E4H_s.wav
109,192,11563,1,2,0:0:0:70:C3H_s.wav
256,192,11563,1,2,0:0:0:70:A3H_s.wav
402,192,11563,1,2,0:0:0:70:E4H_s.wav
256,192,11738,1,2,0:0:0:70:A3H_s.wav
109,192,11738,1,2,0:0:0:70:C3H_s.wav
402,192,11738,1,2,0:0:0:70:E4H_s.wav
182,192,11912,1,4,0:0:0:70:A3H_s.wav
36,192,11912,1,4,0:0:0:70:A2H_s.wav
329,192,11912,1,0,0:0:0:70:A4H_s.wav
475,192,11912,1,0,0:0:0:70:E4H_s.wav
182,192,12086,1,4,0:0:0:70:A3H_s.wav
36,192,12086,1,4,0:0:0:70:A2H_s.wav
329,192,12086,1,0,0:0:0:70:A4H_s.wav
475,192,12086,1,0,0:0:0:70:E4H_s.wav
329,192,12435,1,8,0:0:0:70:A5H_s.wav
402,192,12522,1,8,0:0:0:70:B5H_s.wav
36,192,12610,1,10,0:0:0:100:F3H_s.wav
182,192,12610,1,10,0:0:0:100:C3H_s.wav
256,192,12610,1,10,0:0:0:100:F4H_s.wav
475,192,12610,1,8,0:0:0:70:C6H_s.wav
182,192,12784,1,2,0:0:0:100:C3H_s.wav
182,192,12958,1,2,0:0:0:100:C3H_s.wav
36,192,12958,1,2,0:0:0:100:F3H_s.wav
182,192,13133,1,2,0:0:0:100:C3H_s.wav
329,192,13133,1,0,0:0:0:100:G5H.wav
256,192,13307,1,2,0:0:0:100:E4H_s.wav
36,192,13307,1,2,0:0:0:100:F3H_s.wav
182,192,13482,1,2,0:0:0:100:C3H_s.wav
402,192,13482,1,0,0:0:0:100:A5H_s.wav
182,192,13656,1,2,0:0:0:100:C3H_s.wav
36,192,13656,1,2,0:0:0:100:F3H_s.wav
475,192,13656,1,8,0:0:0:100:E6H_s.wav
182,192,13831,1,0,0:0:0:100:C3H_s.wav
402,192,13831,1,8,0:0:0:100:D6H.wav
256,192,14005,1,2,0:0:0:100:D3H_s.wav
329,192,14005,1,8,0:0:0:100:G4H_s.wav
109,192,14005,1,2,0:0:0:100:G3H_s.wav
256,192,14179,1,2,0:0:0:100:D3H_s.wav
256,192,14354,1,2,0:0:0:100:D3H_s.wav
109,192,14354,1,2,0:0:0:100:G3H_s.wav
402,192,14354,128,0,14703:0:0:0:100:C6H.wav
256,192,14528,1,2,0:0:0:100:D3H_s.wav
256,192,14703,1,2,0:0:0:100:D3H_s.wav
109,192,14703,1,2,0:0:0:100:G3H_s.wav
329,192,14703,128,0,15052:0:0:0:100:B5H.wav
256,192,14877,1,2,0:0:0:100:D3H_s.wav
256,192,15052,1,2,0:0:0:100:D3H_s.wav
109,192,15052,1,2,0:0:0:100:G3H_s.wav
402,192,15052,128,0,15400:0:0:0:100:C6H.wav
256,192,15226,1,2,0:0:0:100:D3H_s.wav
109,192,15226,1,2,0:0:0:100:G3H_s.wav
329,192,15226,1,8,0:0:0:100:G5H_s.wav
182,192,15400,1,2,0:0:0:100:E4H_s.wav
36,192,15400,1,2,0:0:0:100:A4H_s.wav
475,192,15400,128,0,15749:0:0:0:100:A5H.wav
329,192,15400,1,0,0:0:0:100:A5H_s.wav
36,192,15575,1,2,0:0:0:100:A4H_s.wav
182,192,15575,1,2,0:0:0:100:E4H_s.wav
36,192,15749,1,2,0:0:0:100:A4H_s.wav
182,192,15749,1,2,0:0:0:100:E4H_s.wav
36,192,15924,1,2,0:0:0:100:A4H_s.wav
182,192,15924,1,2,0:0:0:100:E4H_s.wav
402,192,15924,1,8,0:0:0:100:A4H_s.wav
36,192,16098,1,2,0:0:0:100:A4H_s.wav
182,192,16098,1,2,0:0:0:100:E4H_s.wav
36,192,16272,1,2,0:0:0:100:A4H_s.wav
182,192,16272,1,2,0:0:0:100:E4H_s.wav
475,192,16272,1,8,0:0:0:70:E6H.wav
36,192,16447,1,2,0:0:0:100:A4H_s.wav
182,192,16447,1,2,0:0:0:100:E4H_s.wav
402,192,16447,1,8,0:0:0:70:D6H_s.wav
36,192,16621,1,2,0:0:0:70:A3H_s.wav
329,192,16621,1,2,0:0:0:70:C4H_s.wav
402,192,16621,1,8,0:0:0:70:A5H_s.wav
475,192,16621,128,8,16883:0:0:0:70:C#6H_Db6H_s.wav
109,192,16970,1,4,0:0:0:70:A3H_s.wav
256,192,16970,1,4,0:0:0:70:E4H_s.wav
402,192,16970,1,4,0:0:0:70:A4H_s.wav
109,192,17145,1,4,0:0:0:70:A3H_s.wav
256,192,17145,1,4,0:0:0:70:E4H_s.wav
402,192,17145,1,4,0:0:0:70:A4H_s.wav
109,192,17319,1,4,0:0:0:70:A3H_s.wav
256,192,17319,1,4,0:0:0:70:E4H_s.wav
402,192,17319,1,4,0:0:0:70:A4H_s.wav
36,192,17493,1,2,0:0:0:70:A4H_s.wav
475,192,17493,128,0,17842:0:0:0:70:E5H_s.wav
36,192,17668,1,2,0:0:0:70:A4H_s.wav
256,192,17755,128,0,17929:0:0:0:70:B5H_s.wav
109,192,17929,128,0,19935:0:0:0:70:E5H.wav
182,192,18365,1,2,0:0:0:70:A6H_s.wav
329,192,18540,1,8,0:0:0:70:C7H_s.wav
182,192,18714,1,2,0:0:0:70:C4H_s.wav
475,192,18714,1,8,0:0:0:70:E7H_s.wav
182,192,19063,1,2,0:0:0:70:C4H_s.wav
402,192,19238,1,8,0:0:0:70:D5H_s.wav
182,192,19412,1,2,0:0:0:70:C4H_s.wav
329,192,19412,1,8,0:0:0:70:C5H_s.wav
402,192,19586,128,0,19935:0:0:0:70:D5H.wav
182,192,19761,1,2,0:0:0:70:C4H_s.wav
329,192,19935,1,8,0:0:0:70:C5H_s.wav
182,192,20110,1,2,0:0:0:70:C4H_s.wav
402,192,20110,1,8,0:0:0:70:D5H_s.wav
402,192,20458,128,0,20807:0:0:0:70:G5H.wav
256,192,20458,128,0,20807:0:0:0:70:G5H.wav
109,192,20807,128,0,23424:0:0:0:70:A2H.wav
475,192,20807,128,8,21156:0:0:0:70:A5H.wav
182,192,20807,1,2,0:0:0:70:D4H_s.wav
182,192,21156,1,2,0:0:0:70:D4H_s.wav
182,192,21505,1,2,0:0:0:70:D4H_s.wav
402,192,21505,1,8,0:0:0:70:D5H_s.wav
402,192,21679,128,8,22028:0:0:0:70:D5H_s.wav
182,192,21854,1,2,0:0:0:70:D4H_s.wav
182,192,22203,1,2,0:0:0:70:D4H_s.wav
182,192,22552,1,2,0:0:0:70:D4H_s.wav
182,192,22900,1,2,0:0:0:70:D4H_s.wav
256,192,23075,1,2,0:0:0:70:D5H_s.wav
182,192,23249,1,2,0:0:0:70:D4H_s.wav
36,192,23424,128,2,24557:0:0:0:70:F2H_s.wav
329,192,23424,1,8,0:0:0:70:E5H_s.wav
109,192,23598,1,2,0:0:0:70:F4H_s.wav
402,192,23772,1,8,0:0:0:70:F5H_s.wav
109,192,23947,1,2,0:0:0:70:F4H_s.wav
329,192,23947,1,0,0:0:0:70:E5H_s.wav
256,192,23947,1,0,0:0:0:70:F4H_s.wav
109,192,24296,1,2,0:0:0:70:F4H_s.wav
402,192,24296,1,0,0:0:0:70:F5H_s.wav
475,192,24645,1,8,0:0:0:70:G5H_s.wav
475,192,24993,1,8,0:0:0:70:A5H_s.wav
256,192,24993,1,0,0:0:0:40:F4H_s.wav
402,192,24993,1,2,0:0:0:70:A5H_s.wav
109,192,25168,128,0,26389:0:0:0:70:G3H.wav
182,192,25342,1,2,0:0:0:70:G4H_s.wav
402,192,25517,1,8,0:0:0:70:B5H_s.wav
182,192,25691,1,2,0:0:0:70:G4H_s.wav
329,192,25865,1,8,0:0:0:70:G5H_s.wav
182,192,26040,1,2,0:0:0:70:G4H_s.wav
402,192,26214,1,8,0:0:0:70:F5H_s.wav
475,192,26563,1,8,0:0:0:70:F5H_s.wav
329,192,26563,1,8,0:0:0:70:F5H_s.wav
109,192,26563,128,2,27958:0:0:0:70:A2H.wav
182,192,26738,1,2,0:0:0:70:A4H_s.wav
256,192,26912,1,0,0:0:0:70:C7H_s.wav
182,192,27086,1,2,0:0:0:70:E5H_s.wav
329,192,27086,1,8,0:0:0:70:E7H_s.wav
329,192,27261,1,8,0:0:0:70:E5H_s.wav
182,192,27435,1,2,0:0:0:70:A4H_s.wav
182,192,27784,1,2,0:0:0:70:A4H_s.wav
256,192,27958,1,0,0:0:0:70:A2H_s.wav
402,192,28133,1,0,0:0:0:70:A4H_s.wav
329,192,28482,1,8,0:0:0:70:E6H_s.wav
109,192,28482,1,0,0:0:0:70:A4H_s.wav
475,192,28656,1,8,0:0:0:70:C7H_s.wav
256,192,28656,1,0,0:0:0:70:A4H_s.wav
402,192,29005,1,8,0:0:0:70:B6H_s.wav
329,192,29179,128,8,29703:0:0:0:70:E6H.wav
256,192,29354,1,2,0:0:0:70:A3H_s.wav
109,192,29354,1,2,0:0:0:70:A2H_s.wav
182,192,29528,1,0,0:0:0:70:A3H_s.wav
256,192,29703,1,2,0:0:0:70:A4H_s.wav
109,192,29703,1,2,0:0:0:70:E4H_s.wav
182,192,29877,1,8,0:0:0:70:A3H_s.wav
256,192,30052,1,2,0:0:0:70:A4H_s.wav
109,192,30052,1,2,0:0:0:70:E4H_s.wav
182,192,30226,1,8,0:0:0:70:A3H_s.wav
329,192,30400,1,8,0:0:0:70:D6H_s.wav
109,192,30400,1,2,0:0:0:70:C5H_s.wav
256,192,30575,1,8,0:0:0:70:C6H_s.wav
329,192,30749,128,8,31011:0:0:0:70:D6H.wav
109,192,30749,1,2,0:0:0:70:A4H_s.wav
36,192,30924,1,2,0:0:0:70:A3H_s.wav
256,192,31098,1,2,0:0:0:70:C6H_s.wav
109,192,31098,1,2,0:0:0:70:A4H_s.wav
329,192,31272,128,8,31534:0:0:0:70:D6H.wav
36,192,31272,1,2,0:0:0:70:A3H_s.wav
109,192,31447,1,2,0:0:0:70:A4H_s.wav
36,192,31621,1,2,0:0:0:70:A3H_s.wav
402,192,31621,128,0,31883:0:0:0:70:G6H.wav
182,192,31796,1,8,0:0:0:70:C5H_s.wav
402,192,31970,128,0,32493:0:0:0:70:F#6H_Gb6H.wav
475,192,31970,128,0,32493:0:0:0:70:A6H.wav
109,192,32145,1,2,0:0:0:70:D2H_s.wav
256,192,32145,1,0,0:0:0:70:D3H_s.wav
256,192,32319,1,2,0:0:0:70:D3H_s.wav
329,192,32493,1,8,0:0:0:70:D4H_s.wav
329,192,32668,1,4,0:0:0:70:D4H_s.wav
475,192,32668,1,4,0:0:0:70:D6H_s.wav
182,192,32668,1,4,0:0:0:70:A3H_s.wav
329,192,32842,1,4,0:0:0:70:D4H_s.wav
475,192,32842,1,4,0:0:0:70:D6H_s.wav
182,192,32842,1,4,0:0:0:70:A3H_s.wav
36,192,33017,1,2,0:0:0:70:D3H_s.wav
182,192,33191,1,2,0:0:0:70:D3H_s.wav
329,192,33453,1,8,0:0:0:70:D7H_s.wav
402,192,33496,1,8,0:0:0:70:F#7H_Gb7H_s.wav
475,192,33540,1,8,0:0:0:70:A7H_s.wav
182,192,33540,1,2,0:0:0:70:D4H_s.wav
36,192,33714,1,2,0:0:0:70:D3H_s.wav
182,192,33889,1,2,0:0:0:70:D4H_s.wav
475,192,34063,1,8,0:0:0:70:D7H_s.wav
36,192,34063,1,2,0:0:0:70:D3H_s.wav
329,192,34238,1,8,0:0:0:70:D6H_s.wav
402,192,34238,1,8,0:0:0:70:D7H_s.wav
182,192,34238,1,2,0:0:0:70:D4H_s.wav
36,192,34412,1,2,0:0:0:70:D3H_s.wav
256,192,34586,1,2,0:0:0:70:E6H_s.wav
402,192,34586,1,8,0:0:0:70:C7H_s.wav
182,192,34586,1,2,0:0:0:70:A3H_s.wav
329,192,34935,1,2,0:0:0:70:F6H_s.wav
402,192,34935,1,2,0:0:0:70:A6H_s.wav
475,192,34935,1,2,0:0:0:70:A6H_s.wav
109,192,34935,1,2,0:0:0:70:F3H_s.wav
36,192,34935,1,2,0:0:0:70:F2H_s.wav
402,192,35110,1,2,0:0:0:70:E6H_s.wav
256,192,35110,1,2,0:0:0:70:E6H_s.wav
109,192,35110,1,2,0:0:0:70:F3H_s.wav
329,192,35284,1,2,0:0:0:70:F4H_s.wav
475,192,35284,1,2,0:0:0:70:F4H_s.wav
182,192,35284,1,2,0:0:0:70:C4H_s.wav
402,192,35458,1,2,0:0:0:70:F6H_s.wav
256,192,35458,1,2,0:0:0:70:F6H_s.wav
109,192,35458,1,2,0:0:0:70:F3H_s.wav
182,192,35633,1,2,0:0:0:70:F4H_s.wav
36,192,35807,1,2,0:0:0:70:F3H_s.wav
329,192,35807,1,2,0:0:0:70:G6H_s.wav
475,192,35807,1,2,0:0:0:70:G6H_s.wav
182,192,35982,1,8,0:0:0:70:G5H_s.wav
256,192,36069,1,8,0:0:0:70:A5H_s.wav
329,192,36156,1,8,0:0:0:70:B5H_s.wav
402,192,36243,1,8,0:0:0:70:C6H_s.wav
475,192,36331,1,8,0:0:0:70:D6H_s.wav
182,192,36331,1,2,0:0:0:70:F3H_s.wav
36,192,36331,1,2,0:0:0:70:F2H_s.wav
475,192,36505,1,2,0:0:0:70:F3H_s.wav
182,192,36505,1,2,0:0:0:70:F3H_s.wav
402,192,36679,1,2,0:0:0:70:E6H_s.wav
256,192,36679,1,2,0:0:0:70:F4H_s.wav
109,192,36854,1,2,0:0:0:70:F3H_s.wav
329,192,36854,1,0,0:0:0:70:F3H_s.wav
475,192,37028,1,2,0:0:0:70:D6H_s.wav
256,192,37028,1,0,0:0:0:70:F5H_s.wav
109,192,37115,1,2,0:0:0:70:G3H_s.wav
402,192,37377,1,8,0:0:0:70:C6H_s.wav
36,192,37377,1,2,0:0:0:70:G3H_s.wav
109,192,37464,1,2,0:0:0:70:B3H_s.wav
182,192,37552,1,2,0:0:0:70:D4H_s.wav
256,192,37639,1,2,0:0:0:70:G4H_s.wav
182,192,37726,128,2,38075:0:0:0:70:B4H.wav
36,192,37726,128,2,38075:0:0:0:70:D4H.wav
402,192,37726,128,2,38075:0:0:0:70:B5H.wav
402,192,38249,128,2,38598:0:0:0:70:B5H.wav
182,192,38249,128,2,38598:0:0:0:70:E4H_s.wav
36,192,38249,128,2,38598:0:0:0:70:C4H.wav
475,192,38598,1,2,0:0:0:70:A5H_s.wav
402,192,38772,128,2,39296:0:0:0:70:C6H.wav
182,192,38772,128,2,39121:0:0:0:70:D5H.wav
36,192,38772,128,2,39121:0:0:0:70:G4H.wav
256,192,39296,128,2,39557:0:0:0:70:A5H_s.wav
36,192,39296,128,2,39557:0:0:0:70:A4H_s.wav
475,192,39645,1,8,0:0:0:70:B4H_s.wav
329,192,39645,1,8,0:0:0:70:B4H_s.wav
402,192,39819,1,8,0:0:0:70:C5H_s.wav
256,192,39819,1,8,0:0:0:70:G4H_s.wav
329,192,39993,1,8,0:0:0:70:B4H_s.wav
182,192,39993,1,8,0:0:0:70:E4H_s.wav
256,192,40168,1,8,0:0:0:70:G4H_s.wav
109,192,40168,1,8,0:0:0:70:B3H_s.wav
182,192,40342,1,2,0:0:0:70:E4H_s.wav
36,192,40342,1,2,0:0:0:70:G3H_s.wav
182,192,40517,1,2,0:0:0:70:C4H_s.wav
36,192,40517,1,2,0:0:0:70:D3H_s.wav
109,192,40517,1,0,0:0:0:70:D3H_s.wav
182,192,40691,1,2,0:0:0:70:C4H_s.wav
36,192,40691,1,2,0:0:0:70:D3H_s.wav
109,192,40691,1,0,0:0:0:70:D3H_s.wav
329,192,40865,1,8,0:0:0:70:F5H_s.wav
475,192,40865,1,8,0:0:0:70:D6H_s.wav
329,192,41040,1,2,0:0:0:70:F5H_s.wav
475,192,41040,1,2,0:0:0:70:D6H_s.wav
182,192,41040,1,2,0:0:0:70:C4H_s.wav
36,192,41040,1,2,0:0:0:70:D3H_s.wav
329,192,41214,1,2,0:0:0:70:F5H_s.wav
475,192,41214,1,2,0:0:0:70:D6H_s.wav
182,192,41214,1,2,0:0:0:70:C4H_s.wav
36,192,41214,1,2,0:0:0:70:D3H_s.wav
329,192,41389,1,8,0:0:0:70:F5H_s.wav
475,192,41389,1,8,0:0:0:70:D6H_s.wav
182,192,41563,1,2,0:0:0:70:C4H_s.wav
36,192,41563,1,2,0:0:0:70:D3H_s.wav
256,192,41738,1,8,0:0:0:70:E5H_s.wav
402,192,41738,1,8,0:0:0:70:C6H_s.wav
182,192,41738,1,2,0:0:0:70:C4H_s.wav
36,192,41738,1,2,0:0:0:70:D3H_s.wav
329,192,41912,1,8,0:0:0:70:F5H_s.wav
475,192,41912,1,8,0:0:0:70:D6H_s.wav
402,192,42086,1,2,0:0:0:70:E6H_s.wav
256,192,42086,1,2,0:0:0:70:G5H_s.wav
182,192,42086,1,2,0:0:0:70:C4H_s.wav
36,192,42086,1,2,0:0:0:70:E3H_s.wav
402,192,42261,1,2,0:0:0:70:E6H_s.wav
256,192,42261,1,2,0:0:0:70:G5H_s.wav
182,192,42261,1,2,0:0:0:70:C4H_s.wav
36,192,42261,1,2,0:0:0:70:E3H_s.wav
475,192,42610,1,2,0:0:0:70:E5H_s.wav
329,192,42610,1,2,0:0:0:70:C5H_s.wav
402,192,42784,1,2,0:0:0:70:D5H_s.wav
256,192,42784,1,2,0:0:0:70:B4H_s.wav
329,192,42958,1,2,0:0:0:70:C5H_s.wav
182,192,42958,1,2,0:0:0:70:A4H_s.wav
256,192,43133,1,2,0:0:0:70:B4H_s.wav
109,192,43133,1,2,0:0:0:70:G4H_s.wav
36,192,43307,1,2,0:0:0:70:E3H_s.wav
182,192,43307,1,2,0:0:0:70:C4H_s.wav
329,192,43482,1,2,0:0:0:70:E3H_s.wav
182,192,43482,1,2,0:0:0:70:C4H_s.wav
329,192,43656,1,8,0:0:0:70:E6H_s.wav
475,192,43656,1,8,0:0:0:70:G6H_s.wav
36,192,43831,1,2,0:0:0:70:E3H_s.wav
182,192,43831,1,2,0:0:0:70:C4H_s.wav
36,192,44005,1,2,0:0:0:70:E3H_s.wav
182,192,44005,1,2,0:0:0:70:C4H_s.wav
329,192,44005,1,8,0:0:0:70:E6H_s.wav
475,192,44005,1,8,0:0:0:70:G6H_s.wav
329,192,44179,1,8,0:0:0:70:E6H_s.wav
475,192,44179,1,8,0:0:0:70:G6H_s.wav
256,192,44354,1,2,0:0:0:70:B5H_s.wav
109,192,44354,1,2,0:0:0:70:D3H_s.wav
475,192,44354,1,8,0:0:0:70:G6H_s.wav
256,192,44528,1,2,0:0:0:70:B5H_s.wav
109,192,44528,1,2,0:0:0:70:D3H_s.wav
329,192,44528,1,8,0:0:0:70:F6H_s.wav
402,192,44703,1,8,0:0:0:70:G6H_s.wav
182,192,44703,1,0,0:0:0:70:B5H_s.wav
256,192,44877,1,2,0:0:0:70:G5H_s.wav
109,192,44877,1,2,0:0:0:70:D3H_s.wav
475,192,44877,1,8,0:0:0:70:F6H_s.wav
256,192,45052,1,2,0:0:0:70:G5H_s.wav
109,192,45052,1,2,0:0:0:70:D3H_s.wav
475,192,45052,1,8,0:0:0:70:F6H_s.wav
329,192,45226,1,2,0:0:0:70:F3H_s.wav
256,192,45400,1,2,0:0:0:70:E3H_s.wav
402,192,45400,1,0,0:0:0:70:A3H_s.wav
182,192,45575,1,2,0:0:0:70:D3H_s.wav
329,192,45575,1,8,0:0:0:70:D4H_s.wav
256,192,45749,1,8,0:0:0:70:E3H_s.wav
182,192,45924,1,2,0:0:0:70:C3H_s.wav
36,192,46098,1,2,0:0:0:70:C3H_s.wav
109,192,46098,1,2,0:0:0:70:C3H_s.wav
182,192,46447,1,2,0:0:0:70:E6H_s.wav
36,192,46447,1,2,0:0:0:70:G3H_s.wav
329,192,46447,1,8,0:0:0:70:E6H_s.wav
475,192,46447,1,8,0:0:0:70:E6H_s.wav
109,192,46621,1,2,0:0:0:70:C3H_s.wav
182,192,46796,1,2,0:0:0:70:G4H_s.wav
36,192,46796,1,2,0:0:0:70:C4H_s.wav
402,192,46796,1,8,0:0:0:70:F6H_s.wav
256,192,46796,1,2,0:0:0:70:F6H_s.wav
109,192,46970,1,2,0:0:0:70:C3H_s.wav
182,192,47145,1,2,0:0:0:70:E6H_s.wav
36,192,47145,1,2,0:0:0:70:G3H.wav
329,192,47145,1,2,0:0:0:70:E6H_s.wav
475,192,47145,1,8,0:0:0:70:E6H_s.wav
109,192,47319,1,2,0:0:0:70:C3H_s.wav
402,192,47319,1,8,0:0:0:70:F6H_s.wav
256,192,47319,1,2,0:0:0:70:F6H_s.wav
36,192,47493,1,2,0:0:0:70:C3H_s.wav
182,192,47493,1,2,0:0:0:70:C3H_s.wav
475,192,47668,1,10,0:0:0:70:E6H_s.wav
329,192,47668,1,8,0:0:0:70:E6H_s.wav
36,192,47842,1,2,0:0:0:70:G3H_s.wav
182,192,47842,1,2,0:0:0:70:G3H_s.wav
109,192,48017,1,2,0:0:0:70:C3H_s.wav
329,192,48017,1,8,0:0:0:70:C6H_s.wav
182,192,48017,1,2,0:0:0:70:C6H_s.wav
109,192,48191,1,2,0:0:0:70:C4H_s.wav
256,192,48191,1,2,0:0:0:70:F4H_s.wav
182,192,48365,1,2,0:0:0:70:E4H_s.wav
256,192,48540,1,2,0:0:0:70:C4H_s.wav
109,192,48540,1,2,0:0:0:70:G3H_s.wav
475,192,48540,1,8,0:0:0:70:C6H_s.wav
402,192,48540,1,2,0:0:0:70:C6H_s.wav
36,192,48714,1,2,0:0:0:70:C3H_s.wav
329,192,48889,1,2,0:0:0:70:G6H.wav
402,192,48889,1,8,0:0:0:70:G6H.wav
475,192,48889,1,8,0:0:0:70:G6H.wav
182,192,48889,1,2,0:0:0:70:C3H_s.wav
36,192,48889,1,2,0:0:0:70:D2H_s.wav
182,192,49063,1,2,0:0:0:70:D3H_s.wav
256,192,49238,1,2,0:0:0:70:G3H_s.wav
329,192,49412,1,8,0:0:0:70:F#6H_Gb6H.wav
475,192,49412,1,8,0:0:0:70:F#6H_Gb6H.wav
182,192,49412,1,2,0:0:0:70:D3H_s.wav
36,192,49412,1,2,0:0:0:70:D3H_s.wav
329,192,49586,1,8,0:0:0:70:F#6H_Gb6H.wav
256,192,49586,1,2,0:0:0:70:A4H_s.wav
475,192,49586,1,8,0:0:0:70:F#6H_Gb6H.wav
109,192,49586,1,2,0:0:0:70:D4H_s.wav
36,192,49761,1,2,0:0:0:70:D3H_s.wav
182,192,49935,1,2,0:0:0:70:A3H_s.wav
109,192,49935,1,2,0:0:0:70:A3H_s.wav
329,192,50110,1,8,0:0:0:70:D6H_s.wav
109,192,50110,1,2,0:0:0:70:D3H_s.wav
402,192,50284,1,8,0:0:0:70:A6H_s.wav
109,192,50284,1,2,0:0:0:70:E3H_s.wav
475,192,50458,1,8,0:0:0:70:G#6H_Ab6H_s.wav
256,192,50458,1,2,0:0:0:70:E3H_s.wav
182,192,50633,1,2,0:0:0:70:B3H_s.wav
402,192,50807,1,8,0:0:0:70:A6H_s.wav
36,192,50807,1,2,0:0:0:70:E3H_s.wav
182,192,50807,1,2,0:0:0:70:A6H_s.wav
109,192,50982,1,2,0:0:0:70:E3H_s.wav
256,192,50982,1,2,0:0:0:70:B4H_s.wav
329,192,51156,1,8,0:0:0:70:B6H_s.wav
475,192,51156,1,8,0:0:0:70:B6H_s.wav
182,192,51156,1,2,0:0:0:70:B3H_s.wav
36,192,51156,1,2,0:0:0:70:E3H_s.wav
329,192,51331,1,8,0:0:0:70:B6H_s.wav
475,192,51331,1,8,0:0:0:70:B6H_s.wav
182,192,51331,1,2,0:0:0:70:B3H_s.wav
36,192,51331,1,2,0:0:0:70:E3H_s.wav
182,192,51505,1,2,0:0:0:70:B3H_s.wav
36,192,51505,1,2,0:0:0:70:E3H_s.wav
329,192,51505,1,2,0:0:0:70:E3H_s.wav
475,192,51505,1,2,0:0:0:70:B3H_s.wav
182,192,51679,1,0,0:0:0:70:B3H_s.wav
36,192,51679,1,0,0:0:0:70:E3H_s.wav
329,192,51679,1,0,0:0:0:70:E4H_s.wav
475,192,51679,1,0,0:0:0:70:E4H_s.wav
402,192,51854,1,8,0:0:0:70:E6H_s.wav
36,192,51854,1,2,0:0:0:70:E3H_s.wav
182,192,51854,1,0,0:0:0:70:B3H_s.wav
475,192,51941,1,8,0:0:0:70:F6H_s.wav
256,192,51941,1,2,0:0:0:70:E4H_s.wav
402,192,52028,1,8,0:0:0:70:E6H_s.wav
36,192,52028,1,2,0:0:0:70:E3H_s.wav
182,192,52028,1,2,0:0:0:70:B3H_s.wav
256,192,52115,1,0,0:0:0:70:E4H_s.wav
329,192,52203,1,8,0:0:0:70:D6H_s.wav
36,192,52203,1,2,0:0:0:70:E3H_s.wav
182,192,52203,1,0,0:0:0:70:B3H_s.wav
256,192,52290,1,0,0:0:0:70:E4H_s.wav
402,192,52377,1,8,0:0:0:70:C6H_s.wav
36,192,52377,1,2,0:0:0:70:E3H_s.wav
182,192,52377,1,0,0:0:0:70:B3H_s.wav
256,192,52464,1,0,0:0:0:70:E4H_s.wav
475,192,52552,1,8,0:0:0:70:B5H_s.wav
36,192,52552,1,2,0:0:0:70:E3H_s.wav
182,192,52552,1,0,0:0:0:70:B3H_s.wav
256,192,52639,1,0,0:0:0:70:E4H_s.wav
329,192,52726,1,8,0:0:0:70:A6H_s.wav
109,192,52726,1,2,0:0:0:70:E3H_s.wav
475,192,52726,1,8,0:0:0:70:A6H_s.wav
329,192,52900,1,8,0:0:0:70:G#6H_Ab6H_s.wav
109,192,52900,1,2,0:0:0:70:E3H_s.wav
475,192,52900,1,8,0:0:0:70:G#6H_Ab6H_s.wav
475,192,54645,1,8,0:0:0:70:C8H_s.wav
475,192,54819,1,8,0:0:0:70:C8H_s.wav
475,192,54993,1,8,0:0:0:70:C8H_s.wav
475,192,55168,1,8,0:0:0:70:C8H_s.wav
402,192,55342,1,8,0:0:0:70:B7H_s.wav
329,192,55517,1,8,0:0:0:70:A7H_s.wav
475,192,55691,128,8,57174:0:0:0:70:C8H.wav
402,192,55865,1,8,0:0:0:70:A7H_s.wav
182,192,55865,128,2,56214:0:0:0:70:C6H.wav
329,192,55953,1,8,0:0:0:70:F7H_s.wav
256,192,56040,1,8,0:0:0:70:C7H_s.wav
329,192,56127,1,8,0:0:0:70:F7H_s.wav
402,192,56214,1,8,0:0:0:70:A7H_s.wav
36,192,56214,128,2,56563:0:0:0:70:F5H.wav
329,192,56301,1,8,0:0:0:70:F7H_s.wav
256,192,56389,1,8,0:0:0:70:C7H_s.wav
329,192,56476,1,8,0:0:0:70:F7H_s.wav
402,192,56563,1,8,0:0:0:70:A7H_s.wav
182,192,56563,128,2,56912:0:0:0:70:G6H.wav
329,192,56650,1,8,0:0:0:70:F7H_s.wav
256,192,56738,1,8,0:0:0:70:C7H_s.wav
329,192,56825,1,8,0:0:0:70:F7H_s.wav
402,192,56912,1,8,0:0:0:70:A7H_s.wav
36,192,56912,128,2,57261:0:0:0:70:F5H.wav
329,192,56999,1,8,0:0:0:70:F7H_s.wav
256,192,57086,1,8,0:0:0:70:C7H_s.wav
329,192,57174,1,8,0:0:0:70:F7H_s.wav
182,192,57261,128,2,57610:0:0:0:70:C6H.wav
329,192,57435,1,8,0:0:0:70:E7H_s.wav
329,192,57610,128,8,57784:0:0:0:70:E7H_s.wav
36,192,57610,128,2,57958:0:0:0:70:F5H.wav
329,192,57958,1,8,0:0:0:70:E7H_s.wav
182,192,57958,128,2,58307:0:0:0:70:G6H.wav
329,192,58133,1,8,0:0:0:70:E7H_s.wav
475,192,58307,1,8,0:0:0:70:C8H.wav
36,192,58307,128,2,58656:0:0:0:70:F5H.wav
402,192,58482,128,8,59354:0:0:0:70:B7H.wav
182,192,58656,128,2,59005:0:0:0:70:B5H.wav
475,192,58656,1,8,0:0:0:70:G7H_s.wav
329,192,58743,1,8,0:0:0:70:D7H_s.wav
256,192,58831,1,8,0:0:0:70:B6H_s.wav
329,192,58918,1,8,0:0:0:70:D7H_s.wav
36,192,59005,128,2,59354:0:0:0:70:G5H.wav
475,192,59005,1,8,0:0:0:70:G7H_s.wav
329,192,59092,1,8,0:0:0:70:D7H_s.wav
256,192,59179,1,8,0:0:0:70:B6H_s.wav
182,192,59267,1,8,0:0:0:70:D7H_s.wav
329,192,59354,128,8,60051:0:0:0:70:A7H.wav
109,192,59354,128,2,59703:0:0:0:70:G6H.wav
256,192,59354,1,8,0:0:0:70:D7H_s.wav
182,192,59441,1,8,0:0:0:70:D7H_s.wav
256,192,59528,1,8,0:0:0:70:B6H_s.wav
402,192,59615,1,8,0:0:0:70:G7H_s.wav
36,192,59703,128,2,60051:0:0:0:70:G5H.wav
256,192,59703,1,8,0:0:0:70:D7H_s.wav
182,192,59790,1,8,0:0:0:70:B6H_s.wav
256,192,59877,1,8,0:0:0:70:D7H_s.wav
402,192,59964,1,8,0:0:0:70:G7H_s.wav
109,192,60051,128,2,60400:0:0:0:70:B5H.wav
256,192,60051,128,8,60749:0:0:0:70:G7H.wav
36,192,60400,128,2,60749:0:0:0:70:G5H.wav
182,192,60749,128,2,61098:0:0:0:70:F7H.wav
109,192,60749,128,2,61098:0:0:0:70:G6H.wav
36,192,61098,128,2,61447:0:0:0:70:G5H.wav
475,192,61447,128,0,61970:0:0:0:70:G7H.wav
109,192,61447,128,2,61796:0:0:0:70:B5H.wav
329,192,61447,1,8,0:0:0:70:E7H_s.wav
256,192,61534,1,8,0:0:0:70:B6H_s.wav
182,192,61621,1,8,0:0:0:70:G6H_s.wav
256,192,61708,1,8,0:0:0:70:B6H_s.wav
36,192,61796,128,2,62145:0:0:0:70:E5H.wav
329,192,61796,1,8,0:0:0:70:E7H_s.wav
256,192,61883,1,8,0:0:0:70:B6H_s.wav
182,192,61970,1,8,0:0:0:70:G6H_s.wav
402,192,62057,1,8,0:0:0:70:B7H_s.wav
109,192,62145,128,2,62493:0:0:0:70:G6H.wav
329,192,62145,1,8,0:0:0:70:G7H_s.wav
256,192,62232,1,8,0:0:0:70:E7H_s.wav
329,192,62319,1,8,0:0:0:70:G7H_s.wav
402,192,62406,1,8,0:0:0:70:B7H_s.wav
36,192,62493,128,2,62842:0:0:0:70:E5H.wav
329,192,62493,1,8,0:0:0:70:G7H_s.wav
256,192,62581,1,8,0:0:0:70:E7H_s.wav
329,192,62668,1,8,0:0:0:70:G7H_s.wav
182,192,62755,1,8,0:0:0:70:E7H_s.wav
109,192,62842,128,2,63191:0:0:0:70:B5H.wav
402,192,62842,128,8,63191:0:0:0:70:G7H.wav
36,192,63191,128,2,63540:0:0:0:70:E5H.wav
109,192,63540,128,2,63889:0:0:0:70:G6H.wav
475,192,63540,128,8,63889:0:0:0:70:D8H.wav
36,192,63889,128,2,64238:0:0:0:70:E5H.wav
109,192,64238,128,2,64586:0:0:0:70:C6H.wav
475,192,64238,1,8,0:0:0:70:E8H_s.wav
402,192,64412,1,0,0:0:0:70:D8H_s.wav
329,192,64499,1,8,0:0:0:70:A7H_s.wav
36,192,64586,128,2,64935:0:0:0:70:A5H.wav
256,192,64586,1,8,0:0:0:70:E7H_s.wav
329,192,64674,1,0,0:0:0:70:A7H_s.wav
402,192,64761,1,0,0:0:0:70:C8H_s.wav
329,192,64848,1,0,0:0:0:70:A7H_s.wav
109,192,64935,128,2,65284:0:0:0:70:G6H.wav
182,192,64935,1,0,0:0:0:70:E7H_s.wav
475,192,64935,1,0,0:0:0:70:E7H_s.wav
256,192,65022,1,0,0:0:0:70:A7H_s.wav
329,192,65110,1,0,0:0:0:70:C8H_s.wav
256,192,65197,1,0,0:0:0:70:A7H_s.wav
36,192,65284,128,2,65458:0:0:0:70:A5H.wav
329,192,65284,1,8,0:0:0:70:E7H_s.wav
182,192,65284,1,0,0:0:0:70:E7H_s.wav
402,192,65371,1,8,0:0:0:70:A7H_s.wav
475,192,65458,1,8,0:0:0:70:C8H_s.wav
329,192,65633,1,8,0:0:0:70:C6H_s.wav
329,192,65807,1,8,0:0:0:70:C6H_s.wav
329,192,65982,128,8,66156:0:0:0:70:C6H_s.wav
329,192,66331,1,2,0:0:0:70:C6H_s.wav
109,192,66331,1,2,0:0:0:70:E3H_s.wav
256,192,66505,1,2,0:0:0:70:B5H_s.wav
36,192,66505,1,2,0:0:0:70:F3H_s.wav
182,192,66679,1,2,0:0:0:70:E3H_s.wav
402,192,66679,1,2,0:0:0:70:A5H_s.wav
109,192,66854,1,2,0:0:0:70:E3H_s.wav
329,192,66854,1,2,0:0:0:70:C6H_s.wav
475,192,67028,128,8,67377:0:0:0:70:E7H.wav
36,192,67028,1,2,0:0:0:70:F3H_s.wav
36,192,67203,1,2,0:0:0:70:F3H_s.wav
402,192,67377,128,8,67726:0:0:0:70:C7H.wav
182,192,67377,1,2,0:0:0:70:C4H_s.wav
256,192,67377,1,2,0:0:0:70:E4H_s.wav
329,192,67377,1,2,0:0:0:70:G4H_s.wav
36,192,67551,1,2,0:0:0:70:F3H_s.wav
475,192,67726,128,8,68075:0:0:0:70:E7H.wav
182,192,67726,1,2,0:0:0:70:C4H_s.wav
256,192,67726,1,2,0:0:0:70:E4H_s.wav
329,192,67726,1,2,0:0:0:70:G4H_s.wav
36,192,67900,1,2,0:0:0:70:F3H_s.wav
402,192,68075,128,8,68424:0:0:0:70:C7H.wav
182,192,68075,1,2,0:0:0:70:C4H_s.wav
256,192,68075,1,2,0:0:0:70:E4H_s.wav
329,192,68075,1,2,0:0:0:70:G4H_s.wav
36,192,68249,1,2,0:0:0:70:F3H_s.wav
475,192,68424,128,8,68772:0:0:0:70:E7H.wav
36,192,68424,1,2,0:0:0:70:F3H_s.wav
36,192,68598,1,2,0:0:0:70:F3H_s.wav
256,192,68598,1,2,0:0:0:70:E5H_s.wav
402,192,68772,128,8,69034:0:0:0:70:C7H.wav
182,192,68772,1,2,0:0:0:70:E5H_s.wav
109,192,68772,1,2,0:0:0:70:F3H_s.wav
36,192,68947,1,2,0:0:0:70:F3H_s.wav
256,192,68947,1,2,0:0:0:70:E5H_s.wav
182,192,68947,1,2,0:0:0:70:E5H_s.wav
182,192,69121,1,2,0:0:0:70:E5H_s.wav
109,192,69121,1,2,0:0:0:70:F3H_s.wav
256,192,69296,1,2,0:0:0:70:E5H_s.wav
182,192,69296,1,2,0:0:0:70:F3H_s.wav
329,192,69470,1,8,0:0:0:70:C4H_s.wav
475,192,69470,1,8,0:0:0:70:C6H_s.wav
256,192,69645,128,8,70517:0:0:0:70:B5H.wav
36,192,69645,1,2,0:0:0:70:F3H_s.wav
109,192,69819,1,2,0:0:0:70:G3H.wav
109,192,69993,1,2,0:0:0:70:G3H.wav
36,192,70168,1,2,0:0:0:70:B3H_s.wav
182,192,70168,1,2,0:0:0:70:G4H_s.wav
36,192,70342,1,2,0:0:0:70:F3H_s.wav
329,192,70517,128,8,70953:0:0:0:70:A5H.wav
36,192,70517,1,2,0:0:0:70:B3H_s.wav
182,192,70517,1,2,0:0:0:70:G4H_s.wav
36,192,70691,1,2,0:0:0:70:F3H_s.wav
36,192,70865,1,2,0:0:0:70:B3H_s.wav
182,192,70865,1,2,0:0:0:70:G4H_s.wav
36,192,71040,1,2,0:0:0:70:F3H_s.wav
475,192,71040,1,8,0:0:0:70:C7H_s.wav
402,192,71127,1,8,0:0:0:70:B6H_s.wav
256,192,71214,128,8,71912:0:0:0:70:G5H.wav
36,192,71214,1,2,0:0:0:70:B3H_s.wav
182,192,71214,1,2,0:0:0:70:G4H_s.wav
329,192,71214,1,8,0:0:0:70:A6H_s.wav
36,192,71389,1,2,0:0:0:70:F3H_s.wav
36,192,71563,1,2,0:0:0:70:B3H_s.wav
182,192,71563,1,2,0:0:0:70:G4H_s.wav
36,192,71738,1,2,0:0:0:70:F3H_s.wav
329,192,71912,128,8,72610:0:0:0:70:F5H.wav
36,192,71912,1,2,0:0:0:70:B3H_s.wav
182,192,71912,1,2,0:0:0:70:G4H_s.wav
36,192,72086,1,2,0:0:0:70:F3H_s.wav
36,192,72261,1,2,0:0:0:70:B3H_s.wav
182,192,72261,1,2,0:0:0:70:G4H.wav
256,192,72610,128,8,73307:0:0:0:70:G5H.wav
36,192,72610,1,2,0:0:0:70:E3H_s.wav
402,192,72610,128,0,73307:0:0:0:70:B5H.wav
36,192,72784,1,2,0:0:0:70:E3H_s.wav
36,192,72958,1,2,0:0:0:70:B3H_s.wav
182,192,72958,1,2,0:0:0:70:G4H_s.wav
36,192,73133,1,2,0:0:0:70:E3H_s.wav
329,192,73307,128,8,74005:0:0:0:70:D6H.wav
36,192,73307,1,2,0:0:0:70:B3H_s.wav
182,192,73307,1,2,0:0:0:70:G4H_s.wav
475,192,73307,128,0,74005:0:0:0:70:G6H.wav
36,192,73482,1,2,0:0:0:70:E3H_s.wav
36,192,73656,1,2,0:0:0:70:B3H_s.wav
182,192,73656,1,2,0:0:0:70:G4H_s.wav
36,192,73831,1,2,0:0:0:70:E3H_s.wav
256,192,74005,128,8,74703:0:0:0:70:G5H.wav
36,192,74005,1,2,0:0:0:70:B3H_s.wav
182,192,74005,1,2,0:0:0:70:G4H_s.wav
402,192,74005,128,0,74703:0:0:0:70:E6H.wav
36,192,74179,1,2,0:0:0:70:E3H_s.wav
36,192,74354,1,2,0:0:0:70:B3H_s.wav
182,192,74354,1,2,0:0:0:70:G4H_s.wav
36,192,74528,1,2,0:0:0:70:E3H_s.wav
329,192,74703,128,8,75051:0:0:0:70:D6H.wav
36,192,74703,1,2,0:0:0:70:B3H_s.wav
182,192,74703,1,2,0:0:0:70:G4H_s.wav
36,192,74877,1,2,0:0:0:70:E3H_s.wav
182,192,75051,1,2,0:0:0:70:G4H_s.wav
36,192,75051,1,2,0:0:0:70:B3H_s.wav
36,192,75226,1,2,0:0:0:70:E3H_s.wav
109,192,75400,1,2,0:0:0:70:A3H_s.wav
329,192,75400,1,0,0:0:0:70:E6H_s.wav
475,192,75400,1,2,0:0:0:70:C7H_s.wav
109,192,75575,1,2,0:0:0:70:A3H_s.wav
256,192,75575,1,2,0:0:0:70:D6H_s.wav
402,192,75575,1,2,0:0:0:70:B6H_s.wav
36,192,75749,1,2,0:0:0:70:C4H_s.wav
182,192,75749,1,2,0:0:0:70:E4H_s.wav
36,192,75924,1,2,0:0:0:70:A3H_s.wav
329,192,75924,1,2,0:0:0:70:C6H_s.wav
475,192,75924,1,2,0:0:0:70:A6H_s.wav
36,192,76098,1,2,0:0:0:70:C4H_s.wav
182,192,76098,1,2,0:0:0:70:E4H_s.wav
36,192,76272,1,2,0:0:0:70:A3H_s.wav
402,192,76272,1,2,0:0:0:70:G6H_s.wav
256,192,76272,1,2,0:0:0:70:B5H_s.wav
36,192,76447,1,2,0:0:0:70:C4H_s.wav
182,192,76447,1,2,0:0:0:70:E4H_s.wav
36,192,76621,1,2,0:0:0:70:A3H_s.wav
402,192,76621,1,2,0:0:0:70:A6H_s.wav
256,192,76621,1,2,0:0:0:70:C6H_s.wav
36,192,76796,1,2,0:0:0:70:A3H_s.wav
475,192,76796,1,8,0:0:0:70:E7H_s.wav
329,192,76796,1,8,0:0:0:70:E7H_s.wav
36,192,76970,1,2,0:0:0:70:A3H_s.wav
402,192,76970,1,8,0:0:0:70:D7H_s.wav
256,192,76970,1,8,0:0:0:70:D7H_s.wav
36,192,77145,1,2,0:0:0:70:C4H_s.wav
182,192,77145,1,8,0:0:0:70:E4H_s.wav
36,192,77319,1,2,0:0:0:70:C4H_s.wav
402,192,77319,1,8,0:0:0:70:C7H_s.wav
256,192,77319,1,8,0:0:0:70:C7H_s.wav
182,192,77493,1,2,0:0:0:70:E4H_s.wav
329,192,77493,1,0,0:0:0:70:A4H_s.wav
36,192,77581,1,2,0:0:0:70:A3H_s.wav
182,192,77668,1,2,0:0:0:70:E4H_s.wav
329,192,77668,1,0,0:0:0:70:A4H_s.wav
36,192,77755,1,2,0:0:0:70:A3H_s.wav
182,192,77842,1,2,0:0:0:70:E4H_s.wav
329,192,77842,1,0,0:0:0:70:A4H_s.wav
36,192,77929,1,2,0:0:0:70:A3H_s.wav
182,192,78017,1,2,0:0:0:70:E4H_s.wav
475,192,78017,1,8,0:0:0:70:A6H_s.wav
329,192,78017,1,0,0:0:0:70:A4H_s.wav
36,192,78104,1,2,0:0:0:70:A3H_s.wav
182,192,78191,1,2,0:0:0:70:E4H_s.wav
402,192,78191,1,8,0:0:0:70:C7H_s.wav
36,192,78365,1,2,0:0:0:70:C4H_s.wav
109,192,78540,1,2,0:0:0:70:C4H_s.wav
402,192,78540,1,8,0:0:0:70:C7H_s.wav
256,192,78540,1,2,0:0:0:70:C7H_s.wav
36,192,78714,1,2,0:0:0:70:F3H_s.wav
402,192,78714,1,8,0:0:0:70:C7H_s.wav
256,192,78714,1,2,0:0:0:70:E6H_s.wav
109,192,78889,1,2,0:0:0:70:C4H_s.wav
36,192,79063,1,2,0:0:0:70:C4H_s.wav
329,192,79063,1,8,0:0:0:70:B6H_s.wav
475,192,79063,1,8,0:0:0:70:B6H_s.wav
109,192,79238,1,2,0:0:0:70:F4H_s.wav
36,192,79412,1,2,0:0:0:70:C4H_s.wav
256,192,79412,1,2,0:0:0:70:E6H_s.wav
402,192,79412,1,8,0:0:0:70:A6H_s.wav
109,192,79586,1,2,0:0:0:70:F3H_s.wav
36,192,79761,1,2,0:0:0:70:C4H_s.wav
402,192,79761,1,8,0:0:0:70:E7H_s.wav
256,192,79761,1,2,0:0:0:70:E7H_s.wav
109,192,79935,1,2,0:0:0:70:F3H_s.wav
36,192,80110,1,2,0:0:0:70:C4H_s.wav
402,192,80110,1,8,0:0:0:70:E7H_s.wav
182,192,80110,1,2,0:0:0:70:C6H_s.wav
109,192,80284,1,2,0:0:0:70:F4H_s.wav
256,192,80284,1,2,0:0:0:70:D6H_s.wav
36,192,80458,1,2,0:0:0:70:C4H_s.wav
182,192,80458,1,2,0:0:0:70:C6H_s.wav
109,192,80633,1,2,0:0:0:70:F4H_s.wav
256,192,80633,1,2,0:0:0:70:B5H_s.wav
402,192,80633,1,8,0:0:0:70:A6H_s.wav
36,192,80807,1,2,0:0:0:70:C4H_s.wav
182,192,80807,1,2,0:0:0:70:A5H_s.wav
109,192,80982,1,2,0:0:0:70:G3H_s.wav
402,192,80982,1,2,0:0:0:70:B5H_s.wav
36,192,80982,1,2,0:0:0:70:G2H_s.wav
475,192,80982,1,8,0:0:0:70:C7H_s.wav
182,192,81156,1,2,0:0:0:70:D4H_s.wav
109,192,81331,1,2,0:0:0:70:G4H_s.wav
402,192,81331,1,8,0:0:0:70:C7H_s.wav
182,192,81505,1,2,0:0:0:70:D4H_s.wav
475,192,81505,1,8,0:0:0:70:C7H_s.wav
109,192,81679,1,2,0:0:0:70:G3H.wav
182,192,81854,1,2,0:0:0:70:D4H_s.wav
402,192,81854,1,8,0:0:0:70:B6H_s.wav
109,192,82028,1,2,0:0:0:70:F2H_s.wav
182,192,82203,1,2,0:0:0:70:D4H_s.wav
329,192,82203,1,2,0:0:0:70:D6H_s.wav
475,192,82203,1,8,0:0:0:70:A6H_s.wav
109,192,82377,1,2,0:0:0:70:G3H_s.wav
402,192,82551,1,8,0:0:0:70:E7H_s.wav
182,192,82551,1,2,0:0:0:70:D4H_s.wav
109,192,82726,1,2,0:0:0:70:G3H_s.wav
182,192,82900,1,2,0:0:0:70:D4H_s.wav
402,192,82900,1,8,0:0:0:70:E7H_s.wav
109,192,83075,1,2,0:0:0:70:G4H_s.wav
256,192,83075,1,0,0:0:0:70:D6H_s.wav
182,192,83249,1,2,0:0:0:70:D4H_s.wav
329,192,83249,1,8,0:0:0:70:B6H_s.wav
256,192,83424,1,2,0:0:0:70:B6H_s.wav
182,192,83598,1,2,0:0:0:70:A3H_s.wav
402,192,83598,1,8,0:0:0:70:C7H_s.wav
109,192,83772,1,2,0:0:0:70:A3H_s.wav
329,192,83772,1,8,0:0:0:70:B6H_s.wav
182,192,83947,1,2,0:0:0:70:A3H_s.wav
36,192,83947,1,2,0:0:0:70:A3H_s.wav
109,192,84121,1,2,0:0:0:70:E4H_s.wav
36,192,84296,1,2,0:0:0:70:A3H_s.wav
182,192,84296,1,2,0:0:0:70:A3H_s.wav
109,192,84470,1,2,0:0:0:70:E4H_s.wav
36,192,84645,1,2,0:0:0:70:A3H_s.wav
182,192,84645,1,2,0:0:0:70:A3H_s.wav
109,192,84819,1,2,0:0:0:70:E4H_s.wav
36,192,84993,1,2,0:0:0:70:A3H_s.wav
182,192,84993,1,2,0:0:0:70:A3H_s.wav
109,192,85168,1,2,0:0:0:70:E4H_s.wav
36,192,85342,1,2,0:0:0:70:A3H_s.wav
182,192,85342,1,2,0:0:0:70:A3H_s.wav
109,192,85517,1,2,0:0:0:70:E4H_s.wav
329,192,85517,1,8,0:0:0:70:A6H_s.wav
36,192,85691,1,2,0:0:0:70:A3H_s.wav
182,192,85691,1,2,0:0:0:70:A3H_s.wav
109,192,85865,1,2,0:0:0:70:E4H_s.wav
402,192,85865,1,8,0:0:0:70:E7H_s.wav
36,192,86040,1,2,0:0:0:70:A3H_s.wav
182,192,86040,1,2,0:0:0:70:A3H_s.wav
109,192,86214,1,2,0:0:0:70:E4H_s.wav
329,192,86214,1,8,0:0:0:70:A6H_s.wav
402,192,86214,1,8,0:0:0:70:C#7H_Db7H_s.wav
475,192,86214,1,8,0:0:0:70:C#7H_Db7H_s.wav
36,192,86389,1,2,0:0:0:70:A3H_s.wav
182,192,86389,1,2,0:0:0:70:A3H_s.wav
109,192,86563,1,2,0:0:0:70:A3H_s.wav
109,192,86738,1,2,0:0:0:70:A3H_s.wav
109,192,86912,1,2,0:0:0:70:A3H_s.wav
109,192,87086,1,2,0:0:0:70:A3H_s.wav
256,192,87086,1,8,0:0:0:70:C#6H_Db6H_s.wav
109,192,87261,1,2,0:0:0:70:A3H_s.wav
109,192,87435,1,2,0:0:0:70:A3H_s.wav
109,192,87610,1,2,0:0:0:70:A3H_s.wav
256,192,87610,1,8,0:0:0:70:C#6H_Db6H_s.wav
109,192,87784,1,2,0:0:0:70:A3H_s.wav
182,192,87958,1,2,0:0:0:70:A3H_s.wav
36,192,87958,1,2,0:0:0:70:A2H_s.wav
109,192,88133,1,2,0:0:0:70:A3H_s.wav
256,192,88133,1,8,0:0:0:70:C#6H_Db6H_s.wav
109,192,88307,1,2,0:0:0:70:A2H_s.wav
182,192,88307,1,2,0:0:0:70:A3H_s.wav
36,192,88307,1,2,0:0:0:70:A2H_s.wav
329,192,88307,1,8,0:0:0:70:E6H_s.wav
36,192,88482,1,2,0:0:0:70:A2H_s.wav
109,192,88482,1,2,0:0:0:70:A2H_s.wav
182,192,88482,1,2,0:0:0:70:A3H_s.wav
402,192,88482,1,8,0:0:0:70:A6H_s.wav
36,192,88656,1,2,0:0:0:70:A2H_s.wav
109,192,88656,1,2,0:0:0:70:A2H_s.wav
182,192,88656,1,2,0:0:0:70:A3H_s.wav
475,192,88656,1,8,0:0:0:70:C#7H_Db7H_s.wav
36,192,88831,1,2,0:0:0:70:A2H_s.wav
109,192,88831,1,2,0:0:0:70:A2H_s.wav
182,192,88831,1,2,0:0:0:70:A3H_s.wav
402,192,88831,1,8,0:0:0:70:E7H_s.wav
36,192,89005,1,4,0:0:0:70:A2H_s.wav
109,192,89005,1,4,0:0:0:70:A2H_s.wav
182,192,89005,1,4,0:0:0:70:A3H_s.wav
329,192,89005,1,8,0:0:0:70:A7H_s.wav
36,192,89179,1,4,0:0:0:70:A2H_s.wav
109,192,89179,1,4,0:0:0:70:A2H_s.wav
182,192,89179,1,4,0:0:0:70:A3H_s.wav
475,192,89179,1,4,0:0:0:70:C#8H_Db8H_s.wav
402,192,89179,1,4,0:0:0:70:C#8H_Db8H_s.wav
329,192,89179,1,4,0:0:0:70:C#8H_Db8H_s.wav
