osu file format v14

[General]
AudioFilename: audio.mp3
AudioLeadIn: 0
PreviewTime: 202413
Countdown: 0
SampleSet: Soft
StackLeniency: 0.9
Mode: 0
LetterboxInBreaks: 0
WidescreenStoryboard: 1

[Editor]
DistanceSpacing: 0.7
BeatDivisor: 4
GridSize: 32
TimelineZoom: 2

[Metadata]
Title:I will...
TitleUnicode:I will...
Artist:Aoi Eir
ArtistUnicode:藍井エイル
Creator:iljaaz
Version:Yudragen's Extra
Source:ソードアート・オンライン アリシゼーション War of Underworld
Tags:soop so0p Kowari haruto_aizawa Haruto Yudragen ChaoticRed Sword Art Online SAO alicization 3rd season eugeo shino asada sinon shinon ED ending full ver version japanese anime kudosu pop
BeatmapID:2537860
BeatmapSetID:1219927

[Difficulty]
HPDrainRate:6
CircleSize:4.3
OverallDifficulty:8
ApproachRate:9.1
SliderMultiplier:1.74
SliderTickRate:1

[Events]
//Background and Video events
0,0,"chaoticeugeo.jpg",0,0
//Break Periods
//Storyboard Layer 0 (Background)
//Storyboard Layer 1 (Fail)
//Storyboard Layer 2 (Pass)
//Storyboard Layer 3 (Foreground)
//Storyboard Layer 4 (Overlay)
//Storyboard Sound Samples

[TimingPoints]
283,340.909090909091,4,2,1,40,1,0
340,340.909090909091,4,2,1,40,1,0
340,-166.666666666667,4,2,1,40,0,0
4430,-250.000000000001,4,2,1,40,0,0
5112,-142.857142857143,4,2,1,40,0,0
5794,-125,4,2,1,55,0,0
11249,-500.000000000003,4,2,1,40,0,0
20709,-100,4,2,1,40,0,0
22174,340.909090909091,4,2,1,60,1,0
22174,-111.111111111111,4,2,1,60,0,0
23026,315.789473684211,4,2,1,60,1,0
23026,-111.111111111111,4,2,1,60,0,0
23341,340.909090909091,4,2,1,60,1,0
23341,-111.111111111111,4,2,1,60,0,0
23671,340.909090909091,4,2,1,60,1,0
23671,-111.111111111111,4,2,1,60,0,0
24374,340.909090909091,4,2,1,60,1,0
24374,-111.111111111111,4,2,1,60,0,0
24885,340.909090909091,4,2,1,60,1,0
24885,-111.111111111111,4,2,1,60,0,0
31020,326.086956521739,4,2,1,60,1,0
31020,-111.111111111111,4,2,1,60,0,0
31531,329.67032967033,4,2,1,60,1,0
31531,-111.111111111111,4,2,1,60,0,0
31871,340.909090909091,4,2,1,60,1,0
32211,337.078651685393,4,2,1,60,1,0
33068,340.909090909091,4,2,1,60,1,0
33408,-142.857142857143,4,2,1,50,0,0
42269,368.098159509202,4,2,1,50,1,0
42613,340.909090909091,4,2,1,50,1,0
42613,-142.857142857143,4,2,1,50,0,0
47726,-142.857142857143,4,2,1,60,0,0
48067,-100,4,2,1,60,0,0
50794,-76.9230769230769,4,2,1,60,0,0
51476,340.909090909091,4,2,4,75,1,1
51476,-80,4,2,4,75,0,1
51561,-80,4,2,1,75,0,1
51970,340.909090909091,4,2,1,75,1,1
51970,-80,4,2,1,75,0,1
53522,340.909090909091,4,2,1,75,1,1
53522,-80,4,2,1,75,0,1
54203,340.909090909091,4,2,1,75,1,1
54203,-80,4,2,1,75,0,1
62384,-90.9090909090909,4,2,1,65,0,0
70566,-83.3333333333333,4,2,1,65,0,0
73293,-111.111111111111,4,2,1,50,0,0
75680,-333.333333333333,4,2,1,50,0,0
76021,-142.857142857143,4,2,1,50,0,0
81475,-90.9090909090909,4,2,1,65,0,0
83882,340.909090909091,4,2,1,65,1,0
83882,-90.9090909090909,4,2,1,65,0,0
84222,340.909090909091,4,2,1,60,1,0
84222,-117.647058823529,4,2,1,60,0,0
85064,340.909090909091,4,2,1,60,1,0
85064,-117.647058823529,4,2,1,60,0,0
85926,340.909090909091,4,2,1,60,1,0
85926,-117.647058823529,4,2,1,60,0,0
86948,340.909090909091,4,2,1,60,1,0
86948,-117.647058823529,4,2,1,60,0,0
94430,319.148936170213,4,2,1,60,1,0
94601,340.909090909091,4,2,1,60,1,0
95112,340.909090909091,4,2,1,60,1,0
95112,-117.647058823529,4,2,1,60,0,0
106021,-142.857142857143,4,2,1,50,0,0
107214,-100,4,2,1,50,0,0
107725,-142.857142857143,4,2,1,50,0,0
110112,-100,4,2,1,50,0,0
111475,-142.857142857143,4,2,1,50,0,0
112668,-100,4,2,1,50,0,0
113350,-142.857142857143,4,2,1,50,0,0
113862,-100,4,2,1,50,0,0
114202,-111.111111111111,4,2,1,60,0,0
114533,340.909090909091,4,2,1,60,1,0
115566,340.909090909091,4,2,1,50,1,0
115566,-111.111111111111,4,2,1,50,0,0
116929,-95.2380952380952,4,2,1,60,0,0
122384,-117.647058823529,4,2,1,60,0,0
126134,324.324324324324,4,2,1,60,1,0
126134,-117.647058823529,4,2,1,60,0,0
126475,340.909090909091,4,2,1,60,1,0
126475,-100,4,2,1,60,0,0
128019,315.789473684211,4,2,1,60,1,0
128335,340.909090909091,4,2,1,60,1,0
128505,-100,4,2,1,65,0,0
129203,340.909090909091,4,2,4,75,1,1
129203,-80,4,2,4,75,0,1
129288,-80,4,2,1,75,0,1
140112,-105.263157894737,4,2,1,50,0,0
145566,-105.263157894737,4,2,1,65,0,0
146930,-90.9090909090909,4,2,1,65,0,0
149657,-90.9090909090909,4,2,1,65,0,0
151021,-80,4,2,4,75,0,1
151106,-80,4,2,1,75,0,1
161238,319.148936170213,4,2,1,75,1,1
161238,-74.0740740740741,4,2,1,75,0,1
161589,340.909090909091,4,2,1,75,1,1
161920,340.909090909091,4,2,1,65,1,1
161920,-90.9090909090909,4,2,1,65,0,0
163295,340.909090909091,4,2,1,65,1,0
163964,326.086956521739,4,2,1,65,1,0
163964,-90.9090909090909,4,2,1,65,0,0
164648,340.909090909091,4,2,1,65,1,0
164648,-90.9090909090909,4,2,1,65,0,0
170102,-83.3333333333333,4,2,1,65,0,0
172829,-76.9230769230769,4,2,1,70,0,0
175557,-90.9090909090909,4,2,4,60,0,0
175642,-90.9090909090909,4,2,1,60,0,0
197383,337.078651685393,4,2,1,60,1,0
198748,346.820809248555,4,2,1,50,1,0
198748,-1000,4,2,1,50,0,0
202498,340.909090909091,4,2,1,40,1,0
202498,-1000,4,2,1,40,0,0
202840,340.909090909091,4,2,1,40,1,0
202840,-250,4,2,1,40,0,0
207953,-200,4,2,1,40,0,0
212385,-200,4,2,1,50,0,0
212896,-117.647058823529,4,2,1,50,0,0
213749,-105.263157894737,4,2,1,55,0,0
221078,-105.263157894737,4,2,1,65,0,0
221249,-95.2380952380954,4,2,1,65,0,0
221590,-86.9565217391304,4,2,1,65,0,0
221930,-83.3333333333333,4,2,1,65,0,0
223292,329.67032967033,4,2,1,65,1,0
223292,-83.3333333333333,4,2,1,65,0,0
223539,-76.9230769230769,4,2,1,65,0,0
223786,-62.5,4,2,1,65,0,0
223994,340.909090909091,4,2,1,65,1,0
224658,340.909090909091,4,2,4,75,1,1
224658,-80,4,2,4,75,0,1
224743,-80,4,2,1,75,0,1
225510,304.568527918782,4,2,1,75,1,1
225510,-80,4,2,1,75,0,1
225676,333.333333333333,4,2,1,75,1,1
226022,340.909090909091,4,2,1,75,1,1
226022,-80,4,2,1,75,0,1
228919,329.67032967033,4,2,1,75,1,1
229431,340.909090909091,4,2,1,75,1,1
229431,-80,4,2,1,75,0,1
230112,340.909090909091,4,2,1,75,1,1
230112,-80,4,2,1,75,0,1
230933,340.909090909091,4,2,1,75,1,1
230933,-80,4,2,1,75,0,1
232157,340.909090909091,4,2,1,75,1,1
232157,-80,4,2,1,75,0,1
232838,340.909090909091,4,2,1,75,1,1
232838,-80,4,2,1,75,0,1
235565,-90.9090909090909,4,2,1,65,0,0
240679,327.868852459016,4,2,1,65,1,0
241020,340.909090909091,4,2,1,65,1,0
241020,-90.9090909090909,4,2,1,65,0,0
245793,331.491712707182,4,2,1,65,1,0
246475,340.909090909091,4,2,4,70,1,0
246475,-83.3333333333333,4,2,4,70,0,0
246560,-83.3333333333333,4,2,1,70,0,0
247147,340.909090909091,4,2,1,70,1,0
247147,-83.3333333333333,4,2,1,70,0,0
248169,340.909090909091,4,2,1,70,1,0
248169,-83.3333333333333,4,2,1,70,0,0
249203,340.909090909091,4,2,1,70,1,0
249203,-83.3333333333333,4,2,1,70,0,0
254898,340.909090909091,4,2,1,70,1,0
254898,-83.3333333333333,4,2,1,70,0,0
255168,340.909090909091,4,2,1,70,1,0
255168,-83.3333333333333,4,2,1,70,0,0
256020,340.909090909091,4,2,1,70,1,0
256020,-83.3333333333333,4,2,1,70,0,0
257383,-74.0740740740741,4,2,4,70,0,0
257468,-74.0740740740741,4,2,1,70,0,0
258066,363.636363636364,4,2,1,70,1,0
258407,340.909090909091,4,2,1,70,1,0
258407,-74.0740740740741,4,2,1,70,0,0
258747,340.909090909091,4,2,1,70,1,0
258747,-74.0740740740741,4,2,1,70,0,0
265565,375,4,2,1,70,1,0
265565,-68.9655172413793,4,2,1,70,0,0
265940,273.972602739726,4,2,1,70,1,0
265940,-68.9655172413793,4,2,1,70,0,0
266076,329.67032967033,4,2,1,70,1,0
266076,-68.9655172413793,4,2,1,70,0,0
266587,340.909090909091,4,2,1,70,1,0
266587,-68.9655172413793,4,2,1,70,0,0

[Colours]
Combo1 : 248,209,107
Combo2 : 146,211,231
Combo3 : 70,131,221
Combo4 : 245,245,88

[HitObjects]
110,163,340,6,0,P|100:146|112:114,1,52.3391984069825,2|0,0:0|0:0,0:0:0:0:
109,116,680,1,0,0:0:0:0:
189,188,851,2,0,P|204:244|225:308,1,104.399996813965,2|0,0:0|0:0,0:0:0:0:
186,362,1362,1,2,0:0:0:0:
186,362,2271,5,2,0:0:0:0:
190,368,2385,1,2,0:0:0:0:
263,339,2555,1,0,0:0:0:0:
332,287,2726,69,2,0:0:0:0:
430,334,2896,1,0,0:0:0:0:
486,229,3067,6,0,L|500:156,1,52.1999984069825,2|0,0:0|0:0,0:0:0:0:
495,177,3408,1,0,0:0:0:0:
428,125,3578,2,0,P|392:142|315:166,1,104.678396813965,2|0,0:0|0:0,0:0:0:0:
271,216,4090,1,2,0:0:0:0:
43,83,4430,6,0,P|83:74|139:141,1,121.92064,2|0,0:0|0:0,0:0:0:0:
196,163,5112,6,0,P|123:158|80:284,1,213.361113495178,2|0,0:0|3:0,0:0:0:0:
80,279,5794,6,0,P|155:298|226:315,1,139.5712,2|0,0:0|0:0,0:0:0:0:
260,379,6305,2,0,B|342:330|283:324|359:273,1,139.5712,2|2,0:0|0:3,0:0:0:0:
388,359,6817,2,0,P|501:339|419:161,1,348.11136,2|0,0:0|0:0,0:0:0:0:
394,119,7840,5,2,0:0:0:0:
329,150,8010,1,2,0:3:0:0:
250,94,8180,69,2,0:2:0:0:
149,49,8351,1,0,0:3:0:0:
77,178,8521,6,0,P|56:255|39:316,1,139.5712,2|0,0:0|0:0,0:0:0:0:
121,317,9033,2,0,P|171:309|216:381,1,139.5712,2|2,0:0|0:3,0:0:0:0:
295,342,9544,2,0,B|349:321|378:258|323:206|287:212|279:213|272:214|238:205|198:136|236:95|297:72,1,348.11136,2|0,0:0|0:0,0:0:0:0:
282,78,11249,5,2,0:0:0:0:
282,78,11419,2,0,L|208:100,1,69.68352
161,135,12271,2,0,L|137:128,1,17.4464,2|2,0:0|0:0,0:0:0:0:
54,189,12612,6,0,L|67:227,1,34.8928,2|0,0:0|0:0,0:0:0:0:
122,264,13124,2,0,L|192:289,1,69.68352,2|0,0:0|0:0,0:0:0:0:
279,356,13976,5,2,0:0:0:0:
340,317,14146,1,0,0:0:0:0:
295,258,14317,1,0,0:0:0:0:
295,258,14487,2,0,L|283:221,1,34.8928
323,160,14999,2,0,L|327:140,1,17.4464,2|2,0:0|0:0,0:0:0:0:
283,85,15340,5,2,0:0:0:0:
283,85,15851,1,0,0:0:0:0:
23,30,16533,5,2,0:0:0:0:
24,32,16618,1,0,3:0:0:0:
25,34,16703,1,2,0:0:0:0:
144,122,17044,1,2,0:0:0:0:
84,160,17215,2,0,L|49:171,1,34.8928,2|0,0:0|0:0,0:0:0:0:
3,224,17726,2,0,L|-1:243,1,17.4464,2|2,0:0|0:0,0:0:0:0:
44,328,18067,5,2,0:0:0:0:
202,250,18408,1,2,0:0:0:0:
262,207,18578,2,0,L|334:190,1,69.68352,2|2,0:0|0:0,0:0:0:0:
452,232,19430,5,2,0:0:0:0:
413,174,19601,1,0,0:0:0:0:
480,153,19771,1,2,0:0:0:0:
480,153,19942,2,0,L|490:119,1,34.8928,2|0,0:0|0:0,0:0:0:0:
456,61,20453,1,2,0:0:0:0:
276,0,20709,6,0,L|248:6,2,21.75,2|2|2,0:0|0:0|0:0,0:0:0:0:
95,120,22174,5,6,1:2:0:0:
29,160,22344,1,0,1:0:0:0:
101,127,22514,2,0,B|209:156|129:182|251:214,1,156.599995220947,10|0,0:0|0:0,0:0:0:0:
302,269,23026,2,0,B|341:282|341:282|380:248,1,78.2999976104737,0|2,1:0|0:0,0:0:0:0:
510,126,23341,6,0,P|462:113|424:96,1,78.2999976104737,2|0,1:3|0:0,0:0:0:0:
389,40,23671,1,0,1:0:0:0:
235,199,23841,6,0,P|197:208|160:223,1,78.2999976104737,8|0,0:0|0:0,0:0:0:0:
103,285,24182,1,0,1:0:0:0:
0,117,24374,2,0,L|28:26,1,78.2999976104737,0|0,1:0|0:0,0:0:0:0:
172,218,24714,1,8,0:0:0:0:
0,359,24885,5,2,1:3:0:0:
110,295,25055,1,0,1:0:0:0:
55,186,25225,2,0,P|25:239|37:270,1,78.2999976104737,10|2,0:0|0:0,0:0:0:0:
212,361,25566,5,0,1:0:0:0:
273,288,25737,2,0,B|305:183|254:231|293:113,1,156.599995220947,0|10,1:0|0:0,0:0:0:0:
367,5,26248,5,0,0:0:0:0:
446,57,26419,1,0,1:0:0:0:
367,5,26589,1,8,0:0:0:0:
378,193,26760,5,0,3:0:0:0:
370,189,26845,1,0,3:0:0:0:
362,185,26930,1,0,1:0:0:0:
446,137,27100,1,0,1:0:0:0:
473,260,27271,2,0,P|459:324|447:382,1,117.449996415711,8|0,0:0|0:0,0:0:0:0:
439,383,27612,5,6,1:2:0:0:
358,299,27782,1,0,1:0:0:0:
224,357,27953,2,0,P|181:369|131:387,1,78.2999976104737,10|2,0:0|0:0,0:0:0:0:
78,364,28294,5,0,0:0:0:0:
197,218,28464,2,0,B|214:181|214:181|185:130,1,78.2999976104737,0|2,1:0|0:2,0:0:0:0:
29,251,28805,5,8,0:0:0:0:
117,287,28975,2,0,P|177:260|280:233,1,156.599995220947,2|10,0:0|0:0,0:0:0:0:
393,342,29487,5,2,3:2:0:0:
388,335,29572,1,0,3:0:0:0:
384,328,29657,1,0,1:0:0:0:
459,271,29828,1,0,1:0:0:0:
364,171,29998,2,0,P|352:132|332:82,1,78.2999976104737,10|2,0:0|0:0,0:0:0:0:
184,9,30339,2,0,P|156:44|166:86,1,78.2999976104737,2|0,1:3|0:0,0:0:0:0:
257,222,30680,6,0,B|181:232|218:252|126:280,1,117.449996415711,8|0,0:0|0:0,0:0:0:0:
143,278,31020,2,0,L|88:257,1,39.1499988052369,8|0,0:0|0:0,0:0:0:0:
0,293,31183,1,8,0:3:0:0:
107,121,31346,5,4,0:3:0:0:
31,28,31531,2,0,P|26:55|17:82,1,39.1499988052369,8|0,0:0|1:0,0:0:0:0:
53,214,31695,5,4,1:2:0:0:
206,136,31871,1,0,1:0:0:0:
53,214,32041,1,8,0:0:0:0:
182,297,32211,5,4,1:2:0:0:
182,297,32548,5,8,0:3:0:0:
337,187,32716,1,4,0:3:0:0:
442,384,32885,1,2,1:3:0:0:
344,308,33323,5,0,0:0:0:0:
339,300,33408,2,0,P|324:185|316:152,2,121.946156282959,6|0|2,1:2|0:0|3:2,0:0:0:0:
275,342,34261,2,0,P|249:359|224:376,1,60.8999981414796,0|2,0:0|3:2,0:0:0:0:
153,355,34602,1,0,0:0:0:0:
153,355,34772,1,2,3:2:0:0:
94,296,34943,2,0,P|64:287|35:279,1,60.8999981414796,2|0,0:0|3:3,0:0:0:0:
0,183,35283,5,0,1:0:0:0:
38,123,35454,2,0,P|48:86|56:56,1,60.8999981414796,2|2,3:2|3:2,0:0:0:0:
166,0,35795,6,0,B|253:21|195:34|287:66,1,121.799996282959,2|0,3:2|3:0,0:0:0:0:
330,106,36306,1,0,0:0:0:0:
439,175,36477,2,0,P|403:188|370:209,1,60.8999981414796,0|0,3:0|0:0,0:0:0:0:
312,260,36818,5,0,3:0:0:0:
373,310,36988,1,0,1:0:0:0:
282,357,37158,5,2,1:3:0:0:
282,357,37329,1,0,1:0:0:0:
217,305,37499,2,0,P|170:288|136:274,1,60.8999981414796,0|0,3:0|0:0,0:0:0:0:
80,328,37840,2,0,P|67:274|53:242,1,91.3499972122193,0|2,0:0|1:2,0:0:0:0:
41,236,38181,1,2,0:0:0:0:
109,174,38352,1,2,0:0:0:0:
14,115,38522,6,0,P|-23:76|24:9,1,121.799996282959,2|2,1:2|3:2,0:0:0:0:
81,37,39033,2,0,P|141:56|205:81,1,121.799996282959,2|0,0:0|2:0,0:0:0:0:
283,167,39545,5,2,3:2:0:0:
321,100,39715,1,2,1:2:0:0:
202,160,39886,1,0,3:3:0:0:
317,246,40056,1,0,1:0:0:0:
317,246,40227,2,0,P|360:234|386:228,1,60.8999981414796,2|2,3:2|0:0,0:0:0:0:
452,152,40568,5,0,3:3:0:0:
482,89,40738,1,0,1:0:0:0:
452,152,40908,2,0,P|409:140|383:134,1,60.8999981414796,2|2,3:3|3:2,0:0:0:0:
246,23,41249,6,0,B|297:91|242:74|296:142,1,121.799996282959,2|0,3:3|3:0,0:0:0:0:
233,187,41761,1,0,0:0:0:0:
117,238,41931,2,0,B|65:306|120:289|66:357,1,121,0|2,3:3|3:2,0:0:0:0:
147,380,42453,5,2,1:2:0:0:
50,269,42613,1,2,2:2:0:0:
197,229,42783,1,0,1:0:0:0:
197,229,42953,2,0,P|239:245|264:253,1,61.0623981414796,2|2,3:2|0:0,0:0:0:0:
313,302,43294,1,0,3:2:0:0:
395,210,43465,5,0,1:0:0:0:
395,210,43635,2,0,P|404:172|412:144,1,61.0623981414796,2|2,3:3|3:2,0:0:0:0:
345,73,43976,6,0,P|288:87|221:102,3,121.886609616292,4|0|0|2,1:2|3:0|3:3|3:2,0:0:0:0:
158,65,45169,5,2,1:2:0:0:
79,202,45340,2,0,P|66:154|51:125,1,61.0623981414796,2|0,3:2|1:0,0:0:0:0:
196,210,45681,6,0,B|282:234|223:246|313:278,2,121.767516282959,0|0|2,3:2|3:0|3:3,0:0:0:0:
137,250,46533,1,2,0:2:0:0:
51,139,46703,6,0,P|34:113|39:74,1,61.0623981414796,2|0,1:2|0:0,0:0:0:0:
115,29,47044,1,2,3:2:0:0:
115,29,47215,2,0,B|152:43|181:51,1,61.0623981414796,2|0,0:0|3:3,0:0:0:0:
234,111,47556,5,0,1:0:0:0:
434,0,47726,1,14,0:2:0:0:
434,0,48067,6,0,P|414:98|401:161,1,130.848,14|0,1:2|0:0,0:0:0:0:
400,135,48408,1,2,1:2:0:0:
483,184,48578,1,0,1:2:0:0:
356,266,48749,5,2,1:2:0:0:
237,323,48919,1,0,1:2:0:0:
439,384,49090,5,14,1:2:0:0:
177,59,50794,6,0,P|191:106|204:136,1,56.7007974113466,8|0,0:0|0:0,0:0:0:0:
270,226,50965,1,8,0:0:0:0:
313,150,51135,5,2,0:0:0:0:
165,272,51306,1,2,0:0:0:0:
315,363,51476,6,0,L|436:324,1,109.04,6|0,1:2|0:0,0:0:0:0:
484,245,51731,1,10,0:0:0:0:
491,252,51816,2,0,L|422:231,1,54.52,2|0,1:2|0:0,0:0:0:0:
308,139,51970,1,10,0:0:0:0:
401,63,52140,6,0,L|422:132,1,54.375,0|0,1:0|0:0,0:0:0:0:
301,280,52310,2,0,L|316:227,1,54.375,2|8,1:2|0:0,0:0:0:0:
228,56,52481,5,10,0:0:0:0:
218,61,52566,1,0,3:0:0:0:
208,66,52651,2,0,L|148:48,1,54.375,2|8,0:3|0:0,0:0:0:0:
20,95,52822,5,0,1:0:0:0:
167,187,52992,1,8,0:0:0:0:
16,284,53163,6,0,P|13:258|39:233,1,54.375,2|0,1:2|0:0,0:0:0:0:
126,309,53333,1,2,0:3:0:0:
136,313,53418,1,0,3:0:0:0:
145,317,53522,2,0,P|179:337|210:364,1,54.375,8|8,0:3|0:3,0:0:0:0:
287,280,53692,2,0,P|321:260|352:233,1,54.375,8|8,0:0|0:0,0:0:0:0:
440,236,53862,1,8,0:3:0:0:
456,207,53948,1,8,0:3:0:0:
458,175,54033,1,4,0:3:0:0:
447,145,54118,1,4,0:3:0:0:
424,122,54203,6,0,P|362:110|309:88,1,108.75,6|0,1:2|0:0,0:0:0:0:
243,113,54458,1,8,0:0:0:0:
236,103,54543,2,0,B|222:78|222:78|245:43,1,54.375,2|0,1:2|0:0,0:0:0:0:
381,17,54714,5,10,0:0:0:0:
275,196,54884,1,0,1:0:0:0:
146,62,55055,1,2,1:2:0:0:
135,58,55140,1,8,0:0:0:0:
124,54,55225,2,0,P|112:95|101:127,1,54.375,10|0,0:0|0:0,0:0:0:0:
25,216,55396,1,2,0:3:0:0:
14,220,55481,1,8,0:0:0:0:
1,225,55566,5,0,1:0:0:0:
115,336,55737,2,0,P|177:354|229:372,1,108.75,8|0,2:0|1:0,0:0:0:0:
287,332,55992,1,0,3:0:0:0:
296,325,56078,2,0,P|280:289|272:264,1,54.375,8|0,0:0|0:0,0:0:0:0:
146,185,56248,5,8,0:0:0:0:
266,101,56418,1,8,0:0:0:0:
275,104,56504,1,8,0:0:0:0:
286,107,56589,2,0,P|314:127|324:166,1,54.375,2|0,1:2|3:0,0:0:0:0:
406,270,56759,2,0,P|419:246|442:232,1,54.375,10|0,3:2|3:0,0:0:0:0:
509,139,56930,6,0,P|485:80|470:28,1,108.75,6|0,1:2|0:0,0:0:0:0:
401,0,57185,1,8,0:0:0:0:
392,6,57271,2,0,P|359:23|324:38,1,54.375,2|0,1:2|0:0,0:0:0:0:
159,179,57441,5,10,0:0:0:0:
129,16,57612,2,0,P|162:33|197:48,1,54.375,0|0,1:0|0:0,0:0:0:0:
311,157,57782,1,10,0:0:0:0:
301,162,57867,1,8,0:0:0:0:
291,167,57953,6,0,B|265:217|265:217|299:283,1,108.75,2|2,1:2|0:3,0:0:0:0:
288,348,58208,1,8,0:0:0:0:
297,341,58293,2,0,L|363:320,1,54.375,0|0,1:0|0:0,0:0:0:0:
512,339,58464,5,8,0:0:0:0:
375,211,58634,1,8,0:3:0:0:
512,121,58805,5,8,0:2:0:0:
504,112,58890,1,8,0:0:0:0:
495,105,58975,2,0,L|355:70,1,108.75,8|8,0:3|0:0,0:0:0:0:
296,9,59231,1,8,0:0:0:0:
281,0,59316,2,0,L|141:35,1,108.75,8|4,0:3|0:3,0:0:0:0:
116,149,59572,1,4,0:3:0:0:
120,139,59657,6,0,B|171:116|171:116|221:151,1,108.75,6|0,1:2|0:0,0:0:0:0:
303,182,59913,2,0,L|284:291,1,108.75,8|0,0:0|0:0,0:0:0:0:
345,355,60168,2,0,L|400:330,1,54.375,10|0,0:0|0:0,0:0:0:0:
501,371,60339,5,0,1:0:0:0:
492,339,60424,1,0,3:0:0:0:
485,306,60509,1,2,1:2:0:0:
478,274,60595,1,8,0:0:0:0:
469,242,60680,1,10,0:2:0:0:
342,118,60850,1,8,0:0:0:0:
316,139,60935,1,8,0:0:0:0:
320,174,61021,6,0,L|383:194,1,54.375,0|0,1:0|0:0,0:0:0:0:
488,113,61191,1,8,0:0:0:0:
503,84,61276,1,8,0:0:0:0:
489,54,61362,2,0,L|426:74,1,54.375,0|0,1:0|1:0,0:0:0:0:
336,16,61532,2,0,L|273:-4,1,54.375,8|8,0:0|0:0,0:0:0:0:
178,64,61703,5,8,0:3:0:0:
185,97,61788,1,8,0:3:0:0:
192,129,61873,1,4,0:3:0:0:
199,162,61958,1,4,0:3:0:0:
206,193,62043,2,0,P|197:238|191:266,1,54.375,12|0,0:0|0:0,0:0:0:0:
31,303,62214,1,0,3:0:0:0:
1,277,62299,1,0,3:0:0:0:
11,240,62384,5,6,1:2:0:0:
139,373,62640,1,2,0:0:0:0:
134,381,62725,2,0,L|241:354,1,95.7000029205323,8|4,0:0|0:3,0:0:0:0:
301,312,62981,1,8,0:3:0:0:
296,304,63066,2,0,L|403:331,1,95.7000029205323,2|0,1:2|1:0,0:0:0:0:
481,240,63407,2,0,B|525:161|467:189|516:94,1,143.550004380798,8|0,0:0|0:0,0:0:0:0:
507,91,63748,5,2,1:2:0:0:
391,23,63918,1,0,1:0:0:0:
296,154,64089,2,0,P|239:172|200:184,1,95.7000029205323,8|4,0:0|3:3,0:0:0:0:
152,232,64345,1,8,0:3:0:0:
144,237,64430,1,0,1:0:0:0:
239,76,64600,1,0,1:0:0:0:
36,4,64771,2,0,P|-2:46|9:97,1,95.9552029205323,10|2,0:2|3:2,0:0:0:0:
54,131,65026,1,0,0:0:0:0:
61,124,65112,5,2,1:2:0:0:
226,196,65282,1,0,1:0:0:0:
96,322,65453,1,8,0:0:0:0:
131,200,65623,5,4,0:3:0:0:
136,207,65708,1,8,0:3:0:0:
142,214,65793,2,0,B|269:245|175:287|326:329,1,192.471845841065,0|10,1:0|0:2,0:0:0:0:
424,185,66305,5,2,3:2:0:0:
506,299,66475,1,2,1:2:0:0:
509,290,66560,1,8,0:3:0:0:
512,281,66646,1,0,1:0:0:0:
286,195,66816,5,8,0:2:0:0:
368,81,66987,1,4,0:3:0:0:
371,90,67072,1,8,0:3:0:0:
374,99,67157,1,0,1:0:0:0:
210,93,67328,5,0,1:0:0:0:
380,276,67498,2,0,P|322:292|278:313,1,95.9552029205323,10|2,0:2|3:2,0:0:0:0:
74,384,67839,6,0,P|100:311|120:206,1,143.932804380798,6|0,1:2|0:0,0:0:0:0:
107,236,68180,1,10,0:0:0:0:
9,127,68350,5,4,0:3:0:0:
5,118,68435,1,8,0:3:0:0:
1,109,68521,1,0,1:0:0:0:
69,13,68691,1,2,1:2:0:0:
218,104,68862,2,0,P|296:117|336:50,1,143.932804380798,10|0,0:0|0:0,0:0:0:0:
330,62,69203,5,0,1:0:0:0:
422,134,69373,1,0,1:0:0:0:
248,249,69543,1,8,0:0:0:0:
384,360,69714,5,4,0:3:0:0:
388,351,69799,1,8,0:3:0:0:
392,342,69884,1,0,1:0:0:0:
485,256,70055,1,0,1:0:0:0:
310,144,70225,2,0,P|332:222|343:257,1,96.5166429205323,10|0,0:0|1:0,0:0:0:0:
151,347,70566,6,0,L|34:317,1,104.678396813965,14|0,0:0|1:0,0:0:0:0:
6,251,70907,1,2,1:2:0:0:
208,179,71078,6,0,L|325:149,1,104.678396813965,14|0,0:0|1:0,0:0:0:0:
357,83,71418,1,2,1:2:0:0:
116,0,71589,6,0,P|97:78|83:134,1,104.678396813965,14|0,0:0|3:0,0:0:0:0:
221,325,71930,5,0,1:0:0:0:
119,245,72100,1,0,1:0:0:0:
310,144,72271,2,0,B|404:169|336:200|463:238,1,157.017595220947,14|0,0:0|0:0,0:0:0:0:
444,235,72612,6,0,L|370:254,1,52.3391984069825,2|0,1:2|0:0,0:0:0:0:
232,343,72782,1,4,0:3:0:0:
212,334,72867,1,8,0:3:0:0:
193,324,72953,1,10,0:0:0:0:
382,244,73123,1,0,1:0:0:0:
150,118,73293,5,6,1:2:0:0:
150,118,73634,1,0,3:0:0:0:
150,118,73975,1,2,3:2:0:0:
150,118,74316,1,0,3:0:0:0:
219,154,74487,1,0,1:0:0:0:
387,0,74657,5,0,3:0:0:0:
387,0,74998,1,0,0:0:0:0:
348,65,75168,1,0,1:0:0:0:
484,174,75339,5,0,3:0:0:0:
484,174,75680,2,0,L|474:221,1,39.2543988052369,0|0,3:0|0:0,0:0:0:0:
472,219,76021,6,0,P|420:228|390:232,1,61.0623981414796,2|0,1:3|0:0,0:0:0:0:
411,229,76362,1,0,3:0:0:0:
284,301,76532,2,0,B|318:224|271:253|307:168,1,122.124796282959,2|0,0:0|0:0,0:0:0:0:
245,94,77043,1,2,3:2:0:0:
297,34,77214,1,0,1:0:0:0:
118,57,77384,5,0,0:0:0:0:
118,57,77555,2,0,P|135:110|153:202,1,122.124796282959,2|0,1:2|0:0,0:0:0:0:
68,285,78066,5,2,1:2:0:0:
2,325,78237,1,0,1:0:0:0:
76,294,78407,2,0,P|123:314|150:327,1,61.0623981414796,2|0,3:3|0:0,0:0:0:0:
262,360,78748,6,0,P|305:347|404:326,1,122.124796282959,6|0,1:2|3:0,0:0:0:0:
467,299,79259,1,2,0:0:0:0:
327,223,79430,2,0,B|314:195|314:195|330:154,1,61.0623981414796,2|0,3:2|0:0,0:0:0:0:
392,44,79771,2,0,P|347:64|320:75,1,61.0623981414796,0|0,3:0|1:0,0:0:0:0:
149,5,80112,5,0,3:0:0:0:
221,56,80282,1,0,0:0:0:0:
119,114,80453,1,0,1:0:0:0:
189,274,80623,5,0,3:0:0:0:
200,269,80708,1,8,0:0:0:0:
212,264,80793,1,8,0:0:0:0:
108,209,80964,1,8,0:3:0:0:
60,332,81134,1,4,0:3:0:0:
108,209,81305,1,0,1:3:0:0:
339,371,81475,6,0,P|373:335|359:276,1,96.5166429205323,12|0,0:0|1:0,0:0:0:0:
274,330,81816,1,0,1:0:0:0:
416,195,81987,6,0,P|414:145|362:113,1,95.9552029205323,12|0,0:0|1:0,0:0:0:0:
341,211,82328,1,0,1:0:0:0:
325,39,82498,6,0,P|289:4|230:18,1,95.9552029205323,12|0,0:0|1:0,0:0:0:0:
283,103,82839,1,0,1:0:0:0:
100,23,83009,5,12,0:0:0:0:
86,104,83180,1,0,1:0:0:0:
72,185,83350,1,0,1:0:0:0:
0,48,83521,5,8,0:0:0:0:
189,175,83776,1,0,1:0:0:0:
181,181,83882,2,0,P|265:208|338:230,1,143.550004380798,8|0,0:0|0:0,0:0:0:0:
326,232,84222,5,6,1:2:0:0:
394,153,84392,1,0,1:0:0:0:
509,285,84562,2,0,B|416:305|476:334|375:361,1,147.900002820969,8|0,0:0|1:0,0:0:0:0:
205,258,85064,5,0,1:0:0:0:
263,322,85234,1,8,0:3:0:0:
199,242,85404,2,0,P|210:182|220:115,1,110.925002115727,10|0,0:0|0:0,0:0:0:0:
211,120,85745,1,0,1:0:0:0:
323,244,85926,2,0,P|367:227|413:212,1,73.9500014104843,8|0,0:0|0:0,0:0:0:0:
495,90,86266,5,2,1:2:0:0:
425,119,86437,1,0,1:0:0:0:
333,46,86607,5,8,0:0:0:0:
204,10,86778,1,8,0:3:0:0:
109,176,86949,5,2,1:2:0:0:
170,132,87118,1,0,1:2:0:0:
67,77,87288,2,0,P|23:90|-14:101,1,73.9500014104843,8|0,0:0|3:0,0:0:0:0:
209,264,87629,5,0,1:0:0:0:
266,205,87800,2,0,P|282:155|297:116,1,73.9500014104843,0|8,1:0|0:3,0:0:0:0:
451,19,88141,6,0,P|508:54|490:151,1,147.900002820969,10|0,0:0|1:0,0:0:0:0:
454,199,88652,2,0,P|412:212|373:228,1,73.9500014104843,8|0,0:0|3:0,0:0:0:0:
333,278,88908,1,0,3:0:0:0:
324,285,88993,1,0,1:0:0:0:
232,364,89163,5,0,1:0:0:0:
113,231,89334,2,0,P|102:195|142:144,1,73.9500014104843,10|2,0:0|0:0,0:0:0:0:
280,192,89675,5,2,1:2:0:0:
224,126,89845,1,0,1:0:0:0:
298,26,90016,2,0,P|338:44|389:62,1,73.9500014104843,10|2,0:0|3:2,0:0:0:0:
512,174,90357,5,0,1:0:0:0:
458,238,90527,2,0,P|423:251|389:266,1,73.9500014104843,0|2,1:0|3:2,0:0:0:0:
223,375,90868,6,0,B|128:350|197:327|73:294,1,147.900002820969,10|0,0:0|1:0,0:0:0:0:
24,210,91379,2,0,P|9:165|-8:122,1,73.9500014104843,10|2,0:0|3:2,0:0:0:0:
38,75,91635,1,0,3:0:0:0:
43,65,91720,1,0,1:0:0:0:
154,180,91891,5,0,1:0:0:0:
230,106,92061,2,0,P|291:87|334:74,1,73.9500014104843,10|2,0:0|3:2,0:0:0:0:
512,132,92402,5,0,1:0:0:0:
439,166,92574,1,0,1:0:0:0:
494,219,92744,2,0,P|480:146|462:74,1,147.900002820969,10|0,0:2|1:0,0:0:0:0:
342,208,93254,2,0,P|327:263|321:301,1,73.9500014104843,0|8,1:0|0:3,0:0:0:0:
143,364,93595,6,0,P|89:314|127:226,1,147.900002820969,10|0,0:0|1:0,0:0:0:0:
240,212,94107,2,0,P|203:196|162:172,1,73.9500014104843,8|0,0:0|3:0,0:0:0:0:
8,147,94430,1,8,0:0:0:0:
4,157,94509,1,0,3:0:0:0:
0,167,94601,1,0,3:0:0:0:
110,257,94771,5,8,0:3:0:0:
230,108,94941,1,8,0:0:0:0:
219,88,95027,1,8,0:0:0:0:
207,66,95112,6,0,P|252:81|296:90,1,74.1472014104843,6|0,1:2|1:0,0:0:0:0:
437,0,95452,1,10,0:0:0:0:
503,95,95623,1,2,3:2:0:0:
507,105,95708,1,0,3:0:0:0:
511,115,95793,1,0,1:0:0:0:
456,237,95964,5,4,0:3:0:0:
389,187,96134,2,0,P|362:181|323:217,1,74.5810414104843,10|2,0:0|0:0,0:0:0:0:
265,253,96390,1,0,3:0:0:0:
258,261,96475,6,0,B|196:282|174:306,1,74.5810414104843,0|0,1:0|1:0,0:0:0:0:
40,384,96816,2,0,B|72:284|21:334|65:213,1,148.294402820969,8|0,0:0|1:0,0:0:0:0:
157,177,97327,1,0,1:0:0:0:
17,0,97498,6,0,P|3:58|-9:99,1,74.1472014104843,8|0,0:0|0:0,0:0:0:0:
38,134,97754,1,0,3:0:0:0:
44,142,97839,5,2,1:2:0:0:
137,267,98009,1,0,1:0:0:0:
266,194,98180,2,0,P|298:184|354:164,1,74.1472014104843,10|2,0:0|3:2,0:0:0:0:
386,118,98435,1,0,3:0:0:0:
391,108,98521,2,0,P|400:63|361:29,1,74.1472014104843,0|0,1:0|1:0,0:0:0:0:
274,97,98862,5,10,0:0:0:0:
408,239,99032,1,2,0:0:0:0:
402,248,99117,1,2,0:0:0:0:
396,257,99202,1,0,1:2:0:0:
301,369,99373,5,0,1:0:0:0:
223,294,99543,2,0,P|175:282|118:266,1,74.5810414104843,8|0,0:0|0:0,0:0:0:0:
80,308,99799,1,0,0:0:0:0:
73,299,99884,2,0,B|57:265|57:265|80:229,1,74.5810414104843,0|0,1:0|1:0,0:0:0:0:
225,91,100225,2,0,L|266:108,3,37.2182140385755,8|0|0|0,0:0|3:0|3:0|3:0,0:0:0:0:
319,162,100566,6,0,P|360:148|398:135,1,74.1472014104843,4|0,1:2|1:0,0:0:0:0:
510,209,100907,1,10,0:0:0:0:
360,337,101077,5,2,3:2:0:0:
354,327,101163,1,0,3:0:0:0:
356,316,101248,1,0,1:0:0:0:
408,252,101418,1,0,1:0:0:0:
239,336,101589,2,0,P|183:317|99:294,1,111.220802115727,10|0,0:0|0:0,0:0:0:0:
122,306,101930,5,2,1:2:0:0:
44,237,102100,1,0,1:0:0:0:
169,153,102271,6,0,P|182:109|199:66,1,74.1472014104843,10|2,0:0|3:2,0:0:0:0:
157,21,102526,1,0,3:0:0:0:
150,11,102612,2,0,P|110:6|84:43,1,74.1472014104843,0|0,1:0|1:0,0:0:0:0:
281,149,102952,2,0,P|344:124|404:109,1,111.654642115727,10|0,0:2|0:0,0:0:0:0:
395,108,103293,6,0,P|432:132|426:172,1,74.5810414104843,4|0,1:2|1:0,0:0:0:0:
337,255,103634,1,8,0:0:0:0:
408,295,103805,1,0,0:0:0:0:
324,264,103975,5,0,1:0:0:0:
435,166,104146,1,0,1:0:0:0:
512,299,104316,2,0,P|496:355|487:390,1,74.1472014104843,12|2,0:0|0:0,0:0:0:0:
286,167,104657,5,0,1:0:0:0:
165,201,104827,1,8,0:0:0:0:
219,313,104998,1,0,1:0:0:0:
10,211,105168,5,8,0:0:0:0:
5,201,105254,1,8,0:0:0:0:
3,190,105339,1,8,0:0:0:0:
77,129,105509,1,8,0:0:0:0:
0,50,105680,5,8,0:3:0:0:
170,186,105850,1,4,0:3:0:0:
245,8,106021,6,0,P|301:29|368:43,1,122.124796282959,6|2,1:2|1:2,0:0:0:0:
431,94,106532,1,2,0:2:0:0:
431,94,106702,2,0,P|462:127|443:216,1,122.482076282959,0|2,1:0|1:2,0:0:0:0:
278,256,107214,6,0,P|269:220|255:197,1,43.616,10|0,0:2|0:0,0:0:0:0:
282,142,107384,1,2,1:2:0:0:
398,342,107555,6,0,P|407:306|421:283,1,43.616,8|0,0:0|0:0,0:0:0:0:
394,228,107725,1,2,3:2:0:0:
264,359,107896,6,0,P|201:340|180:334,1,61.0623981414796,2|2,0:0|1:2,0:0:0:0:
116,244,108237,1,8,0:3:0:0:
111,229,108322,1,4,0:3:0:0:
117,215,108407,1,2,1:2:0:0:
231,265,108577,5,8,2:3:0:0:
78,382,108748,1,2,1:3:0:0:
78,382,109089,6,0,P|60:332|53:314,1,61.0623981414796,0|0,1:0|0:0,0:0:0:0:
131,254,109430,2,0,P|144:199|162:111,1,122.124796282959,0|0,1:0|1:0,0:0:0:0:
0,85,109941,5,8,0:0:0:0:
54,28,110112,2,0,P|95:17|141:-2,1,87.232,0|0,1:3|3:0,0:0:0:0:
278,149,110452,6,0,P|341:168|408:198,1,131.3584,12|0,1:2|0:0,0:0:0:0:
411,190,110793,1,0,1:0:0:0:
496,136,110964,1,8,0:3:0:0:
376,108,111134,5,4,0:3:0:0:
498,239,111305,1,4,0:3:0:0:
349,321,111475,6,0,B|269:341|329:348|222:379,1,122.482076282959,6|2,1:2|1:2,0:0:0:0:
164,335,111987,1,2,0:0:0:0:
164,335,112157,2,0,P|153:290|129:208,1,122.124796282959,0|2,1:0|1:2,0:0:0:0:
0,113,112668,6,0,P|34:95|55:84,1,44.1264,10|0,0:2|0:0,0:0:0:0:
88,33,112839,1,0,1:0:0:0:
205,117,113009,6,0,P|239:134|260:145,1,44.1264,8|0,0:2|0:0,0:0:0:0:
293,197,113180,1,2,1:2:0:0:
410,129,113350,6,0,P|414:159|432:210,1,61.4196781414796,2|0,0:0|1:0,0:0:0:0:
493,228,113691,1,8,0:3:0:0:
349,367,113862,6,0,P|278:343|254:338,1,87.232,10|2,0:0|3:2,0:0:0:0:
140,380,114202,6,0,P|127:324|103:264,1,118.222556415711,4|0,1:2|0:0,0:0:0:0:
115,259,114533,1,0,1:0:0:0:
209,213,114703,1,8,0:0:0:0:
185,118,114873,5,8,0:0:0:0:
330,186,115044,1,8,0:0:0:0:
311,272,115214,5,2,1:2:0:0:
486,195,115385,1,14,0:2:0:0:
496,190,116247,6,0,B|429:153|386:218|387:231|391:248|364:337|255:292,1,274.780791636658,6|0,1:2|0:0,0:0:0:0:
270,303,116929,6,0,P|244:256|264:218,1,92.1295172122193,4|0,1:2|0:0,0:0:0:0:
320,141,117270,5,0,1:0:0:0:
233,97,117441,1,0,1:0:0:0:
336,139,117611,1,0,1:0:0:0:
219,104,117781,1,8,1:2:0:0:
359,45,117952,5,10,1:2:0:0:
248,216,118122,1,10,1:2:0:0:
125,50,118293,6,0,P|84:69|35:88,1,92.1295172122193,6|0,1:2|0:0,0:0:0:0:
87,278,118634,5,2,1:2:0:0:
135,196,118804,1,2,1:2:0:0:
89,294,118975,1,0,1:0:0:0:
128,182,119145,1,8,1:2:0:0:
175,332,119316,5,10,1:2:0:0:
6,216,119486,1,10,1:2:0:0:
216,126,119656,6,0,P|263:128|297:177,1,92.1295172122193,4|0,1:2|0:0,0:0:0:0:
383,278,119997,5,0,1:0:0:0:
465,241,120168,1,0,1:0:0:0:
302,266,120338,5,0,1:0:0:0:
470,344,120509,1,8,1:2:0:0:
228,306,120679,5,10,1:2:0:0:
421,168,120850,1,8,1:2:0:0:
201,41,121020,6,0,P|182:110|158:174,1,137.926315818329,14|0,0:0|0:0,0:0:0:0:
149,182,121361,1,10,0:0:0:0:
264,279,121531,1,2,1:2:0:0:
132,372,121702,5,8,0:3:0:0:
118,352,121816,1,8,0:3:0:0:
127,332,121929,1,8,0:3:0:0:
150,326,122043,1,8,0:3:0:0:
351,376,122270,5,2,0:1:0:0:
351,376,122384,2,0,B|448:365|402:327|485:320,1,148.728242820969,4|0,1:2|0:0,0:0:0:0:
311,219,122895,1,0,1:2:0:0:
300,212,122952,1,0,1:0:0:0:
294,200,123009,1,0,1:0:0:0:
298,190,123066,2,0,P|359:169|412:238,1,148.294402820969,8|2,0:0|0:0,0:0:0:0:
357,284,123577,1,0,1:0:0:0:
185,182,123747,5,0,1:0:0:0:
130,251,123918,2,0,B|28:272|95:293|-14:318,1,148.728242820969,8|0,0:0|3:0,0:0:0:0:
117,99,124429,6,0,P|145:26|151:0,1,74.5810414104843,8|0,0:0|0:0,0:0:0:0:
65,0,124770,1,2,1:2:0:0:
65,0,124941,1,0,0:0:0:0:
251,114,125111,6,0,L|421:75,1,148.728242820969,6|2,1:2|0:0,0:0:0:0:
512,210,125622,1,2,1:2:0:0:
405,298,125793,2,0,P|419:255|426:207,1,74.5810414104843,8|0,0:0|1:0,0:0:0:0:
291,375,126134,2,0,P|277:332|270:284,1,73.9500014104843,10|0,0:2|1:0,0:0:0:0:
173,176,126475,6,0,P|124:196|46:223,1,130.5,10|0,0:0|0:0,0:0:0:0:
38,216,126815,1,2,1:2:0:0:
132,317,126986,1,0,1:0:0:0:
3,353,127156,5,2,1:2:0:0:
183,184,127327,2,0,P|154:175|122:160,1,44.1264,0|0,1:0|3:0,0:0:0:0:
0,81,127497,5,10,0:0:0:0:
215,26,128019,5,8,0:3:0:0:
222,39,128097,1,8,0:3:0:0:
229,52,128176,1,8,0:3:0:0:
347,125,128335,5,0,1:2:0:0:
359,120,128420,1,0,1:0:0:0:
371,115,128505,1,8,2:3:0:0:
409,123,128590,1,8,0:3:0:0:
439,147,128675,1,0,1:2:0:0:
455,182,128761,1,0,1:2:0:0:
448,220,128846,2,0,P|436:288|420:365,1,130.5,14|0,0:2|0:0,0:0:0:0:
413,356,129203,6,0,P|367:340|347:283,1,108.75,6|0,1:2|0:0,0:0:0:0:
279,240,129458,1,10,0:0:0:0:
266,229,129543,2,0,P|254:205|273:160,1,55.158,2|0,1:2|0:0,0:0:0:0:
418,115,129714,1,10,0:0:0:0:
433,121,129799,1,0,3:0:0:0:
448,127,129884,1,0,1:0:0:0:
308,13,130055,6,0,P|273:25|244:31,1,54.52,2|8,1:2|0:0,0:0:0:0:
63,105,130225,1,10,0:0:0:0:
164,216,130396,5,2,0:3:0:0:
171,201,130481,1,8,0:0:0:0:
178,186,130566,1,0,1:0:0:0:
34,278,130737,1,8,0:0:0:0:
153,356,130907,5,2,1:2:0:0:
190,348,130992,1,0,3:0:0:0:
227,338,131078,1,2,0:3:0:0:
263,329,131163,1,0,3:0:0:0:
300,320,131248,2,0,P|315:279|324:253,1,54.52,8|8,0:3|0:3,0:0:0:0:
446,168,131418,5,8,0:0:0:0:
439,153,131504,1,8,0:0:0:0:
430,138,131589,2,0,P|373:120|309:96,1,109.04,8|4,0:3|0:3,0:0:0:0:
279,41,131845,1,0,3:0:0:0:
263,44,131930,6,0,P|224:84|244:150,1,109.04,6|0,1:2|0:0,0:0:0:0:
283,194,132185,1,8,0:0:0:0:
293,206,132271,2,0,P|309:245|299:273,1,54.52,2|0,1:2|0:0,0:0:0:0:
158,344,132441,6,0,B|104:329|104:329|61:371,1,109.04,10|0,0:0|1:0,0:0:0:0:
0,309,132697,1,0,3:0:0:0:
10,296,132782,2,0,P|25:254|29:221,1,54.52,2|8,1:2|0:0,0:0:0:0:
155,156,132953,5,10,0:0:0:0:
31,78,133123,1,2,0:3:0:0:
15,84,133208,1,8,0:0:0:0:
0,91,133293,1,0,1:0:0:0:
119,245,133464,5,8,2:0:0:0:
252,111,133634,1,0,1:0:0:0:
258,96,133720,1,0,3:0:0:0:
250,81,133805,2,0,P|214:66|180:51,1,54.52,8|0,0:0|0:0,0:0:0:0:
337,11,133975,5,8,0:0:0:0:
379,13,134060,1,0,1:0:0:0:
414,39,134146,1,8,0:0:0:0:
428,79,134231,1,8,0:0:0:0:
446,93,134316,5,2,1:2:0:0:
454,134,134401,1,0,3:0:0:0:
438,173,134487,1,10,3:2:0:0:
403,198,134572,1,0,3:0:0:0:
390,216,134657,6,0,L|265:258,1,109.04,6|0,1:2|0:0,0:0:0:0:
223,306,134913,1,8,0:0:0:0:
209,296,134998,2,0,L|133:273,1,54.52,2|0,1:2|0:0,0:0:0:0:
5,370,135168,6,0,P|-21:325|15:268,1,109.678,10|0,0:0|1:0,0:0:0:0:
62,218,135424,1,0,0:0:0:0:
74,207,135509,2,0,P|88:166|104:131,1,55.158,10|8,0:0|0:0,0:0:0:0:
24,0,135680,5,2,1:2:0:0:
196,77,135850,1,2,0:3:0:0:
210,70,135935,1,8,0:0:0:0:
224,63,136021,1,0,1:0:0:0:
300,219,136191,6,0,L|323:154,1,54.52,8|0,0:0|0:0,0:0:0:0:
414,45,136362,1,8,0:3:0:0:
422,82,136447,1,0,3:0:0:0:
430,119,136532,1,8,0:2:0:0:
438,156,136617,1,0,3:0:0:0:
455,175,136703,5,8,0:3:0:0:
446,212,136788,1,8,0:3:0:0:
438,249,136873,1,8,0:0:0:0:
430,286,136958,1,8,0:0:0:0:
441,304,137043,5,8,0:3:0:0:
404,313,137129,1,8,0:3:0:0:
367,321,137214,1,4,0:3:0:0:
330,329,137299,1,4,0:3:0:0:
313,343,137384,6,0,L|199:316,1,109.678,6|0,1:2|0:0,0:0:0:0:
125,344,137640,1,8,0:0:0:0:
117,329,137725,2,0,B|113:301|113:301|139:272,1,55.158,2|0,1:2|0:0,0:0:0:0:
232,153,137896,6,0,P|247:90|268:27,1,109.04,10|0,0:0|1:0,0:0:0:0:
192,2,138151,1,0,3:0:0:0:
180,13,138237,2,0,P|152:25|114:34,1,54.52,2|8,1:2|0:0,0:0:0:0:
9,192,138407,5,10,0:2:0:0:
137,285,138578,1,8,0:0:0:0:
150,275,138663,1,8,0:0:0:0:
164,266,138748,1,0,1:0:0:0:
321,160,138918,5,8,0:0:0:0:
334,170,139004,1,8,0:0:0:0:
349,181,139089,2,0,P|361:228|373:266,1,54.52,0|0,1:0|1:0,0:0:0:0:
257,368,139259,2,0,P|264:341|270:315,1,55.158,8|8,0:0|0:0,0:0:0:0:
150,158,139430,1,8,0:3:0:0:
137,168,139515,2,0,B|62:191|2:212|0:213,1,109.04,8|4,0:3|0:3,0:0:0:0:
0,287,139771,6,0,P|68:288|109:375,1,163.56,12|0,0:0|0:0,0:0:0:0:
191,372,140112,6,0,P|256:350|284:342,1,82.870397793007,6|0,1:2|0:0,0:0:0:0:
364,364,140453,2,0,P|377:296|384:268,1,82.870397793007,2|0,1:2|0:0,0:0:0:0:
453,215,140793,2,0,P|401:169|380:149,1,83.355277793007,2|2,1:2|0:3,0:0:0:0:
396,48,141134,2,0,B|310:65|375:90|265:119,1,124.79047668951,14|0,0:2|0:0,0:0:0:0:
282,120,141475,6,0,P|218:103|92:72,1,166.225675586014,2|0,1:2|1:2,0:0:0:0:
50,119,141987,1,8,2:3:0:0:
183,251,142157,5,0,1:2:0:0:
127,191,142328,1,8,0:3:0:0:
55,291,142498,2,0,P|39:341|67:381,1,82.870397793007,8|0,0:2|0:2,0:0:0:0:
195,247,142839,6,0,P|247:232|289:219,1,82.870397793007,6|0,1:2|0:0,0:0:0:0:
359,256,143180,2,0,P|372:203|381:160,1,82.870397793007,2|2,1:2|0:2,0:0:0:0:
445,118,143521,2,0,P|406:80|373:50,1,82.870397793007,0|2,1:2|0:2,0:0:0:0:
314,0,143862,2,0,P|238:27|166:48,1,124.30559668951,14|0,0:2|0:0,0:0:0:0:
188,35,144203,6,0,B|139:129|210:100|150:201,1,165.740795586014,2|0,1:2|1:2,0:0:0:0:
75,236,144714,1,8,0:3:0:0:
218,353,144884,5,0,1:2:0:0:
271,292,145055,1,8,0:3:0:0:
208,358,145225,2,0,P|165:337|118:323,1,83.355277793007,8|0,0:3|0:0,0:0:0:0:
366,243,145566,5,0,1:2:0:0:
237,135,145822,1,2,0:0:0:0:
227,142,145907,1,10,0:2:0:0:
373,41,146078,1,2,0:2:0:0:
313,167,146248,5,2,1:2:0:0:
152,66,146504,1,2,0:0:0:0:
163,61,146589,1,10,0:2:0:0:
98,242,146759,1,2,0:2:0:0:
0,100,146930,6,0,P|53:119|92:131,1,95.9552029205323,2|0,1:2|1:2,0:0:0:0:
370,219,147271,2,0,P|309:202|246:314,1,191.910405841065,10|2,0:2|1:2,0:0:0:0:
164,370,147782,5,0,1:2:0:0:
9,277,147953,2,0,P|-12:224|20:183,1,95.9552029205323,10|0,0:2|1:2,0:0:0:0:
199,109,148293,5,14,0:2:0:0:
104,238,148464,1,0,1:2:0:0:
244,296,148634,1,0,1:2:0:0:
353,82,148805,5,8,0:2:0:0:
217,204,148975,1,0,1:2:0:0:
158,21,149146,1,0,1:2:0:0:
349,199,149316,6,0,P|417:175|476:156,1,95.9552029205323,14|2,0:2|0:2,0:0:0:0:
303,0,149657,6,0,P|283:28|289:66,1,47.9776014602662,2|0,1:2|3:0,0:0:0:0:
220,195,149828,1,8,0:0:0:0:
212,183,149913,1,8,0:0:0:0:
203,171,149998,2,0,P|197:147|181:130,1,47.9776014602662,8|8,0:2|0:2,0:0:0:0:
77,24,150168,5,0,1:2:0:0:
48,48,150254,1,0,1:2:0:0:
36,84,150339,1,8,2:3:0:0:
48,120,150424,1,8,0:3:0:0:
67,153,150509,1,8,0:3:0:0:
66,191,150595,1,0,1:2:0:0:
46,223,150680,2,0,P|16:238|-35:251,1,47.9776014602662,14|0,0:2|0:0,0:0:0:0:
93,329,150850,1,2,0:0:0:0:
239,189,151021,6,0,P|296:182|333:242,1,109.04,6|0,1:2|0:0,0:0:0:0:
400,260,151276,1,10,0:0:0:0:
413,268,151362,2,0,L|483:246,1,54.52,2|0,1:2|0:0,0:0:0:0:
512,25,151532,6,0,P|455:18|418:78,1,109.04,10|0,0:0|1:0,0:0:0:0:
351,96,151788,1,0,3:0:0:0:
338,104,151873,2,0,L|268:82,1,54.52,2|8,1:2|0:0,0:0:0:0:
124,0,152043,5,10,0:0:0:0:
33,136,152214,1,2,0:3:0:0:
42,149,152299,1,8,0:0:0:0:
51,162,152384,2,0,L|29:232,1,55.158,0|0,1:0|0:0,0:0:0:0:
125,322,152555,5,8,0:0:0:0:
247,202,152725,1,2,1:2:0:0:
289,198,152810,1,0,3:0:0:0:
329,215,152896,1,2,0:3:0:0:
356,249,152981,1,0,3:0:0:0:
364,291,153066,2,0,P|382:353|392:385,1,54.52,8|8,0:3|0:3,0:0:0:0:
481,213,153237,2,0,P|488:186|496:160,1,54.52,8|8,0:0|0:0,0:0:0:0:
362,48,153407,2,0,P|316:65|226:84,1,109.04,8|4,0:3|0:3,0:0:0:0:
185,25,153663,1,4,0:3:0:0:
170,33,153748,6,0,P|135:86|162:136,1,109.04,6|0,1:2|0:0,0:0:0:0:
212,181,154004,1,8,0:0:0:0:
222,168,154089,1,2,1:2:0:0:
105,314,154259,5,10,0:0:0:0:
223,359,154430,1,0,1:0:0:0:
259,349,154515,1,0,3:0:0:0:
296,340,154600,1,2,1:2:0:0:
333,331,154685,1,8,0:0:0:0:
370,322,154771,6,0,B|395:273|395:273|352:205,1,109.04,10|2,0:0|0:3,0:0:0:0:
294,205,155026,1,8,0:0:0:0:
283,217,155112,1,0,1:0:0:0:
461,141,155282,5,8,2:0:0:0:
354,27,155453,1,0,1:0:0:0:
318,15,155538,1,0,3:0:0:0:
281,22,155623,1,8,0:0:0:0:
251,46,155708,1,0,3:0:0:0:
237,81,155793,1,8,0:0:0:0:
126,195,155964,5,8,0:0:0:0:
90,207,156049,1,8,0:0:0:0:
53,200,156134,1,2,1:2:0:0:
23,176,156220,1,0,3:0:0:0:
9,141,156305,1,10,3:2:0:0:
15,103,156390,1,0,3:0:0:0:
40,74,156475,6,0,P|106:93|153:106,1,109.678,6|0,1:2|0:0,0:0:0:0:
205,176,156731,1,8,0:0:0:0:
220,169,156816,2,0,L|298:149,1,54.52,2|0,1:2|0:0,0:0:0:0:
447,25,156987,6,0,P|488:67|477:121,1,109.04,10|0,0:0|1:0,0:0:0:0:
425,173,157242,1,0,3:0:0:0:
413,184,157328,2,0,P|394:216|407:244,1,54.52,10|8,0:0|0:0,0:0:0:0:
278,384,157498,5,2,1:2:0:0:
184,297,157668,1,2,0:3:0:0:
168,289,157754,1,8,0:0:0:0:
153,281,157839,2,0,L|135:212,1,54.52,0|0,1:0|0:0,0:0:0:0:
279,96,158009,2,0,L|265:148,1,55.158,8|0,0:0|0:0,0:0:0:0:
136,91,158180,5,8,0:3:0:0:
98,90,158265,1,0,3:0:0:0:
63,106,158350,1,8,0:2:0:0:
39,135,158435,1,0,3:0:0:0:
19,146,158521,5,8,0:3:0:0:
8,182,158606,1,8,0:3:0:0:
14,220,158691,1,8,0:0:0:0:
36,251,158776,1,8,0:0:0:0:
39,271,158862,5,8,0:3:0:0:
70,290,158947,1,8,0:3:0:0:
109,294,159032,1,4,0:3:0:0:
144,281,159117,1,4,0:3:0:0:
165,292,159203,6,0,P|224:307|297:325,1,109.04,6|0,1:2|0:0,0:0:0:0:
352,384,159458,2,0,P|411:369|484:351,1,109.04,8|0,0:0|0:0,0:0:0:0:
512,287,159714,6,0,P|520:262|453:208,1,109.04,10|0,0:0|1:0,0:0:0:0:
411,138,159970,1,0,3:0:0:0:
421,125,160055,2,0,P|440:89|449:54,1,54.52,2|8,1:2|0:0,0:0:0:0:
260,14,160225,6,0,P|214:36|141:59,1,109.678,10|8,0:2|0:0,0:0:0:0:
89,94,160481,1,8,0:0:0:0:
73,89,160566,2,0,P|51:118|53:140,1,54.52,0|0,1:0|0:0,0:0:0:0:
191,227,160737,2,0,P|188:200|169:181,1,54.52,8|0,0:0|0:0,0:0:0:0:
53,268,160907,6,0,P|3:288|-19:300,1,54.52,0|0,1:0|1:0,0:0:0:0:
160,364,161078,2,0,P|209:384|232:396,1,54.52,8|8,0:0|0:0,0:0:0:0:
327,244,161238,5,8,0:3:0:0:
336,229,161344,2,0,B|345:136,1,78.3000002986908,8|2,0:3|0:3,0:0:0:0:
357,61,161589,5,12,0:0:0:0:
501,209,161759,1,8,0:0:0:0:
486,215,161844,1,8,0:0:0:0:
471,220,161920,6,0,P|450:294|440:328,1,95.7000029205323,6|0,1:2|1:0,0:0:0:0:
325,221,162260,1,8,0:0:0:0:
224,311,162431,1,4,0:3:0:0:
229,324,162516,1,8,0:3:0:0:
234,337,162601,2,0,P|185:321|130:309,1,95.7000029205323,2|0,1:2|1:0,0:0:0:0:
0,384,162942,2,0,B|15:302|37:348|58:246,1,143.550004380798,8|0,0:0|0:0,0:0:0:0:
50,241,163295,5,2,1:2:0:0:
148,185,163465,1,0,1:0:0:0:
10,92,163635,2,0,P|71:70|110:56,1,87,8|4,0:0|3:3,0:0:0:0:
148,1,163891,1,8,0:3:0:0:
161,8,163964,1,0,1:0:0:0:
243,119,164127,1,0,1:0:0:0:
373,12,164290,2,0,P|430:15|465:93,1,143.550004380798,10|0,0:2|0:0,0:0:0:0:
458,99,164648,5,2,1:2:0:0:
303,244,164903,1,2,0:0:0:0:
314,252,164988,1,8,0:0:0:0:
435,344,165159,1,4,0:3:0:0:
448,338,165244,1,8,0:3:0:0:
461,332,165329,1,0,1:0:0:0:
393,206,165500,1,0,1:0:0:0:
263,333,165670,1,10,0:2:0:0:
180,170,165841,1,2,3:2:0:0:
187,157,165926,1,0,0:0:0:0:
193,144,166011,6,0,P|145:108|91:125,1,95.7000029205323,2|0,1:2|1:0,0:0:0:0:
0,200,166352,2,0,P|19:261|31:305,1,95.7000029205323,8|4,0:2|0:3,0:0:0:0:
84,351,166608,1,8,0:3:0:0:
95,359,166693,2,0,B|141:338|141:338|198:378,1,95.7000029205323,0|0,1:0|1:0,0:0:0:0:
308,230,167034,1,10,0:2:0:0:
366,336,167204,1,2,3:2:0:0:
483,227,167375,6,0,P|499:168|516:43,1,143.550004380798,6|0,1:2|0:0,0:0:0:0:
506,76,167716,1,10,0:0:0:0:
357,0,167886,1,4,0:3:0:0:
347,10,167971,1,8,0:3:0:0:
344,24,168057,1,0,1:0:0:0:
244,146,168227,1,2,1:2:0:0:
160,81,168398,2,0,P|97:63|51:45,1,95.7000029205323,10|0,0:0|3:0,0:0:0:0:
32,233,168738,5,0,1:0:0:0:
0,156,168909,1,0,1:0:0:0:
27,244,169079,1,8,0:0:0:0:
141,288,169250,1,4,0:3:0:0:
153,281,169335,1,8,0:3:0:0:
165,274,169420,1,0,1:0:0:0:
239,355,169591,1,0,1:0:0:0:
358,239,169761,2,0,P|374:172|309:122,1,143.550004380798,10|0,0:0|0:0,0:0:0:0:
315,131,170102,6,0,P|249:147|190:162,1,104.399996813965,14|0,0:0|1:0,0:0:0:0:
143,103,170443,1,2,1:2:0:0:
0,321,170613,6,0,P|66:337|125:352,1,104.399996813965,14|0,0:0|1:0,0:0:0:0:
172,293,170954,1,2,1:2:0:0:
33,131,171125,6,0,B|-2:173|-2:173|17:226,1,104.399996813965,14|0,0:0|3:0,0:0:0:0:
225,384,171466,1,0,1:0:0:0:
336,297,171636,5,0,1:0:0:0:
350,290,171721,1,8,0:0:0:0:
365,286,171807,2,0,P|398:262|420:233,1,52.1999984069825,8|0,0:0|0:0,0:0:0:0:
304,201,171977,5,0,1:0:0:0:
290,194,172062,1,0,1:0:0:0:
275,190,172148,2,0,P|242:166|220:137,1,52.1999984069825,8|8,2:3|2:3,0:0:0:0:
327,93,172318,5,4,0:3:0:0:
337,81,172403,1,8,0:3:0:0:
338,65,172488,1,10,0:0:0:0:
280,5,172659,1,0,1:0:0:0:
66,211,172829,6,0,P|50:146|23:76,1,113.099994822693,14|0,0:2|1:2,0:0:0:0:
93,13,173170,1,0,1:2:0:0:
229,305,173341,6,0,P|245:240|272:170,1,113.099994822693,14|2,0:2|1:2,0:0:0:0:
202,107,173682,1,0,1:2:0:0:
378,267,173852,6,0,P|435:261|465:208,1,113.099994822693,12|0,0:2|1:2,0:0:0:0:
406,134,174193,1,0,1:2:0:0:
213,317,174363,6,0,P|156:311|126:258,1,113.099994822693,12|0,0:0|1:0,0:0:0:0:
185,184,174704,1,0,1:2:0:0:
334,357,174875,6,0,P|448:384|489:394,1,113.099994822693,12|0,0:2|1:2,0:0:0:0:
322,70,175216,2,0,P|208:97|167:107,1,113.099994822693,12|0,0:2|0:2,0:0:0:0:
28,0,175557,6,0,P|-5:50|23:101,1,95.7000029205323,4|0,1:2|0:0,0:0:0:0:
192,196,175898,2,0,B|77:229|155:272|11:324,1,191.400005841065,8|0,0:2|1:2,0:0:0:0:
70,156,176409,1,0,1:2:0:0:
250,274,176579,2,0,P|306:293|352:310,1,95.7000029205323,8|0,0:2|0:0,0:0:0:0:
505,384,176920,6,0,P|475:313|460:210,1,143.550004380798,2|0,1:2|0:0,0:0:0:0:
471,237,177261,1,10,0:2:0:0:
331,84,177432,2,0,B|301:120|301:120|323:181,1,95.7000029205323,2|0,0:0|1:0,0:0:0:0:
418,117,177773,5,0,1:0:0:0:
305,255,177943,1,10,0:2:0:0:
191,111,178113,1,2,0:2:0:0:
178,104,178199,1,2,0:0:0:0:
165,97,178284,6,0,P|112:118|112:246,1,191.400005841065,0|8,1:2|0:2,0:0:0:0:
196,208,178795,1,0,0:0:0:0:
309,366,178966,5,0,1:0:0:0:
222,329,179136,1,0,1:0:0:0:
355,250,179307,2,0,P|410:272|462:285,1,95.7000029205323,8|0,0:2|0:2,0:0:0:0:
509,233,179562,1,0,3:0:0:0:
500,221,179648,6,0,P|474:146|458:68,1,143.550004380798,0|0,1:2|0:0,0:0:0:0:
469,74,179988,1,10,0:2:0:0:
309,27,180159,5,2,0:2:0:0:
300,38,180244,1,2,0:2:0:0:
290,48,180329,2,0,B|251:18|251:18|181:35,1,95.7000029205323,2|0,1:2|0:2,0:0:0:0:
127,40,180585,1,2,1:2:0:0:
114,33,180670,1,10,0:2:0:0:
10,138,180841,1,0,1:0:0:0:
178,193,181011,6,0,B|266:207|207:240|333:274,1,143.550004380798,2|0,1:2|0:0,0:0:0:0:
305,271,181352,2,0,B|330:231|330:231|297:163,1,95.7000029205323,8|0,0:2|0:2,0:0:0:0:
408,106,181693,5,2,1:2:0:0:
452,232,181863,1,0,1:2:0:0:
297,73,182034,2,0,P|232:57|174:32,1,95.7000029205323,8|0,0:2|0:2,0:0:0:0:
142,2,182290,1,0,3:0:0:0:
129,9,182375,6,0,B|69:112|168:70|90:206,2,191.400005841065,2|10|2,1:2|0:2|1:2,0:0:0:0:
209,136,183227,2,0,P|228:194|233:219,1,47.8500014602662,0|0,1:2|0:0,0:0:0:0:
180,250,183398,1,10,0:2:0:0:
298,327,183568,1,2,0:2:0:0:
389,135,183738,6,0,P|454:137|491:245,1,191.400005841065,2|8,1:2|0:2,0:0:0:0:
289,324,184250,1,2,0:2:0:0:
285,310,184335,1,2,0:2:0:0:
280,296,184420,1,0,1:2:0:0:
352,239,184591,5,0,1:2:0:0:
200,143,184761,2,0,P|182:195|162:248,1,95.7000029205323,8|0,0:2|0:2,0:0:0:0:
67,322,185102,5,2,1:2:0:0:
171,241,185273,1,0,1:0:0:0:
7,154,185443,1,10,0:2:0:0:
93,83,185613,1,2,0:2:0:0:
80,76,185699,1,2,0:0:0:0:
67,69,185784,1,0,1:2:0:0:
193,151,185954,5,2,1:2:0:0:
300,0,186125,2,0,P|318:52|338:105,1,95.7000029205323,12|2,0:2|0:2,0:0:0:0:
512,147,186466,6,0,B|465:136|435:175|437:184|441:195|414:253|343:234,1,191.400005841065,4|8,1:2|0:2,0:0:0:0:
273,286,186977,1,0,0:0:0:0:
133,174,187148,5,0,1:0:0:0:
220,124,187318,1,0,1:0:0:0:
125,183,187488,2,0,P|66:167|4:152,1,95.7000029205323,8|2,0:0|2:0,0:0:0:0:
237,37,187829,5,2,1:2:0:0:
143,94,188000,1,2,1:2:0:0:
266,214,188170,1,8,0:0:0:0:
385,131,188341,5,2,2:2:0:0:
377,118,188426,1,0,0:0:0:0:
369,105,188511,1,2,1:2:0:0:
254,205,188682,1,2,1:2:0:0:
422,294,188852,2,0,P|476:274|540:257,1,95.7000029205323,8|2,0:0|0:0,0:0:0:0:
242,198,189193,6,0,B|133:222|211:281|83:314,2,191.400005841065,2|10|2,1:2|0:0|1:2,0:0:0:0:
330,151,190045,1,0,1:0:0:0:
167,70,190216,1,10,0:0:0:0:
257,1,190386,1,2,0:0:0:0:
263,13,190471,1,2,0:0:0:0:
269,25,190557,6,0,P|344:47|399:64,1,95.7000029205323,2|2,1:2|0:0,0:0:0:0:
493,137,190898,1,8,0:0:0:0:
339,207,191068,1,2,2:0:0:0:
332,194,191153,1,2,0:0:0:0:
324,181,191238,1,2,1:2:0:0:
235,292,191409,5,0,1:0:0:0:
108,142,191579,2,0,P|63:159|14:171,1,95.7000029205323,10|2,0:0|0:0,0:0:0:0:
250,11,191920,6,0,P|229:83|211:207,1,191.400005841065,6|10,1:2|0:0,0:0:0:0:
78,339,192432,2,0,P|66:287|107:255,1,95.7000029205323,2|0,0:0|1:0,0:0:0:0:
186,368,192773,1,0,1:0:0:0:
313,257,192943,1,8,0:0:0:0:
413,326,193113,1,2,0:0:0:0:
489,201,193284,6,0,P|471:158|460:92,1,95.7000029205323,2|0,1:2|1:2,0:0:0:0:
358,8,193625,1,8,0:0:0:0:
258,100,193795,2,0,P|226:85|201:74,1,47.8500014602662,0|0,1:0|1:0,0:0:0:0:
86,9,193966,5,10,0:0:0:0:
161,173,194136,1,0,1:0:0:0:
76,2,194307,2,0,P|55:68|43:101,1,95.7000029205323,10|2,0:0|0:0,0:0:0:0:
219,231,194648,6,0,P|270:279|233:376,1,143.550004380798,2|0,1:2|0:0,0:0:0:0:
251,355,194988,1,10,0:0:0:0:
91,258,195159,5,2,0:0:0:0:
80,247,195244,1,2,0:0:0:0:
65,245,195329,1,0,1:0:0:0:
167,163,195500,1,0,1:0:0:0:
8,53,195670,1,8,2:0:0:0:
248,0,195926,5,8,0:0:0:0:
256,11,196011,1,2,1:2:0:0:
344,51,196182,1,0,1:0:0:0:
269,124,196352,5,10,0:2:0:0:
164,171,196523,1,0,1:0:0:0:
312,223,196693,5,10,0:2:0:0:
470,294,196863,1,0,1:0:0:0:
257,384,197034,6,0,P|245:330|222:256,1,95.7000029205323,10|0,2:2|0:0,0:0:0:0:
387,129,197383,5,2,1:2:0:0:
242,37,197551,1,8,0:0:0:0:
217,37,197635,1,8,0:0:0:0:
199,53,197720,1,8,0:0:0:0:
47,160,197888,1,4,2:3:0:0:
22,160,197972,1,4,0:3:0:0:
4,144,198057,1,0,1:3:0:0:
119,7,198225,5,4,0:3:0:0:
98,49,198309,1,4,0:3:0:0:
108,95,198394,1,0,1:0:0:0:
138,132,198478,1,4,0:3:0:0:
168,169,198562,1,4,0:3:0:0:
171,216,198647,1,8,0:3:0:0:
153,257,198748,6,0,L|90:279,1,65.25,6|0,0:2|0:0,0:0:0:0:
164,339,200135,2,0,L|230:360,1,69.6,2|0,0:0|0:0,0:0:0:0:
451,224,202840,6,0,L|429:142,1,69.58144,2|2,0:0|0:0,0:0:0:0:
354,124,203351,2,0,L|376:42,1,69.7856,2|2,0:0|0:0,0:0:0:0:
260,5,203862,6,0,B|186:17|231:37|151:61,1,121.92064,2|0,0:0|0:0,0:0:0:0:
151,66,204544,2,0,L|107:53,1,34.8928,2|0,0:0|0:0,0:0:0:0:
47,91,204885,5,2,0:0:0:0:
173,191,205226,1,2,0:0:0:0:
33,265,205567,6,0,L|-7:252,2,34.79072,2|0|2,0:0|0:0|0:0,0:0:0:0:
90,327,206078,2,0,L|136:314,1,34.8928,2|0,0:0|0:0,0:0:0:0:
189,267,206419,5,2,0:0:0:0:
189,267,206590,2,0,P|214:265|262:327,2,104.37216,2|0|0,0:0|0:0|0:0,0:0:0:0:
364,127,207953,6,0,P|373:107|367:81,1,43.616,2|2,0:0|0:0,0:0:0:0:
314,33,208294,2,0,P|260:53|231:63,1,87.232,2|2,0:0|0:0,0:0:0:0:
168,121,208805,2,0,P|117:98|84:87,1,87.232,2|2,0:0|0:0,0:0:0:0:
18,175,209317,6,0,P|-21:244|34:329,1,173.9536,2|2,0:0|0:0,0:0:0:0:
100,375,210169,1,0,0:0:0:0:
100,375,210340,2,0,P|146:354|186:342,1,86.9768,2|2,0:0|0:0,0:0:0:0:
353,351,211021,6,0,P|339:317|324:252,1,87.232,2|2,0:0|0:0,0:0:0:0:
380,213,211533,1,2,0:0:0:0:
380,213,211703,2,0,P|411:225|426:230,1,43.616,0|2,0:0|0:0,0:0:0:0:
484,185,212044,2,0,P|498:151|513:86,1,87.232,2|2,0:0|0:3,0:0:0:0:
209,8,212896,5,8,0:3:0:0:
194,33,212982,1,8,0:3:0:0:
200,61,213067,2,0,B|253:119|196:177|187:174|176:172|125:237|182:293,1,258.647524936695,2|0,1:2|0:2,0:0:0:0:
187,296,213749,6,0,P|228:276|235:224,1,82.385517793007,6|0,1:2|0:0,0:0:0:0:
161,153,214090,2,0,P|126:170|63:191,1,82.385517793007,0|2,1:0|0:0,0:0:0:0:
0,102,214430,2,0,P|-4:45|73:6,1,124.30559668951,2|0,1:2|0:0,0:0:0:0:
54,9,214771,2,0,P|89:26|152:47,1,82.870397793007,10|2,0:2|0:2,0:0:0:0:
287,158,215112,6,0,B|333:66|258:93|323:-19,2,165.498355586014,2|0|0,1:2|1:2|1:2,0:0:0:0:
177,261,215965,1,0,3:2:0:0:
165,266,216050,1,0,3:0:0:0:
153,270,216135,2,0,B|130:234|130:234|146:198,1,82.870397793007,8|0,0:2|0:0,0:0:0:0:
292,164,216476,6,0,P|354:182|405:197,1,82.870397793007,2|0,1:2|0:2,0:0:0:0:
486,118,216817,2,0,P|515:163|495:202,1,82.385517793007,2|2,1:2|2:2,0:0:0:0:
449,287,217158,2,0,P|437:326|426:366,1,82.385517793007,0|2,1:2|0:2,0:0:0:0:
272,307,217499,2,0,B|189:319|241:345|150:367,1,123.82071668951,8|2,0:2|0:0,0:0:0:0:
156,360,217840,6,0,P|134:296|113:257,1,82.385517793007,2|0,1:2|0:2,0:0:0:0:
291,117,218180,2,0,P|274:154|262:194,1,82.870397793007,0|0,1:2|0:2,0:0:0:0:
54,179,218521,5,8,0:2:0:0:
41,152,218635,1,8,0:3:0:0:
50,124,218749,1,8,0:3:0:0:
73,106,218862,1,8,0:3:0:0:
158,0,219090,5,8,0:3:0:0:
169,11,219203,2,0,B|228:107|151:81|208:175,1,165.299995586014,6|2,1:2|0:0,0:0:0:0:
315,31,219715,5,0,1:2:0:0:
317,40,219771,1,0,1:0:0:0:
320,49,219828,1,0,1:0:0:0:
323,57,219885,2,0,P|410:87|475:107,1,124.30559668951,14|2,0:2|0:0,0:0:0:0:
450,104,220226,1,2,1:2:0:0:
258,384,220567,6,0,B|238:311|238:311|244:298|244:298|218:208,1,165.255915586014,6|2,1:2|0:2,0:0:0:0:
274,141,221078,1,0,1:2:0:0:
131,334,221249,6,0,P|69:359|28:383,1,91.0576772122193,10|0,0:2|1:2,0:0:0:0:
357,234,221590,2,0,P|397:257|456:275,1,99.729841908302,14|0,2:2|1:2,0:0:0:0:
512,231,221845,1,0,1:2:0:0:
504,223,221930,5,12,0:2:0:0:
355,94,222101,2,0,B|328:49|328:49|367:-14,1,104.678396813965,8|0,0:2|1:2,0:0:0:0:
431,0,222357,1,0,1:2:0:0:
437,8,222442,5,12,0:2:0:0:
245,152,222612,2,0,P|187:173|132:198,1,104.678396813965,8|0,0:2|1:2,0:0:0:0:
6,64,222953,5,14,0:2:0:0:
155,197,223124,1,2,1:2:0:0:
0,309,223292,6,0,P|-12:279|51:235,1,104.399996813965,12|0,0:2|0:0,0:0:0:0:
129,293,223539,6,0,P|183:314|244:342,1,113.099994822693,8|0,0:2|0:0,0:0:0:0:
322,267,223786,6,0,B|341:236|341:236|311:173,1,69.6,8|0,0:2|0:0,0:0:0:0:
256,148,223994,1,2,0:1:0:0:
256,148,224658,6,0,P|205:168|139:194,1,108.75,6|0,1:2|0:0,0:0:0:0:
92,234,224913,1,10,0:0:0:0:
77,227,224998,2,0,P|56:201|64:168,1,54.375,2|0,1:2|0:0,0:0:0:0:
195,60,225169,5,10,0:0:0:0:
312,236,225339,1,0,1:0:0:0:
428,77,225510,2,0,P|392:66|366:47,1,54.375,2|8,1:2|0:0,0:0:0:0:
264,152,225676,5,10,0:0:0:0:
413,263,225842,1,2,0:3:0:0:
428,257,225926,1,8,0:0:0:0:
443,251,226022,1,0,1:0:0:0:
356,145,226192,5,8,0:0:0:0:
252,324,226362,1,2,1:2:0:0:
209,327,226448,1,0,3:0:0:0:
172,305,226533,1,2,0:3:0:0:
154,266,226618,1,0,3:0:0:0:
131,258,226703,5,8,0:3:0:0:
106,222,226789,1,8,0:3:0:0:
107,179,226874,1,8,0:0:0:0:
132,144,226959,1,8,0:0:0:0:
129,118,227044,6,0,L|202:89,1,54.375,8|8,0:3|0:3,0:0:0:0:
311,0,227215,1,4,0:3:0:0:
297,9,227300,1,4,0:3:0:0:
291,24,227385,6,0,P|310:94|326:141,1,108.75,6|0,1:2|0:0,0:0:0:0:
388,155,227641,1,8,0:0:0:0:
403,150,227726,2,0,L|491:178,1,54.375,2|0,1:2|0:0,0:0:0:0:
512,305,227897,5,10,0:0:0:0:
412,363,228067,1,0,1:0:0:0:
371,377,228152,1,0,3:0:0:0:
328,370,228237,1,2,1:2:0:0:
294,344,228323,1,8,0:0:0:0:
277,305,228408,1,10,0:0:0:0:
450,206,228578,5,2,0:3:0:0:
462,195,228664,1,8,0:0:0:0:
463,178,228749,1,0,1:0:0:0:
306,118,228919,1,8,2:0:0:0:
510,0,229083,5,0,1:0:0:0:
493,39,229166,1,0,3:0:0:0:
459,65,229248,1,8,0:0:0:0:
416,72,229331,1,0,3:0:0:0:
375,58,229431,2,0,L|280:22,1,54.375,8|0,0:0|1:0,0:0:0:0:
202,212,229601,2,0,L|251:189,1,54.375,8|8,0:0|0:0,0:0:0:0:
167,66,229771,5,2,1:2:0:0:
126,52,229857,1,0,3:0:0:0:
83,59,229942,1,10,3:2:0:0:
49,85,230027,1,0,3:0:0:0:
32,124,230112,6,0,P|46:187|76:244,1,108.75,6|0,1:2|0:0,0:0:0:0:
142,283,230367,1,8,0:0:0:0:
144,266,230452,2,0,P|163:225|183:204,1,55.158,2|0,1:2|0:0,0:0:0:0:
306,124,230623,6,0,P|387:158|444:176,1,109.04,10|0,0:0|1:0,0:0:0:0:
481,133,230879,1,0,0:0:0:0:
492,121,230933,2,0,B|503:98|503:98|488:66,1,54.375,10|8,0:0|0:0,0:0:0:0:
324,240,231103,5,2,1:2:0:0:
432,328,231273,1,2,0:3:0:0:
447,321,231359,1,8,0:0:0:0:
462,315,231444,1,0,1:0:0:0:
401,158,231614,5,8,0:0:0:0:
216,290,231785,1,8,0:3:0:0:
185,268,231870,1,0,3:0:0:0:
167,234,231955,1,8,0:2:0:0:
166,197,232040,1,0,3:0:0:0:
181,162,232157,2,0,L|251:136,1,54.375,8|8,0:3|0:3,0:0:0:0:
353,53,232327,1,8,0:0:0:0:
390,53,232412,1,8,0:0:0:0:
413,82,232497,1,8,0:3:0:0:
176,5,232668,5,4,0:3:0:0:
188,15,232753,1,4,0:3:0:0:
200,25,232838,2,0,P|221:83|176:142,1,108.75,6|0,1:2|0:0,0:0:0:0:
143,172,233093,1,8,0:0:0:0:
130,161,233178,1,2,1:2:0:0:
242,336,233349,6,0,P|259:298|270:270,1,54.375,10|0,0:0|0:0,0:0:0:0:
428,190,233519,1,0,1:0:0:0:
417,153,233605,1,8,0:0:0:0:
407,116,233690,1,2,1:2:0:0:
397,79,233775,1,8,0:0:0:0:
387,43,233860,6,0,B|330:13|292:66|292:78|294:91|274:149|191:127,1,217.5,10|0,0:2|1:0,0:0:0:0:
34,62,234372,1,8,0:0:0:0:
44,74,234457,2,0,P|67:149|84:199,1,108.75,8|0,0:0|1:0,0:0:0:0:
38,247,234713,1,8,0:0:0:0:
166,318,234883,6,0,P|195:306|230:282,1,54.375,8|8,0:3|0:3,0:0:0:0:
345,210,235053,1,4,0:3:0:0:
335,222,235139,1,4,0:3:0:0:
319,226,235224,2,0,P|289:214|254:190,1,54.375,12|0,0:0|0:0,0:0:0:0:
211,113,235394,1,2,0:0:0:0:
376,0,235565,6,0,P|366:55|350:118,1,95.7000029205323,6|0,1:2|1:0,0:0:0:0:
234,0,235906,1,8,0:0:0:0:
123,122,236076,5,4,0:3:0:0:
110,128,236161,1,8,0:3:0:0:
95,136,236247,2,0,P|60:104|2:110,1,95.7000029205323,2|0,1:2|1:0,0:0:0:0:
150,232,236588,1,8,0:0:0:0:
71,284,236758,1,2,3:2:0:0:
159,221,236928,6,0,P|176:276|193:320,1,95.7000029205323,2|0,1:2|1:2,0:0:0:0:
267,382,237269,1,8,0:0:0:0:
408,285,237440,5,4,3:3:0:0:
416,273,237525,1,8,0:3:0:0:
413,258,237610,1,0,1:0:0:0:
300,196,237781,1,0,1:0:0:0:
470,113,237951,2,0,P|425:117|370:24,1,143.550004380798,10|0,0:2|0:0,0:0:0:0:
375,37,238292,5,2,1:2:0:0:
177,140,238548,1,2,0:0:0:0:
164,132,238633,1,8,0:0:0:0:
75,209,238803,1,4,0:3:0:0:
61,214,238889,1,8,0:3:0:0:
47,219,238974,1,0,1:0:0:0:
142,311,239144,5,0,1:0:0:0:
261,221,239315,2,0,P|323:202|360:189,1,95.7000029205323,10|2,0:2|3:2,0:0:0:0:
424,224,239570,1,0,0:0:0:0:
436,230,239656,5,2,1:2:0:0:
512,137,239826,1,0,1:0:0:0:
367,53,239997,2,0,P|305:34|268:21,1,95.7000029205323,8|4,0:2|0:3,0:0:0:0:
211,63,240252,1,8,0:3:0:0:
198,72,240338,6,0,P|171:35|198:-24,1,95.7000029205323,0|0,1:0|1:0,0:0:0:0:
287,133,240679,1,10,0:2:0:0:
154,192,240842,1,2,3:2:0:0:
140,186,240924,1,0,0:0:0:0:
128,181,241020,6,0,P|71:212|85:301,1,143.550004380798,6|0,1:2|0:0,0:0:0:0:
82,286,241360,1,10,0:0:0:0:
201,384,241531,1,4,0:3:0:0:
210,372,241616,1,8,0:3:0:0:
218,360,241701,1,0,1:0:0:0:
333,332,241872,5,2,1:2:0:0:
248,193,242042,2,0,P|232:132|221:67,1,95.7000029205323,10|0,0:0|3:0,0:0:0:0:
254,27,242298,1,0,0:0:0:0:
264,16,242383,5,0,1:0:0:0:
146,58,242554,1,0,1:0:0:0:
333,160,242724,1,8,0:0:0:0:
413,80,242895,1,4,0:3:0:0:
412,65,242980,1,8,0:3:0:0:
402,54,243065,1,0,1:0:0:0:
320,151,243235,5,0,1:0:0:0:
467,233,243406,2,0,B|511:291|511:291|462:377,1,143.550004380798,10|0,0:0|0:0,0:0:0:0:
467,356,243747,6,0,P|415:320|371:339,1,95.7000029205323,14|0,0:0|1:0,0:0:0:0:
309,227,244088,1,2,1:2:0:0:
193,332,244258,1,14,0:0:0:0:
180,325,244343,1,2,0:0:0:0:
167,318,244429,1,0,1:0:0:0:
64,373,244599,5,2,1:2:0:0:
2,216,244770,2,0,P|26:142|43:48,1,143.550004380798,14|0,0:0|0:0,0:0:0:0:
31,65,245110,5,8,2:0:0:0:
58,46,245196,1,8,0:0:0:0:
90,54,245281,1,2,2:3:0:0:
189,203,245451,1,8,2:0:0:0:
157,211,245537,1,8,0:0:0:0:
130,192,245622,1,2,2:3:0:0:
226,61,245793,5,2,1:2:0:0:
326,148,245958,1,8,0:0:0:0:
363,152,246041,1,8,0:0:0:0:
394,174,246124,1,10,0:0:0:0:
410,209,246207,1,8,2:2:0:0:
424,244,246290,1,8,2:0:0:0:
451,271,246373,1,8,0:0:0:0:
488,280,246475,6,0,P|383:312|351:322,1,104.399996813965,6|0,1:2|0:2,0:0:0:0:
328,359,246730,1,10,0:2:0:0:
317,370,246815,1,0,1:0:0:0:
130,274,246986,5,10,0:0:0:0:
245,235,247147,1,2,1:2:0:0:
178,126,247317,1,0,1:0:0:0:
33,282,247487,6,0,B|-5:250|-5:250|25:149,1,104.399996813965,2|0,1:2|0:0,0:0:0:0:
61,126,247743,2,0,B|99:94|99:94|69:-7,1,104.399996813965,8|0,2:2|0:0,0:0:0:0:
12,0,247999,1,8,0:0:0:0:
192,133,248169,6,0,P|251:105|263:98,2,52.1999984069825,2|0|0,1:2|0:0|0:0,0:0:0:0:
250,214,248509,6,0,P|311:236|366:259,1,104.399996813965,2|2,1:2|0:0,0:0:0:0:
401,304,248765,1,0,3:3:0:0:
413,313,248850,1,2,1:2:0:0:
509,187,249021,1,10,0:0:0:0:
498,156,249106,1,10,0:0:0:0:
490,125,249203,6,0,L|385:88,1,104.399996813965,2|0,1:2|0:0,0:0:0:0:
318,56,249458,2,0,L|213:93,1,104.399996813965,8|0,2:2|0:0,0:0:0:0:
145,57,249714,1,10,0:0:0:0:
38,157,249884,5,0,1:0:0:0:
46,170,249970,1,8,0:0:0:0:
53,183,250055,1,0,1:0:0:0:
5,300,250225,6,0,P|34:349|93:348,1,104.399996813965,2|0,1:2|0:0,0:0:0:0:
147,291,250481,2,0,P|176:242|235:243,1,104.399996813965,10|0,2:2|0:0,0:0:0:0:
292,277,250737,1,10,2:0:0:0:
421,196,250907,6,0,P|398:141|383:90,1,104.399996813965,0|0,1:0|1:0,0:0:0:0:
224,7,251248,2,0,P|165:4|128:101,1,156.599995220947,2|0,1:2|0:0,0:0:0:0:
132,91,251589,2,0,L|201:120,1,52.1999984069825,2|8,1:2|0:0,0:0:0:0:
300,215,251759,1,8,0:0:0:0:
318,240,251845,1,8,0:0:0:0:
310,270,251930,6,0,B|263:285|263:285|258:293|258:293|208:310,1,104.399996813965,6|0,1:2|0:0,0:0:0:0:
153,362,252185,2,0,B|116:328|116:328|107:328|107:328|67:293,1,104.399996813965,8|0,2:2|0:0,0:0:0:0:
0,285,252441,1,8,0:0:0:0:
154,162,252612,5,2,1:2:0:0:
162,148,252697,1,0,1:0:0:0:
170,134,252782,1,0,1:0:0:0:
0,6,252953,6,0,P|29:76|49:122,1,104.399996813965,2|0,1:2|0:0,0:0:0:0:
112,43,253208,2,0,P|150:4|196:9,1,104.399996813965,10|0,2:2|2:0,0:0:0:0:
273,31,253464,1,8,0:0:0:0:
290,198,253634,6,0,L|239:180,2,52.1999984069825,0|8|0,1:2|0:0|1:0,0:0:0:0:
430,151,253975,5,2,1:2:0:0:
351,274,254146,1,2,0:0:0:0:
494,331,254316,1,2,1:2:0:0:
468,225,254487,5,10,0:0:0:0:
459,229,254572,1,10,0:0:0:0:
450,235,254657,2,0,B|382:250|421:269|334:289,1,104.399996813965,2|0,1:2|2:0,0:0:0:0:
301,343,254898,2,0,B|233:328|272:309|185:289,1,104.399996813965,8|0,2:2|2:0,0:0:0:0:
135,335,255168,1,8,0:0:0:0:
40,208,255338,5,0,1:0:0:0:
47,201,255423,2,0,P|76:122|82:85,1,104.399996813965,8|0,0:0|3:0,0:0:0:0:
72,88,255679,6,0,P|159:112|210:126,1,104.399996813965,0|2,1:0|0:0,0:0:0:0:
246,67,255935,2,0,P|259:117|273:167,1,104.399996813965,2|0,0:0|0:0,0:0:0:0:
355,195,256190,2,0,L|340:259,1,52.1999984069825,2|8,0:0|0:0,0:0:0:0:
283,336,256360,5,8,0:0:0:0:
262,360,256446,1,8,0:0:0:0:
230,365,256531,1,8,0:0:0:0:
200,354,256616,1,8,0:0:0:0:
178,351,256701,5,10,0:0:0:0:
165,312,256787,1,8,0:0:0:0:
152,273,256872,1,8,0:3:0:0:
139,234,256957,1,8,0:3:0:0:
165,201,257042,5,14,0:2:0:0:
121,174,257127,1,8,0:0:0:0:
70,175,257213,1,8,0:0:0:0:
29,206,257298,1,8,0:2:0:0:
11,255,257383,6,0,P|79:282|148:311,1,117.450000448036,6|0,1:2|0:0,0:0:0:0:
164,368,257639,1,0,1:0:0:0:
174,362,257724,2,0,L|267:336,1,58.7250002240181,8|0,0:0|0:0,0:0:0:0:
325,213,257895,1,0,1:0:0:0:
457,349,258066,1,8,0:0:0:0:
472,331,258156,1,0,1:0:0:0:
469,307,258247,1,2,1:2:0:0:
256,156,258407,6,0,P|315:129|396:119,1,117.450000448036,10|0,0:0|0:0,0:0:0:0:
438,59,258662,1,2,1:2:0:0:
430,51,258747,2,0,L|343:17,1,58.7250002240181,8|0,0:0|0:0,0:0:0:0:
248,167,258918,5,2,1:2:0:0:
103,96,259088,1,8,0:0:0:0:
92,74,259174,1,0,1:0:0:0:
103,53,259259,2,0,P|134:32|159:36,1,58.7250002240181,2|2,0:0|1:2,0:0:0:0:
240,178,259429,5,8,0:0:0:0:
102,254,259599,2,0,P|122:292|133:329,1,58.7250002240181,0|0,1:0|0:0,0:0:0:0:
250,379,259769,2,0,B|367:360|301:332|432:316,1,176.175000672054,8|2,0:0|0:0,0:0:0:0:
426,326,260110,6,0,B|453:276|453:276|407:217,1,117.450000448036,8|0,0:0|0:0,0:0:0:0:
325,127,260366,1,0,1:0:0:0:
312,138,260451,2,0,L|212:169,1,58.7250002240181,8|0,0:0|0:0,0:0:0:0:
120,262,260622,5,2,1:2:0:0:
0,86,260792,2,0,L|30:18,1,58.7250002240181,8|0,2:2|0:0,0:0:0:0:
92,103,260963,2,0,L|115:156,1,58.7250002240181,0|0,1:0|0:0,0:0:0:0:
179,50,261133,5,10,2:2:0:0:
0,268,261389,1,0,1:0:0:0:
12,280,261474,1,8,0:0:0:0:
122,355,261644,1,0,1:0:0:0:
263,238,261815,6,0,P|229:234|194:207,1,59.5706402240181,8|0,0:0|0:0,0:0:0:0:
125,152,261985,1,0,1:0:0:0:
259,43,262156,5,8,0:0:0:0:
273,53,262241,1,0,1:0:0:0:
279,69,262326,1,0,1:0:0:0:
385,165,262497,1,8,0:0:0:0:
382,129,262582,1,8,0:0:0:0:
399,97,262667,1,2,0:0:0:0:
428,77,262752,1,2,0:0:0:0:
463,76,262838,6,0,P|484:158|499:211,1,118.452240448036,8|0,0:0|0:0,0:0:0:0:
459,257,263093,2,0,L|433:344,1,58.7250002240181,0|8,1:0|0:0,0:0:0:0:
254,229,263349,6,0,P|269:192|280:153,1,58.7250002240181,2|0,1:2|0:0,0:0:0:0:
239,99,263520,1,8,0:0:0:0:
265,243,263690,1,2,1:2:0:0:
109,206,263860,6,0,P|37:214|6:264,1,119.141280448036,8|0,0:2|0:0,0:0:0:0:
63,307,264116,1,0,1:3:0:0:
79,313,264201,2,0,P|112:304|133:267,1,58.7250002240181,10|0,0:0|0:0,0:0:0:0:
246,217,264372,5,2,1:2:0:0:
356,367,264542,2,0,P|409:337|474:328,1,117.450000448036,8|2,0:0|1:2,0:0:0:0:
377,174,264883,6,0,P|346:99|313:-12,1,176.175000672054,10|0,0:0|0:0,0:0:0:0:
332,1,265224,2,0,P|397:19|446:39,1,117.450000448036,14|0,0:0|0:0,0:0:0:0:
196,89,265565,6,0,B|120:111|154:131|78:155,1,126.150003849793,14|0,0:0|0:0,0:0:0:0:
3,175,265846,1,2,1:2:0:0:
12,184,265940,2,0,P|29:223|46:244,1,63.0750019248963,0|0,1:2|1:2,0:0:0:0:
73,355,266076,5,10,0:0:0:0:
223,248,266240,1,2,0:0:0:0:
233,242,266323,2,0,B|316:253|261:285|369:309,1,126.150003849793,0|0,1:0|0:0,0:0:0:0:
410,332,266587,6,0,B|443:281|443:281|403:227,1,126.150003849793,14|0,0:2|0:3,0:0:0:0:
311,146,266842,1,2,1:2:0:0:
290,117,266927,1,0,1:2:0:0:
295,82,267013,1,0,1:2:0:0:
321,58,267098,2,0,P|392:40|452:17,1,126.150003849793,10|0,0:0|0:0,0:0:0:0:
504,70,267354,1,0,1:0:0:0:
508,87,267439,2,0,P|497:115|482:144,1,63.0750019248963,0|0,1:0|0:0,0:0:0:0:
330,245,267609,5,10,0:0:0:0:
198,115,267780,2,0,P|170:129|140:141,1,63.0750019248963,2|8,0:0|0:0,0:0:0:0:
0,226,267950,5,8,0:0:0:0:
8,186,268035,1,8,0:0:0:0:
16,145,268121,1,8,0:0:0:0:
23,105,268206,1,10,0:0:0:0:
31,65,268291,1,2,0:3:0:0:
