osu file format v14

[General]
AudioFilename: audio.mp3
AudioLeadIn: 0
PreviewTime: 202413
Countdown: 0
SampleSet: Soft
StackLeniency: 0.9
Mode: 0
LetterboxInBreaks: 0
WidescreenStoryboard: 1

[Editor]
Bookmarks: 223805
DistanceSpacing: 0.7
BeatDivisor: 4
GridSize: 32
TimelineZoom: 1.8

[Metadata]
Title:I will...
TitleUnicode:I will...
Artist:Aoi Eir
ArtistUnicode:藍井エイル
Creator:iljaaz
Version:Centoria
Source:ソードアート・オンライン アリシゼーション War of Underworld
Tags:soop so0p Kowari haruto_aizawa Haruto Yudragen ChaoticRed Sword Art Online SAO alicization 3rd season eugeo shino asada sinon shinon ED ending full ver version japanese anime kudosu pop
BeatmapID:2537859
BeatmapSetID:1219927

[Difficulty]
HPDrainRate:6.4
CircleSize:4.4
OverallDifficulty:8.4
ApproachRate:9.3
SliderMultiplier:1.74
SliderTickRate:1

[Events]
//Background and Video events
0,0,"sinon2.jpg",0,0
//Break Periods
//Storyboard Layer 0 (Background)
//Storyboard Layer 1 (Fail)
//Storyboard Layer 2 (Pass)
//Storyboard Layer 3 (Foreground)
//Storyboard Layer 4 (Overlay)
//Storyboard Sound Samples

[TimingPoints]
283,340.909090909091,4,2,1,40,1,0
283,-100,4,2,1,40,0,0
340,340.909090909091,4,2,1,40,1,0
340,-100,4,2,1,40,0,0
5794,-100,4,2,1,55,0,0
11249,-100,4,2,1,40,0,0
12271,-156.25,4,2,1,40,0,0
22174,340.909090909091,4,2,1,60,1,0
22174,-96.1538461538461,4,2,1,60,0,0
23026,315.789473684211,4,2,1,60,1,0
23026,-100,4,2,1,60,0,0
23341,340.909090909091,4,2,1,60,1,0
23341,-96.1538461538461,4,2,1,60,0,0
23671,340.909090909091,4,2,1,60,1,0
23671,-96.1538461538461,4,2,1,60,0,0
24374,340.909090909091,4,2,1,60,1,0
24374,-96.1538461538461,4,2,1,60,0,0
24885,340.909090909091,4,2,1,60,1,0
24885,-96.1538461538461,4,2,1,60,0,0
26248,-80.6451612903226,4,2,1,60,0,0
26589,-96.1538461538461,4,2,1,60,0,0
31020,326.086956521739,4,2,1,60,1,0
31020,-100,4,2,1,60,0,0
31531,329.67032967033,4,2,1,60,1,0
31531,-96.1538461538461,4,2,1,60,0,0
31871,340.909090909091,4,2,1,60,1,0
31871,-100,4,2,1,60,0,0
32211,337.078651685393,4,2,1,60,1,0
32211,-80.6451612903226,4,2,1,60,0,0
33068,340.909090909091,4,2,1,60,1,0
33068,-100,4,2,1,60,0,0
33408,-119.047619047619,4,2,1,50,0,0
38522,-156.25,4,2,1,50,0,0
39033,-119.047619047619,4,2,1,50,0,0
40397,-96.1538461538461,4,2,1,50,0,0
40908,-119.047619047619,4,2,1,50,0,0
42269,368.098159509202,4,2,1,50,1,0
42269,-119.047619047619,4,2,1,50,0,0
42613,340.909090909091,4,2,1,50,1,0
42613,-119.047619047619,4,2,1,50,0,0
43635,-96.1538461538461,4,2,1,50,0,0
43976,-119.047619047619,4,2,1,50,0,0
47726,-87.719298245614,4,2,1,60,0,0
49601,-87.719298245614,4,2,1,5,0,0
50794,-64.9350649350649,4,2,1,60,0,0
50880,-64.9350649350649,4,2,1,5,0,0
50965,-64.9350649350649,4,2,1,60,0,0
51050,-64.9350649350649,4,2,1,5,0,0
51476,340.909090909091,4,2,4,75,1,1
51476,-54.3478260869565,4,2,4,75,0,1
51561,-54.3478260869565,4,2,1,75,0,1
51731,-80.6451612903226,4,2,1,75,0,1
51970,340.909090909091,4,2,1,75,1,1
51970,-64.9350649350649,4,2,1,75,0,1
52481,-54.3478260869565,4,2,1,75,0,1
52822,-64.9350649350649,4,2,1,75,0,1
53522,340.909090909091,4,2,1,75,1,1
53522,-64.9350649350649,4,2,1,75,0,1
53862,-54.3478260869565,4,2,1,75,0,1
54203,340.909090909091,4,2,1,75,1,1
54203,-64.9350649350649,4,2,1,75,0,1
55225,-54.3478260869565,4,2,1,75,0,1
55737,-64.9350649350649,4,2,1,75,0,1
56248,-54.3478260869565,4,2,1,75,0,1
56930,-64.9350649350649,4,2,1,75,0,1
57953,-54.3478260869565,4,2,1,75,0,1
58975,-64.9350649350649,4,2,1,75,0,1
59657,-54.3478260869565,4,2,1,75,0,1
60168,-64.9350649350649,4,2,1,75,0,1
60680,-54.3478260869565,4,2,1,75,0,1
61362,-64.9350649350649,4,2,1,75,0,1
62043,-54.3478260869565,4,2,1,75,0,1
62384,-80.6451612903226,4,2,1,65,0,0
73293,-119.047619047619,4,2,1,50,0,0
81475,-119.047619047619,4,2,1,65,0,0
83882,340.909090909091,4,2,1,65,1,0
83882,-119.047619047619,4,2,1,65,0,0
84222,340.909090909091,4,2,1,60,1,0
84222,-96.1538461538461,4,2,1,60,0,0
85064,340.909090909091,4,2,1,60,1,0
85064,-96.1538461538461,4,2,1,60,0,0
85926,340.909090909091,4,2,1,60,1,0
85926,-96.1538461538461,4,2,1,60,0,0
86948,340.909090909091,4,2,1,60,1,0
86948,-96.1538461538461,4,2,1,60,0,0
94430,319.148936170213,4,2,1,60,1,0
94430,-96.1538461538461,4,2,1,60,0,0
94601,340.909090909091,4,2,1,60,1,0
94601,-100,4,2,1,60,0,0
95112,340.909090909091,4,2,1,60,1,0
95112,-96.1538461538461,4,2,1,60,0,0
106021,-119.047619047619,4,2,1,50,0,0
107214,-294.117647058824,4,2,1,50,0,0
107896,-119.047619047619,4,2,1,50,0,0
109941,-294.117647058824,4,2,1,50,0,0
110452,-80.6451612903226,4,2,1,50,0,0
111475,-119.047619047619,4,2,1,50,0,0
112668,-294.117647058824,4,2,1,50,0,0
113350,-119.047619047619,4,2,1,50,0,0
114202,-96.1538461538461,4,2,1,60,0,0
114533,340.909090909091,4,2,1,60,1,0
115566,340.909090909091,4,2,1,50,1,0
115566,-96.1538461538461,4,2,1,50,0,0
116247,-80.6451612903226,4,2,1,50,0,0
116929,-80.6451612903226,4,2,1,60,0,0
121020,-64.9350649350649,4,2,1,60,0,0
121531,-80.6451612903226,4,2,1,60,0,0
126134,324.324324324324,4,2,1,60,1,0
126134,-100,4,2,1,60,0,0
126475,340.909090909091,4,2,1,60,1,0
126475,-80.6451612903226,4,2,1,60,0,0
128019,315.789473684211,4,2,1,60,1,0
128335,340.909090909091,4,2,1,60,1,0
128335,-100,4,2,1,60,0,0
128505,-80.6451612903226,4,2,1,65,0,0
129203,340.909090909091,4,2,4,75,1,1
129203,-54.3478260869565,4,2,4,75,0,1
129288,-54.3478260869565,4,2,1,75,0,1
129458,-80.6451612903226,4,2,1,75,0,1
129714,-64.9350649350649,4,2,1,75,0,1
130225,-54.3478260869565,4,2,1,75,0,1
130566,-64.9350649350649,4,2,1,75,0,1
131248,-54.3478260869565,4,2,1,75,0,1
131930,-64.9350649350649,4,2,1,75,0,1
132953,-54.3478260869565,4,2,1,75,0,1
133464,-64.9350649350649,4,2,1,75,0,1
133975,-54.3478260869565,4,2,1,75,0,1
135680,-54.3478260869565,4,2,1,75,0,1
136703,-64.9350649350649,4,2,1,75,0,1
137384,-54.3478260869565,4,2,1,75,0,1
137896,-64.9350649350649,4,2,1,75,0,1
138407,-54.3478260869565,4,2,1,75,0,1
138748,-64.9350649350649,4,2,1,75,0,1
139089,-64.9350649350649,4,2,1,75,0,1
139771,-54.3478260869565,4,2,1,75,0,1
140112,-106.382978723404,4,2,1,50,0,0
145566,-80.6451612903224,4,2,1,65,0,0
149657,-80.6451612903224,4,2,1,65,0,0
150168,-64.9350649350649,4,2,1,65,0,0
150680,-54.3478260869565,4,2,1,65,0,0
151021,-54.3478260869565,4,2,4,75,0,1
151106,-54.3478260869565,4,2,1,75,0,1
151276,-80.6451612903226,4,2,1,75,0,1
151532,-64.9350649350649,4,2,1,75,0,1
152043,-54.3478260869565,4,2,1,75,0,1
152384,-64.9350649350649,4,2,1,75,0,1
153066,-54.3478260869565,4,2,1,75,0,1
153407,-64.9350649350649,4,2,1,75,0,1
153748,-54.3478260869565,4,2,1,75,0,1
154004,-64.9350649350649,4,2,1,75,0,1
154771,-54.3478260869565,4,2,1,75,0,1
155282,-64.9350649350649,4,2,1,75,0,1
155793,-54.3478260869565,4,2,1,75,0,1
157498,-54.3478260869565,4,2,1,75,0,1
157754,-64.9350649350649,4,2,1,75,0,1
158521,-54.3478260869565,4,2,1,75,0,1
159203,-54.3478260869565,4,2,1,75,0,1
159714,-64.9350649350649,4,2,1,75,0,1
160225,-54.3478260869565,4,2,1,75,0,1
160566,-64.9350649350649,4,2,1,75,0,1
160907,-64.9350649350649,4,2,1,75,0,1
161238,319.148936170213,4,2,1,75,1,1
161238,-64.9350649350649,4,2,1,75,0,1
161589,340.909090909091,4,2,1,75,1,1
161589,-54.3478260869565,4,2,1,75,0,1
161920,340.909090909091,4,2,1,65,1,0
161920,-80.6451612903224,4,2,1,65,0,0
163295,340.909090909091,4,2,1,65,1,0
163295,-80.6451612903224,4,2,1,65,0,0
163964,326.086956521739,4,2,1,65,1,0
163964,-100,4,2,1,65,0,0
164648,340.909090909091,4,2,1,65,1,0
164648,-80.6451612903224,4,2,1,65,0,0
172488,-64.9350649350649,4,2,1,65,0,0
172829,-64.9350649350649,4,2,1,70,0,0
175216,-49.0196078431373,4,2,1,70,0,0
175557,-74.6268656716418,4,2,4,60,0,0
175642,-74.6268656716418,4,2,1,60,0,0
176238,-80.6451612903226,4,2,1,60,0,0
197383,337.078651685393,4,2,1,60,1,0
197383,-100,4,2,1,60,0,0
198748,346.820809248555,4,2,1,50,1,0
198748,-119.047619047619,4,2,1,50,0,0
200091,-87.719298245614,4,2,1,50,0,0
201479,-87.719298245614,4,2,1,5,0,0
202498,340.909090909091,4,2,1,40,1,0
202498,-87.719298245614,4,2,1,40,0,0
202840,340.909090909091,4,2,1,40,1,0
202840,-294.117647058824,4,2,1,40,0,0
212385,-294.117647058824,4,2,1,50,0,0
212726,-80.6451612903226,4,2,1,50,0,0
213067,-54.3478260869565,4,2,1,50,0,0
213749,-96.1538461538461,4,2,1,55,0,0
214771,-69.4444444444444,4,2,1,55,0,0
215112,-96.1538461538461,4,2,1,55,0,0
217499,-69.4444444444444,4,2,1,55,0,0
217840,-96.1538461538461,4,2,1,55,0,0
221078,-96.1538461538461,4,2,1,65,0,0
221930,-64.9350649350649,4,2,1,65,0,0
222953,-66.6666666666667,4,2,1,65,0,0
223292,329.67032967033,4,2,1,65,1,0
223292,-50,4,2,1,65,0,0
223994,340.909090909091,4,2,1,65,1,0
223994,-400,4,2,1,65,0,0
224658,340.909090909091,4,2,4,75,1,1
224658,-54.3478260869565,4,2,4,75,0,1
224743,-54.3478260869565,4,2,1,75,0,1
224913,-64.9350649350649,4,2,1,75,0,1
225510,304.568527918782,4,2,1,75,1,1
225510,-100,4,2,1,75,0,1
225676,333.333333333333,4,2,1,75,1,1
225676,-54.3478260869565,4,2,1,75,0,1
226022,340.909090909091,4,2,1,75,1,1
226022,-64.9350649350649,4,2,1,75,0,1
226703,-54.3478260869565,4,2,1,75,0,1
227044,-64.9350649350649,4,2,1,75,0,1
227385,-54.3478260869565,4,2,1,75,0,1
227641,-64.9350649350649,4,2,1,75,0,1
228408,-54.3478260869565,4,2,1,75,0,1
228919,329.67032967033,4,2,1,75,1,1
228919,-64.9350649350649,4,2,1,75,0,1
229431,340.909090909091,4,2,1,75,1,1
229431,-54.3478260869565,4,2,1,75,0,1
229771,-64.9350649350649,4,2,1,75,0,1
230112,340.909090909091,4,2,1,75,1,1
230112,-54.3478260869565,4,2,1,75,0,1
230933,340.909090909091,4,2,1,75,1,1
230933,-100,4,2,1,75,0,1
231103,-54.3478260869565,4,2,1,75,0,1
231387,-64.9350649350649,4,2,1,75,0,1
232157,340.909090909091,4,2,1,75,1,1
232157,-54.3478260869565,4,2,1,75,0,1
232838,340.909090909091,4,2,1,75,1,1
232838,-54.3478260869565,4,2,1,75,0,1
233349,-49.0196078431373,4,2,1,75,0,1
233690,-64.9350649350649,4,2,1,75,0,1
233860,-54.3478260869565,4,2,1,75,0,1
234201,-64.9350649350649,4,2,1,75,0,1
234542,-64.9350649350649,4,2,1,75,0,1
235224,-54.3478260869565,4,2,1,75,0,1
235565,-80.6451612903224,4,2,1,65,0,0
237951,-69.4444444444444,4,2,1,65,0,0
238292,-80.6451612903226,4,2,1,65,0,0
240679,327.868852459016,4,2,1,65,1,0
240679,-80.6451612903226,4,2,1,65,0,0
241020,340.909090909091,4,2,1,65,1,0
241020,-80.6451612903226,4,2,1,65,0,0
245793,331.491712707182,4,2,1,65,1,0
245793,-80.6451612903226,4,2,1,65,0,0
246475,340.909090909091,4,2,4,70,1,1
246475,-49.0196078431373,4,2,4,70,0,1
246560,-49.0196078431373,4,2,1,70,0,1
247147,340.909090909091,4,2,1,70,1,1
247147,-119.047619047619,4,2,1,70,0,1
247487,-49.0196078431373,4,2,1,70,0,1
248169,340.909090909091,4,2,1,70,1,1
248169,-119.047619047619,4,2,1,70,0,1
248509,-69.4444444444444,4,2,1,70,0,0
249203,340.909090909091,4,2,1,70,1,1
249203,-49.0196078431373,4,2,1,70,0,1
249884,-119.047619047619,4,2,1,70,0,1
250225,-49.0196078431373,4,2,1,70,0,1
250907,-57.4712643678161,4,2,1,70,0,1
251248,-57.4712643678161,4,2,1,70,0,0
251930,-49.0196078431373,4,2,1,70,0,1
252612,-119.047619047619,4,2,1,70,0,1
252953,-49.0196078431373,4,2,1,70,0,1
253634,-69.4444444444444,4,2,1,70,0,1
253975,-69.4444444444444,4,2,1,70,0,0
254657,-49.0196078431373,4,2,1,70,0,1
254898,340.909090909091,4,2,1,70,1,1
254898,-49.0196078431373,4,2,1,70,0,1
255168,340.909090909091,4,2,1,70,1,1
255168,-49.0196078431373,4,2,1,70,0,1
256020,340.909090909091,4,2,1,70,1,1
256020,-49.0196078431373,4,2,1,70,0,1
256360,-49.0196078431373,4,2,1,70,0,0
257383,-54.3478260869565,4,2,4,70,0,1
257468,-54.3478260869565,4,2,1,70,0,1
258066,363.636363636364,4,2,1,70,1,1
258066,-54.3478260869565,4,2,1,70,0,1
258407,340.909090909091,4,2,1,70,1,1
258407,-54.3478260869565,4,2,1,70,0,1
258747,340.909090909091,4,2,1,70,1,1
258747,-54.3478260869565,4,2,1,70,0,1
265224,-60.9756097560976,4,2,1,70,0,1
265565,375,4,2,1,70,1,1
265565,-49.0196078431373,4,2,1,70,0,1
265940,273.972602739726,4,2,1,70,1,1
265940,-49.0196078431373,4,2,1,70,0,1
266076,329.67032967033,4,2,1,70,1,1
266076,-49.0196078431373,4,2,1,70,0,1
266587,340.909090909091,4,2,1,70,1,1
266587,-49.0196078431373,4,2,1,70,0,1
268291,-54.3478260869565,4,2,1,70,0,0

[Colours]
Combo1 : 255,255,89
Combo2 : 91,255,255
Combo3 : 0,79,157
Combo4 : 225,113,0

[HitObjects]
465,336,283,5,2,0:0:0:0:
452,320,340,2,0,B|456:295|456:295|452:269|452:269|463:221,2,87,2|2|2,0:0|0:0|0:0,0:0:0:0:
386,358,851,1,2,0:0:0:0:
393,367,1192,5,0,0:0:0:0:
238,284,1362,1,2,0:0:0:0:
109,314,2271,6,0,L|111:346,2,29,2|0|2,0:0|0:0|0:0,0:0:0:0:
185,382,2555,5,0,0:0:0:0:
110,367,2726,1,2,0:0:0:0:
41,350,2896,1,0,0:0:0:0:
184,260,3067,6,0,P|192:215|171:170,1,87,2|0,0:0|0:0,0:0:0:0:
181,106,3408,1,0,0:0:0:0:
110,5,3578,2,0,P|37:40|73:126,1,174,2|0,0:0|0:0,0:0:0:0:
214,8,4090,1,2,0:0:0:0:
435,46,5624,5,0,3:0:0:0:
435,46,5709,1,0,3:0:0:0:
435,46,5794,6,0,B|456:93|403:122|403:122|369:164|405:206,1,174,2|0,0:0|0:0,0:0:0:0:
450,307,6305,2,0,B|488:289|530:278|530:278|512:241|501:181,1,174,2|2,0:0|0:3,0:0:0:0:
349,47,6817,1,2,0:0:0:0:
353,36,7840,5,2,0:0:0:0:
304,124,8010,1,2,0:3:0:0:
154,166,8180,5,2,0:2:0:0:
194,249,8351,1,0,0:3:0:0:
290,371,8521,6,0,B|261:329|296:281|311:304|351:260|317:204,1,174,2|0,0:0|0:0,0:0:0:0:
192,65,9033,2,0,B|158:26|118:46|77:125|189:174|239:117,1,217.5,2|0,0:0|0:0,0:0:0:0:
283,18,9544,5,2,0:0:0:0:
16,295,11249,5,2,0:0:0:0:
86,261,11419,1,0,0:0:0:0:
144,310,11590,1,0,0:0:0:0:
75,342,11760,1,0,0:0:0:0:
16,295,12271,5,2,0:0:0:0:
86,261,12612,2,0,B|132:247|163:279|163:279|181:335|246:331,1,167.04,2|2,0:0|0:0,0:0:0:0:
334,226,13294,2,0,B|297:223|273:178|273:178|275:231|233:258,1,167.04,2|0,0:0|0:0,0:0:0:0:
354,148,13976,5,2,0:0:0:0:
400,274,14146,1,2,0:0:0:0:
478,238,14317,5,2,0:0:0:0:
446,383,14487,1,2,0:0:0:0:
439,371,14999,5,2,0:0:0:0:
261,148,15340,6,0,B|163:117|163:117|194:146|195:186,1,167.04,2|0,0:0|0:0,0:0:0:0:
261,148,16362,6,0,L|250:80,1,55.68,2|2,0:0|0:0,0:0:0:0:
96,189,16703,2,0,L|83:317,1,111.36,2|2,0:0|0:0,0:0:0:0:
141,350,17215,1,2,0:0:0:0:
0,163,17726,1,2,0:0:0:0:
63,116,17896,1,2,0:0:0:0:
170,279,18067,6,0,B|83:260|97:334|10:311,1,167.04,2|2,0:0|0:0,0:0:0:0:
234,164,19090,1,2,0:0:0:0:
386,350,19430,5,2,0:0:0:0:
479,304,19601,1,0,0:0:0:0:
505,379,19771,1,2,0:0:0:0:
392,252,19942,2,0,L|408:130,1,111.36,2|0,0:0|0:0,0:0:0:0:
470,108,20453,1,2,0:0:0:0:
306,5,20709,6,0,L|311:31,2,13.7934545454545,2|2|2,0:0|0:0|0:0,0:0:0:0:
45,297,22174,5,6,1:2:0:0:
186,230,22344,1,0,1:0:0:0:
31,217,22514,6,0,B|83:202|110:244|110:244|123:303|190:307,1,180.959998895508,10|0,0:0|0:0,0:0:0:0:
31,217,23026,1,0,1:0:0:0:
163,125,23183,1,2,0:0:0:0:
163,125,23262,1,2,0:0:0:0:
163,125,23341,6,0,B|164:94|171:62|171:62|136:59|96:45,1,136.081919171631,2|0,1:3|0:0,0:0:0:0:
87,55,23671,1,0,1:0:0:0:
171,136,23841,2,0,B|225:128|225:128|257:79|257:79|327:68,1,180.959998895508,8|0,0:0|1:0,0:0:0:0:
490,195,24374,2,0,L|433:176,1,45.239999723877,0|0,1:0|0:0,0:0:0:0:
380,156,24544,1,0,0:0:0:0:
497,77,24714,1,8,0:0:0:0:
392,18,24885,5,2,1:3:0:0:
467,157,25055,1,0,1:0:0:0:
292,207,25225,5,10,0:0:0:0:
207,364,25396,2,0,P|144:375|89:318,1,135.719999171631,2|0,0:0|0:0,0:0:0:0:
78,316,25737,1,0,1:0:0:0:
178,174,25907,6,0,P|212:202|197:242,1,90.4799994477539,2|10,0:2|0:0,0:0:0:0:
39,133,26248,2,0,P|70:91|121:118,1,107.879995720093,0|0,0:0|1:0,0:0:0:0:
201,253,26589,6,0,P|267:266|341:290,1,135.719999171631,8|0,0:0|3:0,0:0:0:0:
354,268,26930,1,0,1:0:0:0:
207,364,27100,1,0,1:0:0:0:
354,268,27271,6,0,P|391:229|375:142,1,135.719999171631,8|0,0:0|0:0,0:0:0:0:
392,127,27612,1,6,1:2:0:0:
257,34,27782,1,0,1:0:0:0:
178,174,27953,5,10,0:0:0:0:
304,108,28123,2,0,B|355:95|386:124|386:124|411:179|466:174,1,180.959998895508,2|0,0:0|1:0,0:0:0:0:
257,34,28635,1,2,0:2:0:0:
383,152,28805,5,8,0:0:0:0:
164,244,28975,2,0,P|148:203|196:174,1,90.4799994477539,2|0,0:0|1:2,0:0:0:0:
312,355,29316,1,10,0:0:0:0:
375,312,29487,1,2,3:2:0:0:
375,312,29572,1,0,3:0:0:0:
375,312,29657,2,0,L|358:216,1,90.4799994477539,0|0,1:0|1:0,0:0:0:0:
440,356,29998,5,10,0:0:0:0:
287,266,30169,1,2,0:0:0:0:
232,323,30339,2,0,B|214:308|214:308|167:320|167:320|136:380|71:363,1,180.959998895508,2|8,1:3|0:0,0:0:0:0:
232,323,31020,5,8,0:0:0:0:
108,217,31183,1,8,0:3:0:0:
214,154,31346,1,4,0:3:0:0:
123,57,31531,6,0,L|109:130,1,45.239999723877,8|0,0:0|1:0,0:0:0:0:
263,227,31695,1,4,1:2:0:0:
148,296,31871,1,0,1:0:0:0:
320,136,32041,5,8,0:0:0:0:
504,337,32211,2,0,P|444:348|427:256,1,161.819993580139,4|0,1:2|0:0,0:0:0:0:
437,251,32548,6,0,L|493:236,1,53.9399978600465,8|0,0:3|0:0,0:0:0:0:
361,377,32716,2,0,L|294:360,1,53.9399978600465,4|0,0:3|0:0,0:0:0:0:
509,243,32885,5,2,1:3:0:0:
427,158,33068,1,0,3:0:0:0:
433,164,33408,6,0,P|375:191|323:129,1,146.159995539551,6|0,1:2|0:0,0:0:0:0:
269,92,33920,1,0,0:0:0:0:
159,181,34090,1,2,3:2:0:0:
83,139,34261,1,0,0:0:0:0:
16,192,34431,6,0,P|9:251|-4:324,1,109.619996654663,2|0,3:2|0:0,0:0:0:0:
12,321,34772,1,2,3:2:0:0:
159,181,34943,2,0,P|162:221|172:270,1,73.0799977697755,2|0,0:0|3:3,0:0:0:0:
85,162,35283,1,0,1:0:0:0:
167,253,35454,1,2,3:2:0:0:
99,335,35624,1,2,3:2:0:0:
99,335,35710,1,0,3:0:0:0:
99,335,35795,6,0,B|147:326|168:273|168:273|162:360|246:384,1,219.239993309326,2|0,3:2|0:0,0:0:0:0:
255,293,36477,6,0,L|334:264,1,73.0799977697755,0|0,3:0|0:0,0:0:0:0:
463,384,36818,1,0,3:0:0:0:
373,320,36988,1,0,1:0:0:0:
478,216,37158,6,0,P|502:246|493:291,2,73.0799977697755,2|0|0,1:3|0:0|3:0,0:0:0:0:
379,312,37670,2,0,L|364:406,1,73.0799977697755
221,187,38096,5,2,1:2:0:0:
230,194,38181,2,0,B|256:187|256:187|262:183|262:183|310:172,1,73.0799977697755,2|2,0:0|0:0,0:0:0:0:
388,52,38522,6,0,P|336:58|290:10,1,111.36,2|2,1:2|3:2,0:0:0:0:
112,113,39033,2,0,B|191:131|158:175|240:196,1,146.159995539551,2|0,0:0|2:0,0:0:0:0:
126,38,39545,1,2,3:2:0:0:
245,118,39715,5,2,1:2:0:0:
66,291,39886,2,0,B|60:260|41:224|41:224|75:211|114:190,1,146.159995539551,0|2,3:3|3:2,0:0:0:0:
250,306,40397,2,0,B|298:291|331:318|331:318|359:376|417:366,1,180.959998895508,2|0,0:0|1:0,0:0:0:0:
215,238,40908,1,2,3:3:0:0:
327,168,41079,2,0,L|314:225,1,36.5399988848877,2|0,3:2|0:0,0:0:0:0:
313,230,41249,5,2,3:3:0:0:
201,148,41420,1,0,0:0:0:0:
235,214,41590,1,0,3:0:0:0:
66,291,41761,2,0,B|116:306|116:306|133:334|133:334|201:357,1,146.159995539551,0|0,0:0|2:0,0:0:0:0:
64,186,42269,6,0,L|53:91,1,73.0799977697755,2|2,3:2|1:2,0:0:0:0:
195,31,42613,1,2,2:2:0:0:
128,0,42783,1,0,1:0:0:0:
225,130,42953,1,2,3:2:0:0:
354,24,43124,2,0,P|335:97|326:180,1,146.159995539551,2|0,0:0|1:0,0:0:0:0:
195,31,43635,6,0,P|228:2|279:20,1,90.4799994477539,2|2,3:3|3:2,0:0:0:0:
431,230,43976,6,0,P|359:241|321:173,1,146.159995539551,4|0,1:2|3:0,0:0:0:0:
416,116,44488,1,0,0:0:0:0:
512,228,44658,2,0,P|500:264|495:303,1,73.0799977697755,0|0,3:3|2:0,0:0:0:0:
382,368,44999,1,2,3:2:0:0:
509,309,45169,1,2,1:2:0:0:
431,230,45340,5,2,3:2:0:0:
468,372,45510,1,0,1:0:0:0:
303,257,45681,5,0,3:2:0:0:
283,331,45851,1,0,0:0:0:0:
372,174,46022,5,0,3:0:0:0:
443,146,46192,1,0,0:0:0:0:
279,67,46363,6,0,B|240:57|240:57|223:32|223:32|172:18,1,109.619996654663,2|0,3:3|0:0,0:0:0:0:
153,125,46703,6,0,B|204:112|204:112|228:78|228:78|297:63,1,146.159995539551,2|2,1:2|3:2,0:0:0:0:
158,10,47215,1,2,0:0:0:0:
284,160,47556,5,0,1:0:0:0:
71,312,47726,2,0,B|29:293|29:293|1:261|14:213|58:216,1,148.76999818396,14|0,0:2|0:0,0:0:0:0:
65,193,48067,1,14,1:2:0:0:
65,193,48408,5,2,1:2:0:0:
229,285,48578,1,0,1:2:0:0:
60,336,48749,1,2,1:2:0:0:
195,181,48919,1,0,1:2:0:0:
339,335,49090,6,0,B|359:295|408:291|408:291|294:296|331:376|221:379,1,297.53999636792,14|0,1:2|0:0,0:0:0:0:
223,378,50794,6,0,P|212:352|201:296,1,67.1686386711579,8|0,0:0|0:0,0:0:0:0:
358,150,50965,2,0,P|369:117|375:72,1,67.1686386711579,8|0,0:0|0:0,0:0:0:0:
0,76,51476,6,0,B|26:40|70:57|70:57|73:105|122:125,1,160.506874626221,6|0,1:2|0:0,0:0:0:0:
145,55,51731,2,0,L|164:-7,1,54.0838378600465,10|2,0:0|1:2,0:0:0:0:
25,162,51970,6,0,L|36:241,1,67.1686386711579,10|0,0:0|0:0,0:0:0:0:
0,291,52140,1,0,1:0:0:0:
148,190,52310,1,2,1:2:0:0:
148,190,52396,1,8,0:0:0:0:
148,190,52481,6,0,B|207:207|207:207|232:242|232:242|309:264,1,160.079994626221,14|2,0:0|0:3,0:0:0:0:
351,276,52737,1,8,0:0:0:0:
373,282,52822,1,0,1:0:0:0:
198,384,52992,6,0,P|185:355|193:310,1,67.1686386711579,8|0,0:0|0:0,0:0:0:0:
340,203,53163,2,0,P|374:149|352:83,1,133.979997342316,2|2,1:2|0:3,0:0:0:0:
305,30,53418,1,0,3:0:0:0:
305,30,53522,6,0,P|285:60|286:103,1,67.1686386711579,8|8,0:3|0:3,0:0:0:0:
489,288,53692,1,8,0:0:0:0:
510,249,53777,1,8,0:0:0:0:
490,221,53862,2,0,B|448:209|416:236|416:236|395:279|347:276,1,160.506874626221,8|4,0:3|0:3,0:0:0:0:
294,323,54118,1,4,0:3:0:0:
284,307,54203,6,0,P|350:303|395:349,1,134.337277342316,6|0,1:2|0:0,0:0:0:0:
465,381,54458,1,8,0:0:0:0:
465,381,54543,1,2,1:2:0:0:
260,293,54714,6,0,P|248:263|269:211,1,67.1686386711579,10|0,0:0|0:0,0:0:0:0:
384,140,54884,1,0,1:0:0:0:
254,317,55055,6,0,L|180:341,1,67.1686386711579,2|8,1:2|0:0,0:0:0:0:
10,170,55225,2,0,B|73:199|73:199|38:309,1,161.446010626221,14|2,0:0|0:3,0:0:0:0:
18,355,55481,1,8,0:0:0:0:
14,371,55566,1,0,1:0:0:0:
254,229,55737,6,0,L|238:149,1,67.1686386711579,8|0,2:0|0:0,0:0:0:0:
160,23,55907,1,0,1:0:0:0:
114,80,55992,2,0,L|132:6,1,67.9546546711579,2|8,0:1|0:0,0:0:0:0:
294,98,56163,5,8,0:0:0:0:
285,112,56248,2,0,B|230:126|230:126|207:157|207:157|138:173,1,160.506874626221,8|8,0:0|0:0,0:0:0:0:
297,313,56504,5,8,0:0:0:0:
317,301,56589,2,0,P|337:269|333:215,1,80.2534373131104,2|0,1:2|3:0,0:0:0:0:
128,93,56759,2,0,L|145:179,1,81.1925733131104,10|0,3:2|3:0,0:0:0:0:
302,23,56930,6,0,B|320:16|320:16|358:32|358:32|369:77|417:87,1,134.337277342316,6|0,1:2|0:0,0:0:0:0:
433,19,57185,1,8,0:0:0:0:
433,19,57271,1,2,1:2:0:0:
294,98,57441,6,0,L|274:175,1,67.1686386711579,10|0,0:0|0:0,0:0:0:0:
420,319,57612,1,0,1:0:0:0:
494,177,57782,6,0,L|414:198,1,67.1686386711579,10|8,0:0|0:0,0:0:0:0:
313,353,57953,2,0,B|257:366|257:366|213:354|198:312|236:289,1,160.506874626221,6|2,1:2|0:3,0:0:0:0:
285,235,58208,2,0,B|314:246|314:246|320:253|320:253|369:271,2,80.2534373131104,8|0|0,0:0|1:0|0:0,0:0:0:0:
247,170,58464,5,8,0:0:0:0:
57,309,58634,1,8,0:3:0:0:
43,299,58720,2,0,B|104:283|104:283|171:326|125:376,1,160.506874626221,2|0,0:1|0:0,0:0:0:0:
43,299,58975,6,0,L|57:217,1,67.9546546711579,8|8,0:3|0:3,0:0:0:0:
197,111,59146,1,8,0:0:0:0:
208,56,59231,1,8,0:0:0:0:
171,24,59316,1,8,0:3:0:0:
414,198,59572,5,4,0:3:0:0:
401,182,59657,2,0,B|346:195|346:195|319:229|319:229|259:243,1,160.506874626221,6|0,1:2|0:0,0:0:0:0:
201,286,59913,2,0,B|184:251|184:251|195:205,1,80.2534373131104,8|2,0:0|1:2,0:0:0:0:
413,301,60168,6,0,L|401:373,1,67.9546546711579,10|0,0:0|0:0,0:0:0:0:
492,251,60339,1,0,1:0:0:0:
321,167,60509,5,2,1:2:0:0:
321,167,60595,1,8,0:0:0:0:
321,167,60680,6,0,B|322:154|322:154|305:105|305:105|314:78,2,80.2534373131104,14|0|8,0:2|0:0|0:0,0:0:0:0:
278,226,60935,1,8,0:0:0:0:
260,243,61021,6,0,B|215:231|215:231|190:180|190:180|132:162,1,160.506874626221,0|8,1:0|0:0,0:0:0:0:
76,122,61276,1,8,0:0:0:0:
4,111,61362,6,0,L|69:96,1,67.1686386711579,0|0,1:0|1:0,0:0:0:0:
217,8,61532,2,0,L|290:30,1,67.1686386711579,8|8,0:0|0:0,0:0:0:0:
389,169,61703,5,8,0:3:0:0:
424,203,61788,1,8,0:3:0:0:
453,177,61873,1,4,0:3:0:0:
470,190,61958,1,4,0:3:0:0:
478,183,62043,6,0,B|346:156|402:288|236:236,1,241.699447939331,12|0,0:0|0:0,0:0:0:0:
171,323,62384,6,0,B|237:315|261:244|261:244|245:296|313:352,1,216.335351440186,6|8,1:2|0:0,0:0:0:0:
172,231,62896,1,4,0:3:0:0:
154,190,62981,1,8,0:3:0:0:
188,156,63066,1,2,1:2:0:0:
337,265,63237,1,0,1:0:0:0:
171,323,63407,5,8,0:0:0:0:
300,168,63578,1,2,3:2:0:0:
465,376,63748,6,0,B|427:367|427:367|411:350|411:350|360:335,1,108.167675720093,2|0,1:2|1:0,0:0:0:0:
224,125,64089,2,0,P|285:141|366:84,1,162.251513580139,8|8,0:0|0:3,0:0:0:0:
381,65,64430,1,0,1:0:0:0:
249,228,64600,1,0,1:0:0:0:
427,173,64771,5,10,0:2:0:0:
236,41,64941,1,2,3:2:0:0:
136,124,65112,6,0,B|96:132|96:132|82:145|82:145|18:157,1,108.167675720093,2|0,1:2|1:0,0:0:0:0:
222,348,65453,2,0,B|258:329|292:321|292:321|276:277|264:230,1,162.251513580139,8|8,0:0|0:3,0:0:0:0:
249,228,65793,1,0,1:0:0:0:
106,360,65964,1,0,1:0:0:0:
178,270,66134,5,10,0:2:0:0:
328,346,66305,1,2,3:2:0:0:
328,346,66390,1,8,0:3:0:0:
328,346,66475,6,0,L|391:329,2,54.4002858600465,2|0|0,1:2|1:0|1:0,0:0:0:0:
421,137,66816,2,0,B|498:162|498:162|474:271,1,162.251513580139,8|8,0:2|0:3,0:0:0:0:
477,267,67157,1,0,1:0:0:0:
320,152,67328,1,0,1:0:0:0:
483,77,67498,5,10,0:2:0:0:
310,226,67668,1,2,3:2:0:0:
239,258,67839,5,6,1:2:0:0:
92,143,68009,1,0,1:0:0:0:
220,77,68180,5,10,0:0:0:0:
83,236,68350,1,4,0:3:0:0:
58,208,68435,1,8,0:3:0:0:
62,167,68521,1,0,1:0:0:0:
239,258,68691,1,2,1:2:0:0:
103,355,68862,2,0,P|52:335|-4:327,1,108.167675720093,10|0,0:0|3:0,0:0:0:0:
162,174,69203,5,0,1:0:0:0:
1,254,69373,1,0,1:0:0:0:
188,352,69543,5,8,0:0:0:0:
81,147,69714,1,4,0:3:0:0:
85,122,69799,1,8,0:3:0:0:
89,96,69884,1,0,1:0:0:0:
0,169,70055,1,0,1:0:0:0:
177,255,70225,6,0,B|228:243|228:243|249:198|249:198|312:182,1,162.884409580139,10|0,0:0|0:0,0:0:0:0:
327,161,70566,5,14,0:0:0:0:
109,331,70737,1,0,1:0:0:0:
103,355,70907,1,2,1:2:0:0:
170,128,71078,5,14,0:0:0:0:
360,287,71248,1,0,1:0:0:0:
365,312,71418,1,2,1:2:0:0:
195,253,71589,6,0,B|176:174|272:203|244:100,1,162.251513580139,14|0,0:0|0:0,0:0:0:0:
291,55,71930,5,0,1:0:0:0:
108,187,72100,1,0,1:0:0:0:
289,358,72271,2,0,B|311:326|346:318|346:318|198:350,1,216.335351440186,14|2,0:0|1:2,0:0:0:0:
356,169,72782,1,4,0:3:0:0:
400,159,72867,1,8,0:3:0:0:
434,191,72953,1,10,0:0:0:0:
485,293,73123,1,0,1:0:0:0:
323,239,73293,6,0,B|314:197|314:197|332:151|332:151|315:86,1,146.978491539551,6|0,1:2|3:0,0:0:0:0:
372,47,73805,1,2,0:0:0:0:
250,142,73975,2,0,P|211:136|183:107,1,73.7036137697755,2|0,3:2|0:0,0:0:0:0:
250,142,74316,1,0,3:0:0:0:
323,239,74487,1,0,1:0:0:0:
206,317,74657,6,0,B|280:302|252:255|342:239,1,146.549755539551,0|0,3:0|0:0,0:0:0:0:
206,317,75168,1,0,1:0:0:0:
74,218,75339,6,0,L|89:129,1,73.2748777697755,0|0,3:0|0:0,0:0:0:0:
74,218,75680,1,0,3:0:0:0:
268,50,75935,5,0,0:0:0:0:
278,63,76021,2,0,L|378:48,1,73.2748777697755,0|0,1:3|0:0,0:0:0:0:
440,193,76362,1,0,3:0:0:0:
319,132,76532,6,0,B|369:144|369:144|390:181|390:181|455:197,1,146.549755539551,2|0,0:0|0:0,0:0:0:0:
261,343,77043,2,0,B|236:272|236:272|312:233,1,146.978491539551,2|0,3:2|0:0,0:0:0:0:
427,374,77555,2,0,L|343:345,1,73.2748777697755,2|0,1:2|0:0,0:0:0:0:
427,374,77896,1,0,0:0:0:0:
299,239,78066,2,0,L|137:278,1,146.549755539551,2|2,1:2|3:3,0:0:0:0:
38,66,78663,5,0,1:2:0:0:
38,66,78748,2,0,B|32:41|32:41|79:82|79:82|55:157,1,146.549755539551,6|0,1:2|3:0,0:0:0:0:
191,33,79259,1,2,0:0:0:0:
302,80,79430,2,0,P|230:92|198:14,1,146.549755539551,2|0,3:2|3:0,0:0:0:0:
302,80,79941,1,0,1:0:0:0:
216,198,80112,6,0,L|205:276,1,73.2748777697755,0|0,3:0|0:0,0:0:0:0:
216,198,80453,1,0,1:0:0:0:
345,349,80623,1,0,3:0:0:0:
398,353,80708,1,8,0:0:0:0:
432,313,80793,5,8,0:0:0:0:
345,196,80964,1,8,0:3:0:0:
465,241,81134,5,4,0:3:0:0:
345,349,81305,1,0,1:3:0:0:
512,307,81475,5,12,0:0:0:0:
267,146,81646,1,0,1:0:0:0:
385,116,81816,1,0,1:0:0:0:
279,253,81987,5,12,0:0:0:0:
469,72,82157,1,0,1:0:0:0:
350,27,82328,1,0,1:0:0:0:
465,241,82498,5,12,0:0:0:0:
239,48,82668,2,0,L|250:140,1,73.7036137697755,0|0,1:0|1:0,0:0:0:0:
127,366,83009,5,12,0:0:0:0:
361,219,83180,2,0,L|347:315,1,73.2748777697755,0|0,1:0|1:0,0:0:0:0:
395,353,83521,1,8,0:0:0:0:
205,225,83776,5,0,1:0:0:0:
194,245,83882,2,0,P|140:245|107:194,1,109.619996654663,8|0,0:0|0:0,0:0:0:0:
108,203,84222,6,0,P|68:218|2:229,1,90.4799994477539,6|0,1:2|1:0,0:0:0:0:
147,15,84562,2,0,P|212:22|194:83,1,135.719999171631,8|0,0:0|0:0,0:0:0:0:
129,87,84903,1,0,1:0:0:0:
276,170,85064,1,0,1:0:0:0:
205,225,85234,5,8,0:3:0:0:
300,83,85404,2,0,P|361:55|442:59,1,135.719999171631,10|0,0:0|0:0,0:0:0:0:
457,68,85745,1,0,1:0:0:0:
512,217,85926,6,0,P|450:232|444:158,1,135.719999171631,8|0,0:0|0:0,0:0:0:0:
497,143,86266,1,2,1:2:0:0:
433,256,86437,2,0,P|398:286|332:283,1,90.4799994477539,0|8,1:0|0:0,0:0:0:0:
487,366,86778,1,8,0:3:0:0:
346,283,86949,6,0,P|418:264|471:352,1,180.959998895508,2|8,1:2|0:0,0:0:0:0:
331,181,87459,1,0,3:0:0:0:
237,290,87629,2,0,P|192:294|167:252,1,90.4799994477539,0|0,1:0|1:0,0:0:0:0:
290,379,87970,1,8,0:3:0:0:
172,247,88141,6,0,P|129:196|47:217,1,135.719999171631,10|0,0:0|0:0,0:0:0:0:
56,213,88482,1,0,1:0:0:0:
197,128,88652,2,0,P|227:84|193:41,1,90.4799994477539,8|0,0:0|3:0,0:0:0:0:
161,5,88908,1,0,3:0:0:0:
146,0,88993,5,0,1:0:0:0:
267,106,89163,1,0,1:0:0:0:
136,180,89334,5,10,0:0:0:0:
290,34,89504,1,2,0:0:0:0:
423,195,89675,6,0,P|378:197|345:162,1,90.4799994477539,2|0,1:2|1:0,0:0:0:0:
435,180,90016,2,0,P|478:209|483:294,1,135.719999171631,10|0,0:0|0:0,0:0:0:0:
474,311,90358,1,0,1:0:0:0:
341,150,90528,2,0,P|344:103|384:69,1,90.4799994477539,0|2,1:0|3:2,0:0:0:0:
259,221,90869,6,0,P|194:217|123:163,1,135.719999171631,10|0,0:0|0:0,0:0:0:0:
123,153,91210,1,0,1:0:0:0:
14,314,91379,2,0,P|72:336|106:273,1,135.719999171631,10|0,0:0|3:0,0:0:0:0:
47,243,91720,1,0,1:0:0:0:
191,355,91891,1,0,1:0:0:0:
307,161,92061,2,0,P|246:174|231:208,1,90.4799994477539,10|2,0:0|3:2,0:0:0:0:
395,367,92402,6,0,P|419:320|313:274,1,180.959998895508,0|10,1:0|0:2,0:0:0:0:
395,367,92913,1,2,0:0:0:0:
504,209,93084,2,0,P|489:255|520:297,1,90.4799994477539,0|0,1:0|1:0,0:0:0:0:
390,173,93426,1,8,0:3:0:0:
480,100,93595,6,0,P|456:46|337:51,1,180.959998895508,10|0,0:0|1:0,0:0:0:0:
236,187,94108,2,0,P|181:192|147:103,1,135.719999171631,8|0,0:0|3:0,0:0:0:0:
105,145,94430,6,0,L|117:97,1,45.239999723877,8|8,0:0|0:0,0:0:0:0:
168,45,94601,1,0,3:0:0:0:
262,112,94771,5,8,0:3:0:0:
145,214,94941,1,8,0:0:0:0:
145,214,95027,1,8,0:0:0:0:
145,214,95112,6,0,L|30:244,1,90.4799994477539,6|0,1:2|1:0,0:0:0:0:
200,324,95452,2,0,B|246:333|246:333|268:362|268:362|329:373,1,135.719999171631,10|0,0:0|3:0,0:0:0:0:
343,376,95793,1,0,1:0:0:0:
228,246,95964,1,4,0:3:0:0:
243,384,96134,5,10,0:0:0:0:
368,236,96305,1,2,0:0:0:0:
368,236,96390,1,2,0:0:0:0:
368,236,96475,2,0,L|378:134,1,90.4799994477539,0|0,1:0|1:0,0:0:0:0:
255,10,96816,6,0,B|188:33|188:33|212:110,1,135.719999171631,8|0,0:0|3:0,0:0:0:0:
211,117,97157,1,0,1:0:0:0:
54,205,97327,1,0,1:0:0:0:
77,128,97498,6,0,B|144:139|124:190|207:207,1,135.719999171631,8|0,0:0|0:0,0:0:0:0:
220,197,97839,1,2,1:2:0:0:
123,259,98009,1,0,1:0:0:0:
211,117,98180,5,10,0:0:0:0:
368,236,98350,1,2,3:2:0:0:
368,236,98435,1,0,3:0:0:0:
368,236,98521,2,0,L|474:211,1,90.4799994477539,0|0,1:0|1:0,0:0:0:0:
323,337,98862,1,10,0:0:0:0:
427,384,99032,1,2,0:0:0:0:
375,156,99202,6,0,P|342:177|360:232,1,90.4799994477539,0|0,1:2|1:0,0:0:0:0:
491,115,99543,1,8,0:0:0:0:
350,9,99714,1,2,0:0:0:0:
350,9,99799,1,2,0:0:0:0:
350,9,99884,2,0,P|309:21|253:34,1,90.4799994477539,0|0,1:0|1:0,0:0:0:0:
126,160,100225,2,0,P|171:118|246:147,1,135.719999171631,8|0,0:0|3:0,0:0:0:0:
285,193,100566,6,0,L|265:289,1,90.4799994477539,4|0,1:2|1:0,0:0:0:0:
131,171,100907,1,10,0:0:0:0:
30,328,101077,1,2,3:2:0:0:
30,328,101163,1,0,3:0:0:0:
30,328,101248,2,0,L|13:227,1,90.4799994477539,0|0,1:0|1:0,0:0:0:0:
179,300,101589,2,0,B|215:286|246:310|246:310|272:352|325:342,1,135.719999171631,10|0,0:0|0:0,0:0:0:0:
320,331,101930,5,2,1:2:0:0:
450,248,102100,1,0,1:0:0:0:
512,361,102271,5,10,0:0:0:0:
369,242,102441,1,2,3:2:0:0:
359,215,102526,1,0,3:0:0:0:
376,185,102612,1,0,1:0:0:0:
505,134,102782,1,0,1:0:0:0:
388,59,102952,5,10,0:2:0:0:
512,203,103123,1,8,0:3:0:0:
388,59,103293,6,0,L|264:93,1,90.4799994477539,4|0,1:2|1:0,0:0:0:0:
161,207,103634,2,0,B|146:176|115:168|115:168|257:200,1,180.959998895508,8|0,0:0|1:0,0:0:0:0:
128,89,104146,1,0,1:0:0:0:
251,200,104316,5,12,0:0:0:0:
81,303,104487,1,2,0:0:0:0:
161,207,104657,5,0,1:0:0:0:
297,313,104827,1,8,0:0:0:0:
168,384,104998,1,0,1:0:0:0:
329,217,105168,5,8,0:0:0:0:
347,172,105254,1,8,0:0:0:0:
315,140,105339,1,8,0:0:0:0:
161,207,105509,1,8,0:0:0:0:
297,313,105680,5,8,0:3:0:0:
223,288,105850,1,4,0:3:0:0:
364,207,106021,6,0,B|445:214|411:263|498:277,1,146.159995539551,6|2,1:2|1:2,0:0:0:0:
364,207,106532,1,2,0:2:0:0:
315,140,106702,6,0,L|334:40,1,73.0799977697755,0|0,1:0|0:0,0:0:0:0:
346,0,107043,1,2,1:2:0:0:
431,127,107214,6,0,L|398:136,1,29.580000180542,10|2,0:2|1:2,0:0:0:0:
249,209,107555,2,0,L|285:220,1,29.580000180542,8|2,0:0|3:2,0:0:0:0:
208,117,107896,1,2,0:0:0:0:
358,243,108066,6,0,L|338:334,1,73.0799977697755,2|8,1:2|0:3,0:0:0:0:
342,339,108322,1,4,0:3:0:0:
342,339,108407,1,2,1:2:0:0:
221,282,108577,1,8,2:3:0:0:
358,243,108748,6,0,B|279:232|298:298|186:279,1,146.159995539551,2|0,1:3|1:0,0:0:0:0:
159,231,109259,1,0,0:0:0:0:
31,332,109430,2,0,P|41:298|45:252,1,73.0799977697755,0|0,1:0|0:0,0:0:0:0:
145,375,109771,1,0,1:0:0:0:
284,217,109941,6,0,L|279:181,1,29.580000180542,8|0,0:0|1:3,0:0:0:0:
284,217,110452,6,0,B|330:183|386:274|301:333|228:293|213:239,1,215.759991440186,12|0,1:2|1:0,0:0:0:0:
118,152,110964,1,8,0:3:0:0:
186,176,111134,1,4,0:3:0:0:
46,259,111305,1,4,0:3:0:0:
52,128,111475,6,0,B|136:118|111:185|215:174,1,146.159995539551,6|2,1:2|1:2,0:0:0:0:
19,0,111987,2,0,P|14:32|0:70,1,73.0799977697755,2|0,0:0|1:0,0:0:0:0:
19,0,112498,5,2,1:2:0:0:
180,100,112668,2,0,L|218:94,1,29.580000180542,10|0,0:2|1:0,0:0:0:0:
46,259,113009,2,0,L|9:251,1,29.580000180542,8|2,0:2|1:2,0:0:0:0:
101,163,113350,5,2,0:0:0:0:
226,318,113521,2,0,P|263:318|307:289,2,73.0799977697755,0|8|10,1:0|0:3|0:0,0:0:0:0:
221,308,114202,6,0,B|296:307|272:353|355:355,1,135.719999171631,4|0,1:2|0:0,0:0:0:0:
365,369,114533,1,0,1:0:0:0:
230,227,114703,1,8,0:0:0:0:
409,154,114873,1,8,0:0:0:0:
233,384,115044,5,8,0:0:0:0:
457,269,115214,1,2,1:2:0:0:
285,125,115385,2,0,L|297:24,1,92.5,14|2,0:2|0:0,0:0:0:0:
296,39,116247,6,0,B|345:8|411:29|413:114|377:159|287:154|254:69|302:83|230:13|156:53,1,377.579985020325,6|0,1:2|0:0,0:0:0:0:
148,67,116929,1,4,1:2:0:0:
283,264,117270,5,0,1:0:0:0:
264,178,117441,1,0,1:0:0:0:
82,317,117611,5,0,1:0:0:0:
216,366,117781,1,8,1:2:0:0:
345,199,117952,5,10,1:2:0:0:
172,282,118122,1,10,1:2:0:0:
391,369,118293,5,6,1:2:0:0:
375,294,118463,1,0,0:0:0:0:
264,178,118634,5,2,1:2:0:0:
289,74,118804,1,2,1:2:0:0:
437,217,118975,5,0,1:0:0:0:
264,291,119145,1,8,1:2:0:0:
184,198,119316,5,10,1:2:0:0:
6,129,119486,1,10,1:2:0:0:
184,361,119656,5,4,1:2:0:0:
113,384,119827,1,0,1:0:0:0:
274,271,119997,5,0,1:0:0:0:
372,322,120168,1,0,1:0:0:0:
213,121,120338,5,0,1:0:0:0:
129,302,120509,1,8,1:2:0:0:
291,72,120679,5,10,1:2:0:0:
372,322,120850,1,8,1:2:0:0:
213,121,121020,6,0,B|325:99|287:203|416:178,1,200.969996013474,14|0,0:0|0:0,0:0:0:0:
417,167,121361,1,10,0:0:0:0:
280,375,121531,1,2,1:2:0:0:
109,264,121702,5,8,0:3:0:0:
51,210,121816,2,0,P|86:213|127:245,1,71.9199971467286,8|8,0:3|0:3,0:0:0:0:
217,328,122043,1,8,0:3:0:0:
279,278,122156,2,0,P|242:284|208:308,1,71.9199971467286,8|8,0:3|0:3,0:0:0:0:
143,368,122384,6,0,L|124:130,1,215.759991440186,4|0,1:2|0:0,0:0:0:0:
330,44,122895,5,0,1:0:0:0:
327,55,122952,5,0,1:0:0:0:
325,65,123009,5,0,1:0:0:0:
323,79,123066,6,0,B|271:64|271:64|246:19|246:19|188:5,1,161.819993580139,8|0,0:0|0:0,0:0:0:0:
169,0,123406,1,2,0:0:0:0:
256,164,123577,1,0,1:0:0:0:
330,44,123747,5,0,1:0:0:0:
138,248,123918,2,0,B|107:202|107:202|125:153,1,107.879995720093,8|0,0:0|0:0,0:0:0:0:
319,357,124259,2,0,L|261:373,1,53.9399978600465,0|0,3:0|3:0,0:0:0:0:
260,375,124429,6,0,B|214:356|220:303|220:303|286:249|286:249|275:300,1,215.759991440186,8|2,0:0|1:2,0:0:0:0:
449,185,125111,6,0,B|471:155|503:152|503:152|424:144|448:226|331:201,1,215.759991440186,6|2,1:2|0:0,0:0:0:0:
277,288,125622,1,2,1:2:0:0:
375,123,125793,5,8,0:0:0:0:
512,227,125963,1,0,1:0:0:0:
301,157,126134,5,10,0:2:0:0:
461,41,126296,1,0,1:0:0:0:
368,205,126475,5,10,0:0:0:0:
279,80,126645,1,0,1:0:0:0:
126,290,126815,5,2,1:2:0:0:
184,130,126986,1,0,1:0:0:0:
324,354,127156,5,2,1:2:0:0:
255,227,127327,1,0,1:0:0:0:
255,227,127412,1,0,3:0:0:0:
255,227,127497,2,0,B|312:196|349:259|349:259|305:302|328:370,1,215.759991440186,10|0,0:0|0:0,0:0:0:0:
143,263,128019,5,8,0:3:0:0:
143,263,128097,1,8,0:3:0:0:
143,263,128176,2,0,L|77:243,1,43.5,8|0,0:3|0:0,0:0:0:0:
255,47,128335,5,0,1:2:0:0:
255,47,128420,1,0,1:0:0:0:
255,47,128505,5,8,2:3:0:0:
273,67,128590,1,8,0:3:0:0:
247,113,128675,1,0,1:2:0:0:
292,161,128761,1,0,1:2:0:0:
255,227,128846,5,14,0:2:0:0:
511,340,129203,6,0,B|467:346|422:309|422:309|454:342|440:405,1,160.506874626221,6|0,1:2|0:0,0:0:0:0:
371,364,129458,2,0,L|303:384,1,54.0838378600465,10|2,0:0|1:2,0:0:0:0:
492,256,129714,6,0,P|506:229|504:177,1,67.1686386711579,10|0,0:0|0:0,0:0:0:0:
410,58,129884,1,0,1:0:0:0:
305,222,130055,5,2,1:2:0:0:
305,222,130140,1,8,0:0:0:0:
305,222,130225,2,0,B|357:206|357:206|376:160|376:160|445:135,1,161.446010626221,14|2,0:0|0:3,0:0:0:0:
494,115,130481,1,8,0:0:0:0:
512,109,130566,1,0,1:0:0:0:
296,235,130737,6,0,P|262:235|236:210,1,67.1686386711579,8|0,0:0|0:0,0:0:0:0:
144,81,130907,1,2,1:2:0:0:
144,81,130992,2,0,L|157:14,1,67.9546546711579,2|2,0:1|0:3,0:0:0:0:
14,173,131163,1,8,0:0:0:0:
6,160,131248,6,0,B|50:146|78:176|78:176|96:231|150:225,1,160.506874626221,12|8,0:0|0:0,0:0:0:0:
225,129,131504,1,8,0:0:0:0:
150,156,131589,2,0,B|184:147|184:147|193:140|193:140|224:129,1,80.2534373131104,8|8,0:3|0:3,0:0:0:0:
306,260,131759,2,0,B|340:267|340:267|351:277|351:277|380:286,1,81.1925733131104,4|8,0:3|0:3,0:0:0:0:
511,109,131930,6,0,P|441:103|393:150,1,134.337277342316,6|0,1:2|0:0,0:0:0:0:
332,170,132185,1,8,0:0:0:0:
332,170,132271,1,2,1:2:0:0:
239,40,132441,6,0,P|271:53|296:79,1,67.1686386711579,10|0,0:0|0:0,0:0:0:0:
426,223,132612,1,0,1:0:0:0:
225,382,132782,6,0,P|213:353|221:306,1,67.1686386711579,2|8,1:2|0:0,0:0:0:0:
332,170,132953,2,0,P|273:224|185:200,1,160.506874626221,14|2,0:0|0:3,0:0:0:0:
151,156,133208,1,8,0:0:0:0:
157,138,133293,1,0,1:0:0:0:
38,283,133464,6,0,L|116:265,1,67.1686386711579,8|0,2:0|0:0,0:0:0:0:
225,382,133634,1,0,1:0:0:0:
287,335,133720,2,0,L|354:352,1,67.1686386711579,2|8,0:1|0:0,0:0:0:0:
199,211,133890,1,8,0:0:0:0:
183,227,133975,6,0,B|175:254|175:254|177:278|177:278|168:309,2,80.7230053131104,8|0|8,0:0|1:0|0:0,0:0:0:0:
328,155,134231,1,8,0:0:0:0:
275,101,134316,2,0,B|271:75|271:75|277:53|277:53|267:8,2,80.2534373131104,2|0|10,1:2|3:0|3:2,0:0:0:0:
199,211,134572,5,0,3:0:0:0:
180,197,134657,2,0,B|204:164|252:172|252:172|268:219|320:230,1,160.506874626221,6|0,1:2|0:0,0:0:0:0:
328,155,134913,1,8,0:0:0:0:
328,155,134998,1,2,1:2:0:0:
114,357,135168,6,0,P|95:320|109:269,1,81.1925733131104,10|0,0:0|0:0,0:0:0:0:
275,101,135339,1,0,1:0:0:0:
431,278,135509,6,0,P|450:241|436:190,1,81.1925733131104,10|8,0:0|0:0,0:0:0:0:
270,22,135680,2,0,B|216:36|216:36|194:78|194:78|135:93,1,160.506874626221,6|2,1:2|0:3,0:0:0:0:
69,110,135935,1,8,0:0:0:0:
46,116,136021,1,0,1:0:0:0:
0,0,136191,6,0,B|27:8|27:8|39:18|39:18|86:33,1,80.2534373131104,8|0,0:0|0:0,0:0:0:0:
180,197,136362,1,8,0:3:0:0:
254,168,136447,2,0,B|227:176|227:176|215:186|215:186|168:201,1,80.2534373131104,2|8,0:1|0:2,0:0:0:0:
77,327,136617,1,8,0:0:0:0:
53,260,136703,6,0,P|119:258|179:332,1,134.337277342316,8|8,0:3|0:0,0:0:0:0:
242,291,136958,1,8,0:0:0:0:
242,291,137043,2,0,P|263:316|311:326,1,67.9546546711579,8|8,0:3|0:3,0:0:0:0:
351,377,137214,2,0,P|382:366|403:340,1,67.1686386711579,4|4,0:3|0:3,0:0:0:0:
467,141,137384,6,0,P|398:144|391:231,1,161.446010626221,6|0,1:2|0:0,0:0:0:0:
435,275,137640,2,0,L|526:300,1,80.2534373131104,8|2,0:0|1:2,0:0:0:0:
467,141,137896,6,0,P|441:112|393:109,1,67.1686386711579,10|0,0:0|0:0,0:0:0:0:
254,168,138066,1,0,1:0:0:0:
62,25,138237,5,2,1:2:0:0:
95,0,138322,1,8,0:0:0:0:
129,11,138407,6,0,B|141:57|113:85|113:85|109:82|109:82|71:115|89:160,1,160.506874626221,14|8,0:2|0:0,0:0:0:0:
124,216,138663,1,8,0:0:0:0:
139,233,138748,6,0,L|216:257,2,67.1686386711579,0|0|8,1:0|1:2|0:0,0:0:0:0:
85,282,139004,1,8,0:0:0:0:
70,300,139089,2,0,L|-5:320,1,67.1686386711579,0|0,1:0|1:0,0:0:0:0:
127,384,139259,6,0,P|141:355|140:315,1,67.9546546711579,8|8,0:0|0:0,0:0:0:0:
336,162,139430,5,8,0:3:0:0:
304,89,139515,2,0,P|302:124|322:160,1,67.1686386711579,8|4,0:3|0:3,0:0:0:0:
463,291,139685,5,4,0:3:0:0:
496,212,139771,2,0,B|367:184|413:330|239:279,1,240.760311939331,12|0,0:0|0:0,0:0:0:0:
170,258,140112,6,0,B|208:255|238:222|238:222|202:256|211:304,1,163.996157504273,6|2,1:2|1:2,0:0:0:0:
72,117,140793,6,0,L|87:34,1,82.4778547521363,2|2,1:2|0:3,0:0:0:0:
169,179,141134,2,0,B|123:189|123:189|105:210|105:210|42:223,1,123.476894128204,14|0,0:2|0:0,0:0:0:0:
36,225,141475,1,2,1:2:0:0:
231,59,141816,5,0,1:2:0:0:
323,140,141987,1,8,2:3:0:0:
249,176,142157,5,0,1:2:0:0:
336,39,142328,1,8,0:3:0:0:
472,162,142498,6,0,L|454:262,1,81.9980787521363,8|0,0:2|0:2,0:0:0:0:
296,366,142839,6,0,B|286:325|273:286|273:286|316:275|360:257,1,163.996157504273,6|2,1:2|1:2,0:0:0:0:
296,366,143350,1,2,0:2:0:0:
177,232,143521,2,0,P|216:239|249:270,1,81.9980787521363,0|2,1:2|0:2,0:0:0:0:
58,384,143862,2,0,P|26:347|63:274,1,122.997118128204,14|0,0:2|0:0,0:0:0:0:
103,230,144203,6,0,P|106:268|2:273,1,163.996157504273,2|0,1:2|1:2,0:0:0:0:
142,162,144714,1,8,0:3:0:0:
23,65,144884,2,0,L|35:154,1,82.4778547521363,0|8,1:2|0:3,0:0:0:0:
153,35,145225,1,8,0:3:0:0:
259,114,145396,1,0,0:0:0:0:
401,16,145566,6,0,P|389:67|379:134,1,108.167675720093,4|0,1:2|1:2,0:0:0:0:
246,266,145907,1,10,0:2:0:0:
283,201,146078,1,2,0:2:0:0:
439,339,146248,2,0,B|397:345|397:345|380:360|380:360|309:369,1,108.167675720093,2|0,1:2|1:2,0:0:0:0:
459,239,146589,1,10,0:2:0:0:
330,375,146759,1,2,0:2:0:0:
137,223,146930,6,0,P|186:168|276:196,1,162.251513580139,2|0,1:2|0:0,0:0:0:0:
275,197,147271,2,0,P|207:186|205:141,1,108.167675720093,10|0,0:2|0:2,0:0:0:0:
40,318,147612,2,0,P|122:296|151:361,1,162.251513580139,2|0,1:2|0:0,0:0:0:0:
143,376,147953,1,10,0:2:0:0:
0,247,148123,1,0,1:2:0:0:
75,384,148293,5,14,0:2:0:0:
275,197,148464,1,0,1:2:0:0:
134,110,148634,1,0,1:2:0:0:
363,324,148805,5,8,0:2:0:0:
166,186,148975,1,0,1:2:0:0:
308,100,149146,1,0,1:2:0:0:
243,349,149316,5,14,0:2:0:0:
207,41,149487,1,2,0:2:0:0:
412,183,149657,6,0,L|329:202,1,54.0838378600465,2|0,1:2|3:0,0:0:0:0:
136,338,149828,1,8,0:0:0:0:
106,296,149913,1,8,0:0:0:0:
112,248,149998,1,8,0:2:0:0:
150,214,150083,1,8,0:2:0:0:
167,211,150168,6,0,L|249:235,1,67.9546546711579,0|0,1:2|1:2,0:0:0:0:
349,354,150339,5,8,2:3:0:0:
341,348,150424,2,0,L|325:266,1,67.1686386711579,8|8,0:3|0:3,0:0:0:0:
136,338,150595,5,2,1:2:0:0:
141,346,150680,2,0,P|173:371|222:369,1,80.2534373131104,14|0,0:2|0:0,0:0:0:0:
359,195,150850,2,0,P|390:169|442:166,1,81.1925733131104,2|0,0:0|0:0,0:0:0:0:
490,230,151021,6,0,P|400:241|356:188,1,160.506874626221,6|0,1:2|0:0,0:0:0:0:
306,145,151276,1,10,0:0:0:0:
306,145,151362,1,2,1:2:0:0:
428,22,151532,6,0,P|445:54|440:108,1,67.1686386711579,10|0,0:0|0:0,0:0:0:0:
284,218,151703,1,0,1:0:0:0:
75,113,151873,5,2,1:2:0:0:
80,96,151958,1,8,0:0:0:0:
85,81,152043,2,0,B|185:60|185:60|160:82|160:118,1,161.446010626221,14|2,0:0|0:3,0:0:0:0:
229,118,152299,2,0,L|304:144,1,80.2534373131104,8|0,0:0|1:0,0:0:0:0:
198,338,152555,6,0,P|185:313|188:272,1,67.1686386711579,8|0,0:0|0:0,0:0:0:0:
304,144,152725,1,2,1:2:0:0:
356,201,152810,2,0,P|356:237|336:271,1,67.9546546711579,2|2,0:1|0:3,0:0:0:0:
229,118,152981,1,8,0:0:0:0:
290,69,153066,6,0,B|343:58|343:58|369:22|369:22|446:9,1,160.506874626221,8|8,0:3|0:0,0:0:0:0:
481,73,153322,1,8,0:0:0:0:
481,73,153407,2,0,L|462:150,1,67.1686386711579,8|8,0:3|0:3,0:0:0:0:
343,341,153578,1,4,0:3:0:0:
315,297,153663,1,4,0:3:0:0:
342,264,153748,6,0,B|390:253|416:281|416:281|440:348|506:344,1,160.506874626221,6|0,1:2|0:0,0:0:0:0:
495,272,154004,1,8,0:0:0:0:
495,272,154089,1,2,1:2:0:0:
229,118,154259,6,0,L|144:144,1,67.9546546711579,10|0,0:0|0:0,0:0:0:0:
56,295,154430,1,0,1:0:0:0:
0,173,154600,6,0,L|81:195,1,67.9546546711579,2|8,1:2|0:0,0:0:0:0:
222,369,154771,2,0,B|167:350|167:350|141:313|150:268|198:275,1,160.506874626221,14|2,0:0|0:3,0:0:0:0:
246,219,155026,2,0,P|265:256|258:305,1,81.1925733131104,8|0,0:0|1:0,0:0:0:0:
0,173,155282,6,0,P|0:141|26:104,1,67.1686386711579,8|0,2:0|0:0,0:0:0:0:
193,44,155453,1,0,1:0:0:0:
126,6,155538,2,0,L|193:27,1,67.1686386711579,2|8,0:1|0:0,0:0:0:0:
307,164,155708,1,8,0:0:0:0:
364,108,155793,6,0,P|381:78|375:22,2,80.7230053131104,8|0|8,0:0|1:0|0:0,0:0:0:0:
246,219,156049,1,8,0:0:0:0:
246,219,156134,2,0,P|245:259|270:301,1,81.1925733131104,2|0,1:2|3:0,0:0:0:0:
405,375,156305,1,10,3:2:0:0:
422,330,156390,1,0,3:0:0:0:
393,304,156475,6,0,B|336:320|336:320|312:352|312:352|251:367,1,161.446010626221,6|0,1:2|0:0,0:0:0:0:
184,379,156731,1,8,0:0:0:0:
165,384,156816,1,2,1:2:0:0:
391,217,156987,6,0,P|429:222|466:257,1,80.2534373131104,10|0,0:0|0:0,0:0:0:0:
252,366,157157,1,0,1:0:0:0:
231,104,157328,6,0,P|191:110|159:150,1,80.2534373131104,10|8,0:0|0:0,0:0:0:0:
332,264,157498,2,0,L|364:105,1,160.506874626221,6|2,1:2|0:3,0:0:0:0:
423,65,157754,2,0,P|438:101|429:140,2,67.1686386711579,8|0|0,0:0|1:0|0:0,0:0:0:0:
381,6,158009,1,8,0:0:0:0:
247,84,158180,5,8,0:3:0:0:
247,84,158265,2,0,P|213:76|177:47,1,67.1686386711579,2|8,0:1|0:2,0:0:0:0:
49,196,158435,1,8,0:0:0:0:
15,133,158521,6,0,P|114:139|144:205,1,160.506874626221,8|8,0:3|0:0,0:0:0:0:
197,285,158776,1,8,0:0:0:0:
214,210,158862,2,0,P|215:249|193:291,1,80.2534373131104,8|8,0:3|0:3,0:0:0:0:
73,371,159032,1,4,0:3:0:0:
45,333,159117,1,4,0:3:0:0:
66,307,159203,6,0,B|155:289|119:377|237:358,1,160.506874626221,6|0,1:2|0:0,0:0:0:0:
273,316,159458,1,8,0:0:0:0:
273,316,159543,1,2,1:2:0:0:
164,124,159714,6,0,P|143:153|145:196,1,67.1686386711579,10|0,0:0|0:0,0:0:0:0:
317,384,159884,1,0,1:0:0:0:
458,99,160055,6,0,P|479:128|477:171,1,67.1686386711579,2|8,1:2|0:0,0:0:0:0:
273,316,160225,2,0,B|257:243|257:243|289:196|340:226,1,161.446010626221,14|8,0:2|0:0,0:0:0:0:
421,295,160481,5,8,0:0:0:0:
443,319,160566,2,0,L|430:388,1,67.1686386711579,0|0,1:0|0:0,0:0:0:0:
236,227,160737,2,0,P|245:194|252:145,1,67.1686386711579,8|0,0:0|0:0,0:0:0:0:
273,316,160907,6,0,L|196:340,1,67.1686386711579,0|0,1:0|1:0,0:0:0:0:
406,171,161078,2,0,L|476:194,1,67.1686386711579,8|8,0:0|0:0,0:0:0:0:
302,10,161238,6,0,B|308:40|308:40|298:66|298:66|305:104,2,89.3199982282105,8|8|2,0:3|0:0|0:0,0:0:0:0:
406,171,161589,6,0,B|363:156|331:185|331:185|306:242|246:233,1,160.079994626221,12|8,0:0|0:0,0:0:0:0:
250,161,161844,1,8,0:0:0:0:
250,161,161920,6,0,B|210:152|210:152|195:132|195:132|135:116,1,107.879995720093,6|0,1:2|1:0,0:0:0:0:
40,231,162260,1,8,0:0:0:0:
152,307,162431,5,4,0:3:0:0:
181,270,162516,1,8,0:3:0:0:
158,232,162601,1,2,1:2:0:0:
13,152,162772,1,0,1:0:0:0:
40,231,162942,5,8,0:0:0:0:
162,129,163113,1,2,3:2:0:0:
162,129,163198,1,8,0:3:0:0:
162,129,163295,2,0,B|220:115|194:94|266:80,1,107.879995720093,2|0,1:2|1:0,0:0:0:0:
450,238,163635,2,0,P|368:251|332:178,1,161.819993580139,8|8,0:0|0:3,0:0:0:0:
316,166,163964,1,0,1:0:0:0:
491,309,164127,1,0,1:0:0:0:
304,384,164290,5,10,0:2:0:0:
455,222,164453,1,2,3:2:0:0:
334,59,164648,6,0,L|315:171,1,107.879995720093,6|0,1:2|1:0,0:0:0:0:
170,322,164988,2,0,B|141:278|141:278|164:209,1,107.879995720093,8|4,0:0|0:3,0:0:0:0:
190,163,165244,1,8,0:3:0:0:
190,163,165329,1,0,1:0:0:0:
316,273,165500,1,0,1:0:0:0:
164,338,165670,5,10,0:2:0:0:
315,165,165841,1,2,3:2:0:0:
315,165,165926,1,2,3:2:0:0:
315,165,166011,6,0,B|235:147|279:91|177:72,1,161.819993580139,2|0,1:2|0:0,0:0:0:0:
144,9,166352,2,0,P|112:57|128:123,1,107.879995720093,8|4,0:2|0:3,0:0:0:0:
84,167,166608,1,8,0:3:0:0:
84,167,166693,1,0,1:0:0:0:
264,73,166863,1,0,1:0:0:0:
116,104,167034,5,10,0:2:0:0:
287,249,167204,1,2,3:2:0:0:
62,362,167375,5,6,1:2:0:0:
165,218,167545,1,0,1:0:0:0:
242,362,167716,5,10,0:0:0:0:
56,254,167886,1,4,0:3:0:0:
31,216,167971,1,8,0:3:0:0:
53,188,168057,1,0,1:0:0:0:
196,122,168227,1,2,1:2:0:0:
105,0,168398,2,0,P|80:47|91:117,1,107.879995720093,10|0,0:0|3:0,0:0:0:0:
287,249,168738,5,0,1:0:0:0:
356,220,168909,1,0,1:0:0:0:
424,193,169079,1,8,0:0:0:0:
307,330,169250,5,4,0:3:0:0:
259,335,169335,1,8,0:3:0:0:
223,299,169420,1,0,1:0:0:0:
371,138,169591,1,0,1:0:0:0:
478,258,169761,6,0,L|466:367,1,107.879995720093,10|0,0:0|1:0,0:0:0:0:
251,167,170102,5,14,0:0:0:0:
478,38,170273,1,0,1:0:0:0:
481,21,170443,1,2,1:2:0:0:
478,258,170613,5,14,0:0:0:0:
281,61,170784,1,0,1:0:0:0:
276,43,170954,1,2,1:2:0:0:
485,172,171125,6,0,B|398:171|427:233|329:227,1,161.819993580139,14|0,0:0|0:0,0:0:0:0:
277,188,171466,1,0,1:0:0:0:
402,78,171636,1,0,1:0:0:0:
384,48,171721,1,8,0:0:0:0:
323,27,171807,1,8,0:0:0:0:
253,51,171892,1,8,0:0:0:0:
218,90,171977,1,0,1:0:0:0:
189,95,172062,1,0,1:0:0:0:
179,88,172148,5,8,2:3:0:0:
181,79,172233,1,8,2:3:0:0:
183,70,172318,1,4,0:3:0:0:
186,61,172403,1,8,0:3:0:0:
189,52,172488,6,0,B|258:68|258:68|284:124|284:124|362:147,1,200.969996013474,10|0,0:0|0:0,0:0:0:0:
376,150,172829,1,14,0:2:0:0:
176,330,173000,1,0,1:2:0:0:
355,269,173170,1,0,1:2:0:0:
138,153,173341,5,14,0:2:0:0:
298,383,173511,1,2,1:2:0:0:
89,264,173682,1,0,1:2:0:0:
302,85,173852,5,12,0:2:0:0:
176,330,174023,1,0,1:2:0:0:
130,135,174193,1,0,1:2:0:0:
343,244,174363,5,12,0:0:0:0:
86,354,174534,1,0,1:0:0:0:
219,159,174704,1,0,1:2:0:0:
298,383,174875,5,12,0:2:0:0:
193,82,175045,1,0,1:2:0:0:
89,264,175216,6,0,B|74:221|32:216|32:216|152:233|85:312|206:333,1,266.220001624878,12|0,0:2|0:0,0:0:0:0:
201,248,175557,6,0,P|127:240|71:369,1,233.159988971009,4|8,1:2|0:2,0:0:0:0:
201,248,176068,1,0,0:2:0:0:
45,98,176238,2,0,P|84:137|145:132,1,107.879995720093,0|0,1:2|1:2,0:0:0:0:
264,34,176579,1,8,0:2:0:0:
411,157,176750,5,2,0:0:0:0:
427,125,176835,1,2,0:2:0:0:
402,98,176920,2,0,B|310:94|342:164|234:148,1,161.819993580139,2|0,1:2|0:0,0:0:0:0:
233,135,177261,1,10,0:2:0:0:
382,251,177432,1,2,0:0:0:0:
248,320,177602,5,0,1:0:0:0:
325,174,177773,1,0,1:0:0:0:
370,372,177943,5,10,0:2:0:0:
245,227,178113,1,2,0:2:0:0:
245,227,178199,1,2,0:0:0:0:
245,227,178284,6,0,B|200:207|165:242|165:242|142:298|80:282,1,161.819993580139,0|0,1:2|0:2,0:0:0:0:
44,255,178625,1,8,0:2:0:0:
144,119,178795,1,2,3:2:0:0:
144,119,178880,1,2,3:2:0:0:
144,119,178966,2,0,B|174:160|174:160|152:228,1,107.879995720093,0|0,1:0|1:0,0:0:0:0:
18,47,179307,2,0,B|56:38|56:38|70:24|70:24|142:7,1,107.879995720093,8|0,0:2|0:2,0:0:0:0:
186,55,179562,1,2,0:0:0:0:
186,55,179648,6,0,B|240:67|240:67|264:108|264:108|326:122,1,161.819993580139,0|0,1:2|0:0,0:0:0:0:
352,129,179988,1,10,0:2:0:0:
467,78,180159,2,0,L|449:12,1,53.9399978600465,2|2,0:2|0:2,0:0:0:0:
242,130,180329,1,2,1:2:0:0:
213,169,180415,1,2,0:0:0:0:
227,213,180500,1,2,0:2:0:0:
290,256,180585,5,2,1:2:0:0:
324,277,180670,2,0,P|353:328|337:385,1,107.879995720093,10|0,0:2|1:0,0:0:0:0:
66,274,181011,6,0,P|48:215|155:199,1,161.819993580139,2|0,1:2|0:0,0:0:0:0:
160,238,181352,1,8,0:2:0:0:
18,123,181523,1,0,0:2:0:0:
138,10,181693,2,0,P|176:49|145:105,1,107.879995720093,2|0,1:2|1:2,0:0:0:0:
66,274,182034,6,0,P|144:268|218:333,1,161.819993580139,8|0,0:2|0:0,0:0:0:0:
293,313,182375,6,0,B|181:295|209:396|86:372,1,215.759991440186,2|10,1:2|0:2,0:0:0:0:
247,223,182886,1,0,0:2:0:0:
369,378,183057,2,0,P|403:327|368:269,1,107.879995720093,2|0,1:2|1:2,0:0:0:0:
508,112,183398,2,0,P|437:141|474:222,1,161.819993580139,10|0,0:2|0:0,0:0:0:0:
508,112,183738,6,0,B|423:98|461:42|361:32,1,161.819993580139,2|0,1:2|0:0,0:0:0:0:
348,10,184079,1,8,0:2:0:0:
211,115,184250,1,2,0:2:0:0:
194,120,184335,1,2,0:2:0:0:
178,126,184420,1,0,1:2:0:0:
276,42,184591,1,0,1:2:0:0:
405,178,184761,2,0,L|386:298,1,107.879995720093,8|0,0:2|0:2,0:0:0:0:
439,345,185017,1,2,0:0:0:0:
459,363,185102,6,0,P|492:322|466:257,1,107.879995720093,2|0,1:2|1:0,0:0:0:0:
299,379,185443,2,0,L|362:364,1,53.9399978600465,10|0,0:2|0:0,0:0:0:0:
237,257,185613,1,2,0:2:0:0:
382,183,185784,1,0,1:2:0:0:
366,294,185954,5,2,1:2:0:0:
211,115,186125,1,12,0:2:0:0:
392,199,186295,5,2,0:2:0:0:
141,363,186466,2,0,B|109:344|69:340|69:340|21:305|37:230|108:241,1,215.759991440186,4|8,1:2|0:2,0:0:0:0:
211,115,186977,2,0,L|198:186,2,53.9399978600465,2|2|0,0:0|0:0|1:0,0:0:0:0:
112,20,187318,1,0,1:0:0:0:
49,128,187488,5,8,0:0:0:0:
200,26,187659,1,2,2:0:0:0:
300,108,187829,6,0,B|383:121|351:172|442:192,1,161.819993580139,2|0,1:2|0:0,0:0:0:0:
459,174,188170,1,8,0:0:0:0:
286,305,188341,2,0,P|261:259|287:192,1,107.879995720093,2|2,2:2|1:2,0:0:0:0:
419,344,188682,1,2,1:2:0:0:
328,157,188852,5,8,0:0:0:0:
185,262,189023,1,2,0:0:0:0:
185,262,189108,1,2,0:0:0:0:
185,262,189193,6,0,B|142:243|105:274|105:274|79:324|15:308,1,161.819993580139,2|0,1:2|0:0,0:0:0:0:
39,242,189534,2,0,B|113:274|113:274|87:362,1,161.819993580139,10|0,0:0|0:0,0:0:0:0:
84,377,189875,1,2,1:2:0:0:
264,227,190045,1,0,1:0:0:0:
132,155,190216,5,10,0:0:0:0:
248,319,190386,2,0,L|315:343,1,53.9399978600465,2|2,0:0|0:0,0:0:0:0:
450,182,190557,6,0,L|434:58,1,107.879995720093,2|2,1:2|0:0,0:0:0:0:
264,227,190898,1,8,0:0:0:0:
438,377,191068,1,2,2:0:0:0:
470,341,191153,1,2,0:0:0:0:
451,306,191238,1,2,1:2:0:0:
354,215,191409,1,0,1:0:0:0:
225,320,191579,6,0,B|168:331|168:331|143:366|143:366|77:378,1,161.819993580139,10|0,0:0|0:0,0:0:0:0:
26,255,191920,6,0,B|81:248|108:205|108:205|91:281|151:323,1,215.759991440186,6|10,1:2|0:0,0:0:0:0:
26,168,192432,1,2,0:0:0:0:
196,15,192602,2,0,P|199:45|184:80,1,53.9399978600465,0|0,1:0|0:0,0:0:0:0:
143,121,192773,1,0,1:0:0:0:
92,15,192943,5,8,0:0:0:0:
262,141,193113,1,2,0:0:0:0:
147,215,193284,6,0,P|123:171|152:113,1,107.879995720093,2|0,1:2|1:0,0:0:0:0:
336,299,193625,2,0,B|278:312|278:312|257:346|257:346|192:360,1,161.819993580139,8|0,0:0|1:0,0:0:0:0:
172,365,193966,1,10,0:0:0:0:
359,196,194136,1,0,1:0:0:0:
512,318,194307,6,0,B|476:306|476:306|466:287|466:287|409:265,1,107.879995720093,10|2,0:0|0:0,0:0:0:0:
181,94,194648,2,0,P|229:35|316:55,1,161.819993580139,6|0,1:2|0:0,0:0:0:0:
326,71,194988,1,10,0:0:0:0:
148,215,195159,2,0,L|135:272,2,53.9399978600465,2|2|0,0:0|0:0|1:0,0:0:0:0:
102,151,195500,1,0,1:0:0:0:
206,299,195670,2,0,P|248:336|319:332,1,107.879995720093,8|8,2:0|0:0,0:0:0:0:
349,287,195926,1,8,0:0:0:0:
349,287,196011,5,2,1:2:0:0:
178,379,196182,1,0,1:0:0:0:
394,348,196352,5,10,0:2:0:0:
239,174,196523,1,0,1:0:0:0:
405,153,196693,5,10,0:2:0:0:
206,299,196863,1,0,1:0:0:0:
177,34,197034,1,10,2:2:0:0:
177,34,197383,5,2,1:2:0:0:
405,153,197551,1,8,0:0:0:0:
426,206,197635,1,8,0:0:0:0:
401,233,197720,1,8,0:0:0:0:
206,343,197888,1,4,2:3:0:0:
195,314,197972,1,4,0:3:0:0:
206,299,198057,1,0,1:3:0:0:
414,322,198225,5,4,0:3:0:0:
372,341,198309,1,4,0:3:0:0:
329,320,198394,1,0,1:0:0:0:
311,276,198478,1,4,0:3:0:0:
288,225,198562,1,4,0:3:0:0:
233,221,198647,1,8,0:3:0:0:
206,299,198748,6,0,B|284:322|371:238|280:243|373:163|489:185|529:251|522:323|512:404|387:407|344:322|421:286,1,511.927820388428,6|0,0:2|0:0,0:0:0:0:
233,221,200135,6,0,B|207:134|23:62|-49:205|-59:310|92:375|203:297|194:230|190:66|53:173|-48:136|-12:-6|90:-142|227:27|142:63,1,793.601984314453,2|0,0:0|0:0,0:0:0:0:
512,0,202840,6,0,L|504:71,1,59.317760361084,2|2,0:0|0:0,0:0:0:0:
441,101,203351,2,0,L|448:167,1,59.317760361084,2|2,0:0|0:0,0:0:0:0:
364,74,203862,1,2,0:0:0:0:
364,74,204374,5,0,0:0:0:0:
310,127,204544,1,2,0:0:0:0:
243,97,204715,1,0,0:0:0:0:
188,149,204885,2,0,L|118:163,2,59.230992361084,2|2|2,0:0|0:0|0:0,0:0:0:0:
75,293,205908,5,2,0:0:0:0:
133,302,206078,2,0,L|69:292,1,59.317760361084,2|2,0:0|0:0,0:0:0:0:
176,373,206590,2,0,L|275:357,1,88.629568541626,2|0,0:0|0:0,0:0:0:0:
176,373,207612,5,0,0:0:0:0:
452,213,207953,6,0,L|443:253,1,29.658880180542,2|2,0:0|0:0,0:0:0:0:
470,203,208294,2,0,L|455:270,1,59.317760361084,2|2,0:0|0:0,0:0:0:0:
301,152,208805,2,0,L|309:216,1,59.317760361084,2|2,0:0|0:0,0:0:0:0:
176,373,209317,2,0,L|193:278,1,88.629568541626,2|0,0:0|0:0,0:0:0:0:
259,324,209999,1,2,0:0:0:0:
121,189,210340,6,0,L|129:254,1,59.144224361084,2|2,0:0|0:0,0:0:0:0:
121,189,211021,6,0,P|105:160|109:130,1,59.317760361084,2|2,0:0|0:0,0:0:0:0:
57,281,211533,2,0,L|-6:298,1,59.317760361084,2|2,0:0|0:0,0:0:0:0:
146,365,212044,2,0,L|187:378,1,29.658880180542,2|0,0:0|0:0,0:0:0:0:
253,244,212385,6,0,L|216:254,1,29.658880180542,2|0,0:3|0:0,0:0:0:0:
133,155,212641,5,0,0:2:0:0:
148,143,212726,2,0,L|200:156,1,54.0838378600465,2|0,0:3|0:0,0:0:0:0:
329,261,212896,1,8,0:3:0:0:
329,261,212982,1,8,0:3:0:0:
329,261,213067,6,0,B|400:326|334:396|239:393|210:362|152:221|263:131|320:229|431:120|340:1,1,559.895789191773,6|0,1:2|0:2,0:0:0:0:
321,4,213749,6,0,P|343:51|340:98,1,90.1904634477539,6|0,1:2|0:0,0:0:0:0:
427,188,214090,2,0,L|515:218,1,90.1904634477539,0|2,1:0|0:0,0:0:0:0:
330,347,214430,2,0,B|311:307|311:307|335:254,1,90.7212794477539,2|0,1:2|0:2,0:0:0:0:
427,188,214771,6,0,P|350:242|239:228,1,188.421124587891,10|0,0:2|0:0,0:0:0:0:
202,178,215112,6,0,P|214:132|223:79,1,90.7212794477539,2|0,1:2|0:0,0:0:0:0:
97,214,215453,2,0,P|89:262|132:295,1,90.7212794477539,0|0,1:2|0:2,0:0:0:0:
89,96,215794,2,0,P|44:83|-4:61,1,90.7212794477539,0|0,1:2|0:2,0:0:0:0:
202,178,216135,5,8,0:2:0:0:
22,311,216305,1,2,0:0:0:0:
20,299,216391,1,2,0:2:0:0:
19,288,216476,6,0,B|118:276|91:361|199:349,1,181.442558895508,2|2,1:2|1:2,0:0:0:0:
97,214,216987,1,2,2:2:0:0:
296,100,217158,2,0,L|275:206,1,90.1904634477539,0|2,1:2|0:2,0:0:0:0:
398,367,217499,6,0,B|469:341|469:341|430:210,1,187.686148587891,8|2,0:2|0:0,0:0:0:0:
488,186,217840,6,0,B|424:208|424:208|401:252|401:252|334:274,1,180.911742895508,2|0,1:2|1:2,0:0:0:0:
60,38,218521,5,8,0:2:0:0:
127,1,218635,2,0,P|155:4|199:37,1,60.6577916318359,8|8,0:3|0:3,0:0:0:0:
288,111,218862,5,8,0:3:0:0:
348,155,218976,2,0,P|381:149|416:127,1,60.6577916318359,8|8,3:3|0:3,0:0:0:0:
268,26,219203,6,0,L|237:228,1,181.442558895508,6|2,1:2|0:2,0:0:0:0:
58,330,219715,5,2,1:2:0:0:
56,319,219771,5,0,1:2:0:0:
55,307,219828,5,0,1:2:0:0:
54,294,219885,6,0,B|171:270|171:270|142:291|137:336,1,181.442558895508,14|2,0:2|1:2,0:0:0:0:
34,184,220396,1,2,0:0:0:0:
217,334,220567,6,0,P|254:351|344:282,1,135.551103171631,6|0,1:2|0:0,0:0:0:0:
365,297,220908,1,2,0:2:0:0:
257,166,221078,2,0,L|244:224,1,45.360639723877,0|0,1:2|1:2,0:0:0:0:
420,102,221249,5,10,0:2:0:0:
263,4,221419,1,0,1:2:0:0:
423,200,221590,5,14,2:2:0:0:
217,334,221760,1,0,1:2:0:0:
217,334,221845,1,0,1:2:0:0:
217,334,221930,6,0,P|208:314|211:262,1,67.1686386711579,12|0,0:2|0:0,0:0:0:0:
126,106,222101,2,0,P|189:100|243:154,1,134.337277342316,8|0,0:2|1:2,0:0:0:0:
257,166,222357,1,0,1:2:0:0:
257,166,222442,6,0,P|226:187|174:186,1,66.3826226711579,12|0,0:2|0:0,0:0:0:0:
371,49,222612,2,0,B|417:60|417:60|439:89|439:89|495:104,1,134.337277342316,8|0,0:2|1:2,0:0:0:0:
438,300,222953,6,0,L|428:222,1,65.4240024890901,14|0,0:2|0:0,0:0:0:0:
271,102,223124,2,0,L|255:171,1,64.6584024890901,2|0,1:2|0:0,0:0:0:0:
155,309,223292,6,0,B|132:289|98:296|98:296|235:263,1,174.8816,12|0,0:2|0:0,0:0:0:0:
328,202,223539,6,0,B|430:235|430:235|403:273|353:238,1,174.8816,8|0,0:2|0:0,0:0:0:0:
134,72,223786,6,0,P|162:41|224:52,1,87.4408000000001,8|0,0:2|0:0,0:0:0:0:
271,102,223994,6,2,L|255:171,1,65.25,2|2,0:1|0:0,0:1:0:0:
8,321,224658,6,0,B|31:307|31:307|82:323|82:323|97:380|165:382,1,160.506874626221,6|0,1:2|0:0,0:0:0:0:
155,309,224913,2,0,B|180:301|180:301|189:293|189:293|240:279,1,67.1686386711579,10|2,0:0|1:2,0:0:0:0:
62,143,225169,6,0,P|40:177|42:216,1,67.1686386711579,10|0,0:0|0:0,0:0:0:0:
135,378,225339,1,0,1:0:0:0:
301,300,225510,5,2,1:2:0:0:
314,254,225586,1,8,0:0:0:0:
288,229,225676,6,0,B|207:241|238:300|143:310,1,160.079994626221,14|2,0:0|0:3,0:0:0:0:
82,283,225926,1,8,0:0:0:0:
89,264,226022,1,0,1:0:0:0:
225,206,226192,6,0,P|256:220|302:230,1,66.9899986711579,8|0,0:0|0:0,0:0:0:0:
397,352,226362,1,2,1:2:0:0:
333,372,226448,2,0,P|366:364|407:345,1,66.9899986711579,2|2,0:1|0:3,0:0:0:0:
512,192,226618,1,8,0:0:0:0:
459,146,226703,6,0,P|394:197|420:277,1,160.079994626221,8|8,0:3|0:0,0:0:0:0:
469,319,226959,1,8,0:0:0:0:
469,319,227044,2,0,P|485:294|482:241,1,66.9899986711579,8|8,0:3|0:3,0:0:0:0:
381,176,227215,2,0,L|306:151,1,66.9899986711579,4|4,0:3|0:3,0:0:0:0:
157,308,227385,6,0,B|211:287|211:287|230:252|230:252|293:225,1,160.079994626221,6|0,1:2|0:0,0:0:0:0:
320,161,227641,2,0,L|383:182,1,66.9899986711579,8|2,0:0|1:2,0:0:0:0:
144,81,227897,6,0,L|124:165,1,66.3826226711579,10|0,0:0|0:0,0:0:0:0:
291,308,228067,1,0,1:0:0:0:
449,79,228237,6,0,L|460:159,1,67.1686386711579,2|8,1:2|0:0,0:0:0:0:
287,227,228408,2,0,P|245:166|287:94,1,159.567738626221,14|2,0:0|0:3,0:0:0:0:
313,31,228664,1,8,0:0:0:0:
313,31,228749,1,0,1:0:0:0:
287,227,228919,6,0,P|260:248|214:252,1,67.329414671158,8|0,2:0|0:0,0:0:0:0:
128,146,229083,1,0,1:0:0:0:
132,67,229166,6,0,P|147:98|140:138,1,67.329414671158,2|8,0:1|0:0,0:0:0:0:
7,234,229331,1,8,0:0:0:0:
0,156,229431,2,0,B|55:171|55:171|76:208|76:208|141:227,1,160.506874626221,8|8,0:0|0:0,0:0:0:0:
207,248,229686,1,8,0:0:0:0:
228,253,229771,6,0,P|260:246|286:225,1,67.1686386711579,2|0,1:2|3:0,0:0:0:0:
405,97,229942,2,0,P|437:103|463:124,1,66.3826226711579,10|0,3:2|3:0,0:0:0:0:
402,178,230112,6,0,B|356:179|329:140|344:140|317:93|257:99,1,160.506874626221,6|0,1:2|0:0,0:0:0:0:
278,26,230367,2,0,P|236:31|207:74,1,81.1925733131104,8|2,0:0|1:2,0:0:0:0:
417,256,230623,6,0,L|400:167,1,80.2534373131104,10|0,0:0|0:0,0:0:0:0:
211,379,230793,1,0,1:0:0:0:
278,247,230933,5,10,0:0:0:0:
278,247,231018,1,8,0:0:0:0:
278,247,231103,6,0,B|317:238|343:271|343:271|359:333|433:329,1,160.079994626221,6|2,1:2|0:3,0:0:0:0:
417,256,231359,1,8,0:0:0:0:
417,256,231444,1,0,1:0:0:0:
211,379,231614,6,0,P|201:351|207:311,1,66.9899986711579,8|0,0:0|0:0,0:0:0:0:
339,112,231785,1,8,0:3:0:0:
328,175,231870,2,0,P|340:149|337:107,1,66.9899986711579,2|8,0:1|0:2,0:0:0:0:
218,0,232040,1,8,0:0:0:0:
164,57,232157,6,0,B|105:72|105:72|82:104|82:104|23:121,1,160.506874626221,8|8,0:3|0:0,0:0:0:0:
127,191,232412,1,8,0:0:0:0:
141,206,232497,2,0,P|161:172|143:117,1,80.0399973131104,8|8,0:3|0:3,0:0:0:0:
12,41,232668,2,0,L|25:125,1,80.0399973131104,4|4,0:3|0:3,0:0:0:0:
132,289,232838,6,0,B|180:292|207:253|207:253|198:302|239:334,1,161.446010626221,6|0,1:2|0:0,0:0:0:0:
284,272,233093,1,8,0:0:0:0:
284,272,233178,2,0,B|316:263|316:263|326:253|326:253|376:239,1,82.1317093131104,2|0,1:2|0:0,0:0:0:0:
474,337,233349,6,0,B|478:362|487:382|487:382|410:338|453:252,1,177.480001083252,14|0,0:0|1:0,0:0:0:0:
420,203,233605,1,8,0:3:0:0:
420,203,233690,2,0,P|434:173|437:118,1,66.9899986711579,2|8,1:2|0:0,0:0:0:0:
283,87,233860,6,0,B|265:53|230:47|230:47|331:65|294:133|383:149,1,240.119991939331,14|8,0:2|0:0,0:0:0:0:
399,75,234201,6,0,L|473:53,1,66.9899986711579,0|0,1:0|0:0,0:0:0:0:
269,183,234372,1,8,0:0:0:0:
254,192,234457,2,0,L|171:169,1,66.9899986711579,2|0,0:1|1:0,0:0:0:0:
340,358,234627,1,8,1:2:0:0:
356,353,234713,2,0,P|373:324|362:273,1,66.9899986711579,8|8,0:0|0:0,0:0:0:0:
183,91,234883,5,8,0:3:0:0:
120,112,234968,1,8,0:3:0:0:
105,167,235053,1,4,0:3:0:0:
132,217,235139,1,4,0:3:0:0:
198,234,235224,6,0,B|216:200|251:194|251:194|150:212|201:276|98:296,1,240.119991939331,12|0,0:0|0:0,0:0:0:0:
60,332,235565,6,0,P|111:327|157:374,1,107.879995720093,6|0,1:2|1:1,0:0:0:0:
359,215,235906,2,0,P|284:215|299:295,1,161.819993580139,8|8,0:0|0:3,0:0:0:0:
361,289,236247,5,2,1:2:0:0:
260,125,236417,1,0,1:0:0:0:
428,27,236588,2,0,P|438:89|376:103,1,107.879995720093,8|2,0:0|3:2,0:0:0:0:
260,22,236928,6,0,B|167:33|208:93|97:99,1,161.819993580139,2|0,1:2|0:0,0:0:0:0:
66,149,237269,2,0,P|30:105|63:62,1,107.879995720093,8|4,0:0|3:3,0:0:0:0:
189,242,237610,1,0,1:0:0:0:
58,304,237781,1,0,1:0:0:0:
137,189,237951,6,0,P|215:211|299:278,1,187.920004587891,10|0,0:2|0:0,0:0:0:0:
270,384,238292,6,0,P|220:339|237:296,1,107.879995720093,2|0,1:2|1:0,0:0:0:0:
462,154,238633,2,0,P|468:224|383:241,1,161.819993580139,8|8,0:0|0:3,0:0:0:0:
389,173,238974,1,0,1:0:0:0:
512,287,239144,1,0,1:0:0:0:
326,209,239315,5,10,0:2:0:0:
475,131,239485,1,2,3:2:0:0:
494,95,239570,1,2,3:2:0:0:
480,73,239656,6,0,B|426:62|450:40|375:28,1,107.879995720093,2|0,1:2|1:0,0:0:0:0:
251,167,239997,1,8,0:2:0:0:
122,76,240167,1,4,0:3:0:0:
122,76,240252,1,8,0:3:0:0:
122,76,240338,6,0,P|115:22|177:6,1,107.879995720093,0|0,1:0|1:0,0:0:0:0:
293,112,240679,2,0,B|208:123|241:170|139:179,1,161.819993580139,10|0,0:2|0:0,0:0:0:0:
89,232,241020,5,6,1:2:0:0:
242,358,241190,1,0,1:2:0:0:
137,327,241360,5,10,0:0:0:0:
329,208,241531,2,0,L|309:322,1,108.800571720093,4|0,0:3|1:0,0:0:0:0:
149,177,241872,1,2,1:2:0:0:
360,42,242042,2,0,P|321:87|249:77,1,109.433467720093,10|0,0:0|3:0,0:0:0:0:
216,46,242298,1,8,0:3:0:0:
221,29,242383,5,0,1:0:0:0:
374,146,242554,1,0,1:0:0:0:
294,0,242724,5,8,0:0:0:0:
152,147,242895,1,4,0:3:0:0:
149,177,242980,1,8,0:3:0:0:
146,205,243065,1,0,1:0:0:0:
275,90,243235,1,0,1:0:0:0:
471,215,243406,6,0,B|413:225|413:225|391:262|391:262|318:275,1,161.819993580139,10|0,0:0|0:0,0:0:0:0:
305,275,243747,5,14,0:0:0:0:
442,128,243917,1,0,1:0:0:0:
466,324,244088,1,2,1:2:0:0:
335,125,244258,5,14,0:0:0:0:
283,116,244343,1,8,0:0:0:0:
252,163,244429,1,0,1:0:0:0:
162,259,244599,1,2,1:2:0:0:
39,179,244770,2,0,P|18:115|88:51,1,161.819993580139,14|0,0:0|0:0,0:0:0:0:
134,0,245110,5,8,2:0:0:0:
164,45,245196,1,8,0:0:0:0:
141,95,245281,1,2,2:3:0:0:
313,301,245451,5,8,2:0:0:0:
287,245,245537,1,8,0:0:0:0:
320,206,245622,1,2,2:3:0:0:
512,101,245793,6,0,P|472:141|403:133,1,107.879995720093,2|8,1:2|0:0,0:0:0:0:
367,97,246041,1,8,0:0:0:0:
367,97,246124,2,0,L|384:20,1,53.9399978600465,10|8,0:0|2:2,0:0:0:0:
504,206,246290,2,0,L|515:273,1,53.9399978600465,8|8,2:0|0:0,0:0:0:0:
319,381,246475,6,0,B|264:366|264:366|237:321|237:321|153:300,1,177.480001083252,6|0,1:2|0:2,0:0:0:0:
24,179,246730,2,0,B|-8:227|36:258|36:258|133:240,1,177.480001083252,10|0,0:2|0:2,0:0:0:0:
184,194,246986,2,0,P|204:159|202:104,1,88.740000541626,10|0,0:0|0:0,0:0:0:0:
59,6,247147,6,0,P|92:49|164:49,1,109.619996654663,2|0,1:2|0:0,0:0:0:0:
229,17,247487,6,0,B|280:3|314:36|314:36|336:97|398:93,1,177.480001083252,6|0,1:2|0:0,0:0:0:0:
458,163,247743,2,0,B|418:159|388:116|388:116|401:174|341:220,1,177.480001083252,8|0,2:2|0:0,0:0:0:0:
466,82,247999,2,0,P|489:46|490:-7,1,88.740000541626,8|0,0:0|0:0,0:0:0:0:
296,151,248169,5,2,1:2:0:0:
455,262,248339,1,0,1:0:0:0:
270,376,248509,6,0,P|259:345|267:295,1,62.6400015292969,2|0,1:2|0:0,0:0:0:0:
363,199,248680,2,0,L|444:178,1,62.6400015292969,2|0,0:0|3:3,0:0:0:0:
234,104,248850,6,0,P|223:135|231:185,1,62.6400015292969,2|0,1:2|0:0,0:0:0:0:
327,281,249021,2,0,L|408:302,1,62.6400015292969,10|10,0:0|0:0,0:0:0:0:
234,104,249203,6,0,B|126:74|126:74|150:99|153:146,1,177.953281083252,6|0,1:2|0:0,0:0:0:0:
2,162,249458,2,0,B|26:118|76:132|76:132|81:194|140:210,1,177.953281083252,8|0,2:2|0:0,0:0:0:0:
170,265,249714,2,0,P|198:233|189:177,1,88.976640541626,10|0,0:0|0:0,0:0:0:0:
31,309,249884,5,0,1:0:0:0:
34,328,249970,1,8,0:0:0:0:
37,347,250055,1,0,1:0:0:0:
196,188,250225,6,0,B|290:194|251:268|367:284,1,178.994497083252,6|0,1:2|0:0,0:0:0:0:
402,149,250481,2,0,B|375:135|360:100|360:100|383:235,1,177.953281083252,10|0,2:2|0:0,0:0:0:0:
434,265,250737,2,0,B|464:276|464:276|475:289|475:289|524:308,1,88.976640541626,10|0,2:0|2:0,0:0:0:0:
359,89,250907,5,0,1:0:0:0:
196,188,251078,1,0,1:0:0:0:
189,88,251248,6,0,B|244:104|244:104|261:134|261:134|330:155,1,151.783681270432,2|0,1:2|0:0,0:0:0:0:
359,89,251504,1,8,0:0:0:0:
359,89,251589,2,0,L|342:-5,1,75.8918406352158,2|8,1:2|0:0,0:0:0:0:
132,144,251759,1,8,0:0:0:0:
132,144,251845,1,8,0:0:0:0:
132,144,251930,6,0,B|96:180|124:226|124:226|169:264|151:310,1,177.953281083252,6|0,1:2|0:0,0:0:0:0:
26,345,252185,2,0,B|5:318|-27:313|-27:313|92:285,1,178.994497083252,8|0,2:2|0:0,0:0:0:0:
196,358,252441,2,0,B|229:366|229:366|241:377|241:377|289:385,1,88.976640541626,8|0,0:0|0:0,0:0:0:0:
448,230,252612,5,2,1:2:0:0:
462,193,252697,1,0,1:0:0:0:
432,162,252782,1,0,1:0:0:0:
285,0,252953,6,0,B|253:15|215:28|215:28|234:77|250:132,1,177.953281083252,6|0,1:2|0:0,0:0:0:0:
448,230,253208,2,0,B|479:214|518:202|518:202|499:153|483:98,1,177.953281083252,10|0,2:2|2:0,0:0:0:0:
348,115,253464,6,0,B|257:111|280:196|153:179,1,177.953281083252,8|0,0:0|1:2,0:0:0:0:
118,194,253720,1,0,3:0:0:0:
91,200,253805,1,0,3:0:0:0:
27,85,253975,6,0,P|58:90|99:122,1,63.5420175292969,2|0,1:2|0:0,0:0:0:0:
249,277,254146,2,0,L|239:350,1,62.8070415292969,2|0,0:0|3:3,0:0:0:0:
348,115,254316,6,0,P|317:120|276:152,1,62.8070415292969,2|0,1:2|0:0,0:0:0:0:
124,310,254487,2,0,L|134:383,1,62.8070415292969,10|10,0:0|0:0,0:0:0:0:
328,201,254657,6,0,B|374:189|409:222|409:222|433:287|494:276,1,177.953281083252,6|0,1:2|2:0,0:0:0:0:
484,203,254898,2,0,B|438:191|403:224|403:224|379:289|318:278,1,177.480001083252,8|0,2:2|2:0,0:0:0:0:
328,201,255168,2,0,L|352:93,1,88.740000541626,8|0,0:0|0:0,0:0:0:0:
167,1,255338,1,0,1:0:0:0:
160,47,255423,1,8,0:0:0:0:
192,79,255508,1,0,1:0:0:0:
238,75,255594,1,0,3:0:0:0:
237,4,255679,6,0,B|136:-1|179:76|59:61,1,177.480001083252,4|2,1:2|0:0,0:0:0:0:
97,205,255935,5,10,0:0:0:0:
11,152,256020,2,0,P|54:157|99:189,1,88.740000541626,0|0,1:0|0:0,0:0:0:0:
221,297,256190,6,0,L|204:385,1,88.740000541626,2|8,1:2|0:0,0:0:0:0:
143,270,256360,1,8,0:0:0:0:
183,219,256446,1,8,0:0:0:0:
242,211,256531,1,8,0:0:0:0:
292,245,256616,1,8,0:0:0:0:
328,309,256701,5,10,0:0:0:0:
345,335,256787,1,8,0:0:0:0:
372,345,256872,1,8,0:3:0:0:
404,340,256957,1,8,0:3:0:0:
456,286,257042,6,0,B|566:222|477:91|392:105|368:235|463:228,1,266.220001624878,14|0,0:2|0:2,0:0:0:0:
428,216,257383,5,6,1:2:0:0:
298,34,257554,2,0,L|203:62,1,80.0399973131104,0|0,1:0|1:0,0:0:0:0:
82,237,257724,2,0,B|140:250|140:250|160:283|160:283|232:299,1,160.079994626221,8|0,0:0|1:0,0:0:0:0:
64,81,258066,1,8,0:0:0:0:
64,81,258156,2,0,P|44:119|50:177,1,80.0399973131104,2|2,0:1|0:0,0:0:0:0:
221,56,258338,1,0,1:0:0:0:
164,1,258407,6,0,P|152:86|196:174,1,160.079994626221,14|0,0:0|0:0,0:0:0:0:
273,236,258662,1,2,1:2:0:0:
220,296,258747,6,0,P|287:255|371:277,1,160.079994626221,8|2,0:0|1:2,0:0:0:0:
504,332,259088,5,8,0:0:0:0:
454,384,259174,2,0,P|414:370|357:360,1,80.0399973131104,0|2,3:0|0:0,0:0:0:0:
493,216,259344,1,2,1:2:0:0:
451,157,259429,2,0,P|411:172|356:182,2,80.0399973131104,8|0|0,0:0|0:0|1:0,0:0:0:0:
273,236,259769,6,0,B|246:202|281:158|289:171|328:132|290:76,1,160.079994626221,8|2,0:0|1:2,0:0:0:0:
210,10,260025,1,2,0:0:0:0:
154,56,260110,6,0,L|169:151,1,80.0399973131104,12|0,0:0|0:0,0:0:0:0:
62,273,260281,1,0,3:0:0:0:
6,221,260366,2,0,L|27:125,1,80.0399973131104,0|8,1:0|0:0,0:0:0:0:
209,302,260622,6,0,B|171:283|133:313|133:313|104:362|35:346,1,160.079994626221,2|8,1:2|2:2,0:0:0:0:
200,205,260963,2,0,P|233:226|287:236,1,80.0399973131104,0|0,1:0|0:0,0:0:0:0:
421,360,261133,6,0,P|396:284|398:190,1,160.079994626221,10|0,2:2|2:2,0:0:0:0:
512,87,261389,1,0,1:0:0:0:
462,35,261474,2,0,P|438:69|439:133,1,80.0399973131104,8|0,0:0|0:0,0:0:0:0:
505,232,261644,2,0,P|503:189|476:143,1,80.0399973131104,0|0,1:0|0:0,0:0:0:0:
302,17,261815,5,8,0:0:0:0:
136,142,261985,1,0,1:0:0:0:
83,16,262156,6,0,P|122:22|166:66,1,80.0399973131104,8|0,0:0|0:0,0:0:0:0:
275,232,262326,1,0,1:0:0:0:
356,115,262497,6,0,P|316:125|285:168,1,80.0399973131104,8|0,0:0|0:0,0:0:0:0:
127,329,262667,1,2,1:2:0:0:
131,351,262752,1,2,0:0:0:0:
133,369,262838,6,0,B|188:358|188:358|210:323|210:323|292:306,1,160.079994626221,12|0,0:0|0:0,0:0:0:0:
341,295,263093,1,0,1:0:0:0:
372,289,263179,1,8,0:0:0:0:
508,379,263349,6,0,P|467:375|434:338,1,80.0399973131104,2|0,1:2|0:0,0:0:0:0:
275,232,263519,2,0,L|291:154,1,80.0399973131104,8|0,0:0|0:0,0:0:0:0:
452,46,263690,2,0,L|468:142,1,80.0399973131104,2|0,1:2|0:0,0:0:0:0:
275,232,263860,6,0,P|200:237|156:156,1,160.079994626221,12|0,0:2|0:0,0:0:0:0:
50,72,264116,1,0,1:3:0:0:
141,18,264201,2,0,P|138:57|116:117,1,80.0399973131104,10|0,0:0|0:0,0:0:0:0:
7,173,264372,2,0,P|7:213|22:262,1,80.0399973131104,2|0,1:2|0:0,0:0:0:0:
190,318,264542,5,8,0:0:0:0:
50,72,264713,1,2,1:2:0:0:
216,87,264883,5,10,0:0:0:0:
17,251,265054,1,0,1:0:0:0:
155,172,265224,6,0,B|233:203|233:203|256:257|256:257|347:296,1,214.020003265686,14|0,0:0|0:0,0:0:0:0:
452,142,265565,6,0,B|410:140|376:103|376:103|385:162|333:200,1,177.480001083252,14|0,0:2|0:3,0:0:0:0:
216,87,265846,5,2,1:2:0:0:
295,121,265940,2,0,B|264:111|264:111|253:98|253:98|197:81,1,89.378928541626,0|0,1:2|0:0,0:0:0:0:
321,285,266076,6,0,B|251:302|251:302|223:339|223:339|161:356,1,177.480001083252,14|0,0:0|0:0,0:0:0:0:
83,259,266323,1,0,1:0:0:0:
138,206,266405,2,0,L|226:237,1,88.740000541626,0|0,1:0|1:0,0:0:0:0:
409,348,266587,6,0,P|359:320|370:205,1,177.480001083252,14|0,0:2|0:3,0:0:0:0:
504,87,266842,1,2,1:2:0:0:
452,142,266927,2,0,P|403:133|372:86,1,88.740000541626,0|0,1:2|1:0,0:0:0:0:
119,15,267098,6,0,B|192:49|192:49|156:164,1,177.480001083252,14|0,0:0|0:0,0:0:0:0:
138,206,267354,1,0,1:0:0:0:
132,225,267439,1,0,1:0:0:0:
10,140,267609,6,0,P|44:117|98:128,1,88.740000541626,10|0,0:0|0:0,0:0:0:0:
212,310,267780,2,0,B|244:322|244:322|253:335|253:335|297:350,1,88.740000541626,2|8,1:2|0:0,0:0:0:0:
476,240,267950,5,8,0:0:0:0:
509,181,268035,1,8,0:0:0:0:
452,142,268121,1,8,0:0:0:0:
416,205,268206,1,8,0:0:0:0:
