osu file format v14

[General]
AudioFilename: audio.mp3
AudioLeadIn: 0
PreviewTime: 51113
Countdown: 0
SampleSet: Soft
StackLeniency: 0.7
Mode: 0
LetterboxInBreaks: 0
WidescreenStoryboard: 1

[Editor]
Bookmarks: 21796,33046,51455,66788
DistanceSpacing: 1
BeatDivisor: 2
GridSize: 8
TimelineZoom: 1.8

[Metadata]
Title:I will... (TV Size)
TitleUnicode:I will... (TV Size)
Artist:Aoi Eir
ArtistUnicode:藍井エイル
Creator:HeTo
Version:Normal
Source:ソードアート・オンライン アリシゼーション War of Underworld
Tags:sword art online sao alicization WoU the last season three 3 ending japanese anime jpop pop j-pop Affirmation
BeatmapID:2523579
BeatmapSetID:1212080

[Difficulty]
HPDrainRate:4
CircleSize:3
OverallDifficulty:4
ApproachRate:5
SliderMultiplier:1
SliderTickRate:1

[Events]
//Background and Video events
Video,0,"sao.avi"
0,0,"bg2.jpg",0,0
//Break Periods
//Storyboard Layer 0 (Background)
//Storyboard Layer 1 (Fail)
//Storyboard Layer 2 (Pass)
//Storyboard Layer 3 (Foreground)
//Storyboard Layer 4 (Overlay)
//Storyboard Sound Samples

[TimingPoints]
-1042,342.857142857143,4,2,6,30,1,0
329,-100,4,2,6,30,0,0
2387,335.195530726257,4,2,6,30,1,0
3057,340.909090909091,4,2,6,30,1,0
4420,346.820809248555,4,2,6,30,1,0
5807,326.086956521739,4,2,6,30,1,0
5807,-100,4,2,6,30,0,0
6296,333.333333333333,4,2,6,30,1,0
6796,344.827586206897,4,2,6,30,1,0
8519,329.67032967033,4,2,6,30,1,0
9013,350.877192982456,4,2,6,30,1,0
9539,340.909090909091,4,2,6,30,1,0
10902,434.782608695652,4,2,6,30,1,0
11228,342.857142857143,4,2,6,30,1,0
11228,-100,4,2,6,30,0,0
13113,342.857142857143,4,2,6,30,1,0
13970,342.857142857143,4,2,6,30,1,0
14999,337.078651685393,4,2,6,30,1,0
15336,337.078651685393,4,2,6,30,1,0
16684,344.827586206897,4,2,6,30,1,0
18063,340.909090909091,4,2,6,30,1,0
21812,-100,4,2,6,40,0,0
22153,337.078651685393,4,2,6,50,1,0
22153,-100,4,2,6,50,0,0
22995,331.491712707182,4,2,6,50,1,0
23326,348.837209302326,4,2,6,50,1,0
23501,337.078651685393,4,2,6,50,1,0
24849,352.941176470588,4,2,6,50,1,0
25201,342.857142857143,4,2,6,50,1,0
26572,338.983050847458,4,2,6,50,1,0
27249,355.029585798817,4,2,6,50,1,0
27604,340.909090909091,4,2,6,50,1,0
28285,337.078651685393,4,2,6,50,1,0
29633,342.857142857143,4,2,6,50,1,0
30318,338.983050847458,4,2,6,50,1,0
33029,359.281437125748,4,2,6,40,1,0
33388,340.909090909091,4,2,6,40,1,0
33390,-100,4,2,6,40,0,0
34410,340.909090909091,4,2,6,40,1,0
37147,340.909090909091,4,2,6,40,1,0
38500,340.909090909091,4,2,6,50,1,0
48045,-100,4,2,6,60,0,0
51455,340.909090909091,4,2,6,70,1,0
51455,-100,4,2,6,70,0,1
73273,-100,4,2,6,45,0,0
84182,340.909090909091,3,2,6,35,1,0

[Colours]
Combo1 : 13,69,217
Combo2 : 66,160,255
Combo3 : 251,219,68
Combo4 : 192,192,192

[HitObjects]
310,57,329,6,0,B|401:50|350:104|456:96,2,150,2|2|2,0:0|0:0|0:0,0:0:0:0:
56,167,2387,2,0,P|63:217|70:285,1,100,2|2,0:0|0:0,0:0:0:0:
116,340,3057,2,0,P|182:328|287:308,2,150,2|2|2,0:0|0:0|0:0,0:0:0:0:
68,266,4420,2,0,P|66:222|201:178,1,200,2|2,0:0|0:0,0:0:0:0:
325,303,5807,6,0,P|385:293|442:284,1,100,2|2,0:0|0:0,0:0:0:0:
468,289,6296,1,2,0:0:0:0:
502,163,6796,2,0,B|357:185|434:110|295:132,1,200,2|0,0:0|0:0,0:0:0:0:
228,163,7830,2,0,P|239:231|248:281,1,100,2|2,0:0|0:0,0:0:0:0:
178,328,8519,6,0,P|107:333|56:261,1,150,2|2,0:0|0:0,0:0:0:0:
30,141,9539,1,2,0:0:0:0:
253,269,11228,6,0,P|311:257|373:240,1,100,2|2,0:0|0:0,0:0:0:0:
395,243,11742,1,2,0:0:0:0:
469,130,12256,1,2,0:0:0:0:
442,43,12599,2,0,P|361:63|344:132,1,150,2|2,0:0|0:0,0:0:0:0:
346,164,13284,1,2,0:0:0:0:
256,331,13970,6,0,P|192:316|143:309,1,100,2|2,0:0|0:0,0:0:0:0:
113,315,14484,1,2,0:0:0:0:
32,203,14999,1,2,0:0:0:0:
69,121,15336,2,0,B|165:113|98:177|233:173,1,150,2|2,0:0|0:0,0:0:0:0:
318,241,16347,1,2,0:0:0:0:
399,208,16684,6,0,P|390:132|385:92,1,100,2|2,0:0|0:0,0:0:0:0:
389,63,17201,1,2,0:0:0:0:
265,9,17718,2,0,L|202:24,1,50,2|2,0:0|0:0,0:0:0:0:
188,56,18063,2,0,L|202:162,1,100,2|0,0:0|0:0,0:0:0:0:
210,199,18574,1,2,0:0:0:0:
319,277,19085,1,2,0:0:0:0:
401,242,19426,6,0,P|436:197|426:136,1,100,2|2,0:0|0:0,0:0:0:0:
436,107,19938,2,0,B|326:101|404:168|282:159,1,150,2|2,0:0|0:0,0:0:0:0:
231,212,20790,2,0,B|194:222|163:241|163:241|104:216|38:196,1,200,2|0,0:0|0:0,0:0:0:0:
17,111,21813,1,2,0:3:0:0:
82,48,22153,6,0,P|131:19|190:32,1,100,2|10,1:2|0:0,0:0:0:0:
216,44,22658,2,0,P|264:37|318:32,1,100,2|0,0:0|1:2,0:0:0:0:
410,27,23326,1,2,1:2:0:0:
481,99,23669,1,0,1:2:0:0:
481,99,23838,2,0,L|465:207,1,100,8|0,0:0|1:2,0:0:0:0:
455,246,24343,1,0,1:2:0:0:
355,255,24680,1,8,0:0:0:0:
355,255,24849,6,0,P|300:229|299:174,1,100,2|10,1:2|0:0,0:0:0:0:
277,147,25372,2,0,P|230:127|175:147,1,100,2|0,0:0|1:2,0:0:0:0:
84,126,26059,2,0,B|79:157|70:180|70:180|84:228|105:298,1,150,10|10,0:0|0:0,0:0:0:0:
129,364,26910,1,0,1:2:0:0:
222,342,27249,1,8,0:0:0:0:
225,244,27604,6,0,P|214:182|204:126,1,100,6|10,1:2|0:0,0:0:0:0:
218,96,28115,1,2,0:0:0:0:
305,47,28453,1,0,1:2:0:0:
305,47,28622,2,0,L|378:63,1,50,2|8,0:0|0:0,0:0:0:0:
397,82,28959,2,0,P|387:154|379:205,1,100,2|10,0:0|0:0,0:0:0:0:
381,279,29633,1,0,1:2:0:0:
283,298,29975,1,10,0:0:0:0:
216,221,30318,6,0,P|157:237|103:255,1,100,2|10,1:2|0:0,0:0:0:0:
58,326,30995,2,0,L|64:382,2,50,10|0|0,0:0|1:2|1:2,0:0:0:0:
26,288,31504,1,10,0:0:0:0:
26,288,31673,2,0,P|16:221|6:148,1,100,6|10,1:2|0:0,0:0:0:0:
5,139,32182,1,6,1:2:0:0:
55,52,32521,1,10,0:0:0:0:
55,52,32690,2,0,L|114:41,1,50,10|10,0:0|0:0,0:0:0:0:
161,35,33029,1,0,0:1:0:0:
256,81,33388,6,0,P|245:156|234:220,2,100,6|0|10,1:2|0:0|0:1,0:0:0:0:
336,20,34410,2,0,P|394:4|437:25,1,100,10|8,0:1|0:1,0:0:0:0:
474,39,34921,2,0,P|464:107|448:218,1,150,2|10,0:0|0:1,0:0:0:0:
401,273,35773,6,0,P|412:331|424:395,2,100,0|8|8,1:2|0:1|0:1,0:0:0:0:
356,183,36796,1,8,0:1:0:0:
262,218,37147,2,0,L|138:194,1,100,8|8,0:1|0:1,0:0:0:0:
104,118,37828,1,8,0:1:0:0:
156,32,38169,2,0,L|208:28,1,50,8|0,0:1|0:0,0:0:0:0:
254,40,38500,6,0,P|321:29|380:22,1,100,2|8,1:2|0:1,0:0:0:0:
403,19,39011,2,0,P|448:25|487:144,1,150,2|2,0:0|0:0,0:0:0:0:
507,155,39693,1,2,1:2:0:0:
396,256,40204,1,2,0:0:0:0:
396,256,40375,2,0,B|289:262|360:201|246:203,1,150,2|10,0:0|0:1,0:0:0:0:
175,149,41227,6,0,P|165:95|157:42,2,100,0|8|8,1:2|0:1|0:1,0:0:0:0:
134,244,42250,1,10,0:1:0:0:
140,339,42590,2,0,P|188:356|263:320,1,100,10|10,0:1|0:1,0:0:0:0:
277,318,43102,2,0,P|331:325|403:337,1,100,2|0,0:0|1:2,0:0:0:0:
403,373,43613,1,2,0:0:0:0:
498,344,43954,6,0,P|508:269|517:219,1,100,4|8,1:2|0:1,0:0:0:0:
489,147,44636,1,8,0:1:0:0:
404,199,44977,1,10,0:1:0:0:
404,199,45147,2,0,P|339:188|275:174,1,100,2|0,1:2|0:0,0:0:0:0:
258,197,45659,1,8,0:1:0:0:
182,262,46000,2,0,P|116:278|78:241,1,100,8|8,0:1|0:0,0:0:0:0:
14,204,46681,6,0,P|22:123|27:68,1,100,2|10,1:2|0:1,0:0:0:0:
18,54,47193,2,0,P|73:32|133:53,1,100,2|0,0:0|1:2,0:0:0:0:
157,58,47704,1,14,0:0:0:0:
248,18,48045,1,14,0:0:0:0:
326,80,48386,1,8,0:0:0:0:
289,173,48727,2,0,L|223:166,1,50,8|8,0:0|0:0,0:0:0:0:
190,157,49068,2,0,P|114:169|124:299,1,200,12|0,0:0|0:0,0:0:0:0:
2,358,50772,5,10,0:0:0:0:
2,358,50943,1,10,0:0:0:0:
58,207,51455,6,0,P|118:219|178:231,1,100,6|0,1:2|1:2,0:0:0:0:
203,243,51966,2,0,P|263:231|323:219,1,100,10|8,0:0|0:0,0:0:0:0:
350,214,52477,2,0,P|371:151|333:96,1,100,6|0,1:2|1:2,0:0:0:0:
303,39,53159,1,2,1:2:0:0:
217,90,53500,2,0,L|152:76,1,50,2|8,1:2|0:0,0:0:0:0:
118,74,53841,1,2,1:2:0:0:
34,129,54182,6,0,P|46:204|54:253,1,100,6|0,1:2|1:2,0:0:0:0:
57,277,54693,1,10,0:0:0:0:
152,247,55034,1,10,0:0:0:0:
152,247,55205,2,0,B|202:223|202:223|279:253,1,100,2|0,1:2|1:2,0:0:0:0:
327,293,55886,2,0,L|319:357,2,50,0|8|0,1:2|0:0|1:2,0:0:0:0:
426,284,56568,2,0,L|437:218,1,50,2|8,1:2|0:0,0:0:0:0:
477,209,56909,6,0,P|471:143|464:81,1,100,2|0,1:2|1:2,0:0:0:0:
476,60,57420,1,10,0:0:0:0:
383,21,57761,1,10,0:0:0:0:
383,21,57932,2,0,P|349:37|337:128,1,100,2|0,1:2|0:0,0:0:0:0:
326,193,58614,1,0,1:2:0:0:
222,182,58955,2,0,P|197:167|182:129,1,50,2|8,1:2|0:0,0:0:0:0:
174,101,59295,1,2,1:2:0:0:
116,18,59636,6,0,P|57:6|6:37,1,100,6|0,1:2|1:2,0:0:0:0:
6,69,60148,2,0,P|16:130|23:183,1,100,10|2,0:0|0:0,0:0:0:0:
23,217,60659,1,14,0:0:0:0:
60,309,61000,2,0,L|125:298,1,50,0|8,1:2|0:0,0:0:0:0:
154,322,61341,2,0,L|219:333,1,50,0|8,1:2|0:0,0:0:0:0:
253,334,61682,1,8,0:0:0:0:
332,273,62023,1,14,0:0:0:0:
293,180,62364,6,0,P|241:172|200:165,2,75,6|2|2,1:2|0:0|0:0,0:0:0:0:
332,148,63045,1,2,1:2:0:0:
413,92,63386,1,10,0:0:0:0:
499,144,63727,2,0,P|490:214|481:272,1,100,2|10,1:2|0:0,0:0:0:0:
409,309,64409,1,0,1:2:0:0:
323,254,64750,1,14,0:0:0:0:
232,298,65091,6,0,P|238:351|243:390,2,75,6|2|2,1:2|0:0|0:0,0:0:0:0:
200,259,65773,1,2,1:2:0:0:
242,168,66114,1,10,0:0:0:0:
212,72,66455,2,0,P|150:59|107:84,1,100,2|10,1:2|0:0,0:0:0:0:
53,143,67136,1,0,1:2:0:0:
30,240,67477,2,0,L|40:309,1,50,6|0,1:2|0:0,0:0:0:0:
64,331,67818,6,0,P|140:324|188:319,1,100,6|10,1:2|0:0,0:0:0:0:
211,336,68330,1,0,1:2:0:0:
271,258,68670,1,2,1:2:0:0:
271,258,68841,2,0,P|264:172|261:130,1,100,10|0,0:0|1:2,0:0:0:0:
294,65,69523,2,0,P|346:32|413:51,1,100,8|0,0:0|1:2,0:0:0:0:
468,87,70205,1,14,0:0:0:0:
487,184,70545,6,0,P|496:254|502:300,1,100,6|10,1:2|0:0,0:0:0:0:
487,332,71057,2,0,P|418:335|374:289,1,100,2|2,0:0|1:2,0:0:0:0:
348,297,71568,1,14,0:0:0:0:
300,208,71909,2,0,B|248:185|248:185|186:214,1,100,8|8,0:0|0:0,0:0:0:0:
137,273,72591,1,0,1:2:0:0:
50,222,72932,2,0,L|41:141,1,50,8|8,0:0|0:0,0:0:0:0:
26,126,73273,6,0,B|139:118|62:62|202:66,1,150,6|0,1:2|0:0,0:0:0:0:
207,57,73955,1,8,0:1:0:0:
293,7,74295,1,8,0:1:0:0:
387,27,74636,2,0,P|399:83|408:150,1,100,8|8,0:1|0:1,0:0:0:0:
347,207,75318,2,0,P|292:189|228:168,1,100,10|10,0:1|0:1,0:0:0:0:
179,103,76000,6,0,P|108:114|72:190,2,150,4|2|10,1:2|0:0|0:1,0:0:0:0:
251,175,77364,1,8,0:1:0:0:
251,175,77534,2,0,P|240:233|230:286,1,100,2|0,1:2|0:0,0:0:0:0:
254,318,78045,1,8,0:1:0:0:
330,383,78386,1,8,0:1:0:0:
423,328,78727,6,0,P|416:246|404:144,1,150,6|2,1:2|0:0,0:0:0:0:
417,128,79409,1,8,0:1:0:0:
380,34,79750,1,8,0:1:0:0:
283,44,80091,2,0,P|200:32|156:27,1,100,8|8,0:1|0:1,0:0:0:0:
82,14,80773,2,0,P|92:82|102:129,1,100,8|8,0:1|0:1,0:0:0:0:
151,195,81455,6,0,B|257:198|193:147|312:143,2,150,2|2|10,1:2|0:0|0:1,0:0:0:0:
52,214,82818,2,0,P|64:280|74:329,1,100,8|8,0:1|0:1,0:0:0:0:
150,373,83500,2,0,L|216:364,1,50,10|10,0:0|0:0,0:0:0:0:
247,351,83841,2,0,L|313:360,1,50,10|10,0:0|0:0,0:0:0:0:
345,365,84182,6,0,P|348:299|369:246,1,100,2|2,0:0|0:0,0:0:0:0:
389,228,84693,1,2,0:0:0:0:
472,103,85204,2,0,P|436:79|360:72,1,100,2|2,0:0|0:0,0:0:0:0:
331,59,85716,1,2,0:0:0:0:
238,177,86227,2,0,P|197:165|120:148,1,100,2|2,0:0|0:0,0:0:0:0:
95,132,86738,1,2,0:0:0:0:
