osu file format v14

[General]
AudioFilename: audio.mp3
AudioLeadIn: 0
PreviewTime:54908
Countdown: 0
SampleSet: Soft
StackLeniency: 0.7
Mode: 0
LetterboxInBreaks: 0
WidescreenStoryboard: 1

[Editor]
Bookmarks: 10902,12529,13794,41444,50119,54637,55902,64577,66023,70360,74697,79035,84818,86083,93492
DistanceSpacing: 1.3
BeatDivisor: 4
GridSize: 32
TimelineZoom: 1.7

[Metadata]
Title:Cynthia no Hikari
TitleUnicode:シンシアの光
Artist:Aoi Eir
ArtistUnicode:藍井エイル
Creator:Sotarks
Version:Eli's Hard
Source:ソードアート・オンライン -ロスト・ソング-
Tags:Sword Art Online Lost Song SAO female vocalist japanese jpop pop j-pop video game basensorex elinor [_eli_] kowari
BeatmapID:3206832
BeatmapSetID:1563619

[Difficulty]
HPDrainRate:5
CircleSize:3.8
OverallDifficulty:7
ApproachRate:8
SliderMultiplier:1.5
SliderTickRate:1

[Events]
//Background and Video events
0,0,"bg.jpg",0,0
//Break Periods
//Storyboard Layer 0 (Background)
//Storyboard Layer 1 (Fail)
//Storyboard Layer 2 (Pass)
//Storyboard Layer 3 (Foreground)
//Storyboard Layer 4 (Overlay)
//Storyboard Sound Samples

[TimingPoints]
-483,361.44578313253,4,2,22,40,1,0
962,-142.857142857143,4,2,22,40,0,0
6745,-200,4,2,22,40,0,0
8100,-200,4,2,22,5,0,0
8191,-200,4,2,22,40,0,0
9276,-125,4,2,22,40,0,0
9637,-100,4,2,22,65,0,0
15420,-125,4,2,22,50,0,0
26986,-111.111111111111,4,2,22,55,0,0
30149,-111.111111111111,4,2,22,5,0,0
30239,-111.111111111111,4,2,22,55,0,0
38553,-100,4,2,22,60,0,0
44336,-111.111111111111,4,2,22,60,0,0
53010,-99.9999999999999,4,2,22,60,0,0
54998,-125,4,2,22,52,0,0
55811,-125,4,2,22,5,0,0
55902,-90.9090909090909,4,2,22,75,0,1
77498,-90.9090909090909,4,2,22,5,0,1
77589,-90.9090909090909,4,2,22,75,0,1
80480,-90.9090909090909,4,2,22,50,0,0
81926,-100,4,2,22,65,0,0
87709,-250,4,2,22,65,0,0
93131,-250,4,2,22,5,0,0
93492,-250,4,2,22,5,0,0

[Colours]
Combo1 : 255,238,119
Combo2 : 60,247,153
Combo3 : 79,109,255
Combo4 : 245,82,106

[HitObjects]
51,39,962,6,0,L|72:144,1,104.999996795654,2|2,0:0|0:0,0:0:0:0:
128,196,1504,2,0,L|232:168,1,104.999996795654,2|2,0:0|0:0,0:0:0:0:
312,160,2047,5,2,0:0:0:0:
312,160,2227,2,0,P|344:196|344:252,1,104.999996795654,2|0,0:0|0:0,0:0:0:0:
244,344,2950,2,0,L|296:360,2,52.4999983978272,2|2|2,0:0|0:0|0:0,0:0:0:0:
176,304,3492,2,0,L|124:320,1,52.4999983978272,2|2,0:0|0:0,0:0:0:0:
60,364,3854,6,0,P|44:312|64:268,1,104.999996795654,2|2,0:0|0:0,0:0:0:0:
104,200,4396,2,0,B|156:208|156:168|204:180,2,104.999996795654,2|2|2,0:0|0:0|0:0,0:0:0:0:
352,4,5842,6,0,L|456:32,1,104.999996795654,2|2,0:0|0:0,0:0:0:0:
500,96,6384,2,0,L|484:152,1,52.4999983978272,2|2,0:0|0:0,0:0:0:0:
456,220,6745,6,0,B|416:276|308:276|308:140|284:96|164:96|124:188|152:260|212:264,1,450,2|2,0:0|0:0,0:0:0:0:
356,372,9276,6,0,L|388:368,3,30,2|2|2|2,3:2|3:2|3:2|3:2,0:0:0:0:
428,348,9637,6,0,L|412:272,1,75,4|0,1:2|0:0,0:0:0:0:
344,208,9998,2,0,L|359:134,1,75,8|0,0:0|1:0,0:0:0:0:
364,118,10270,1,8,0:0:0:0:
368,101,10360,2,0,L|292:87,1,75,0|0,1:0|1:0,0:0:0:0:
212,136,10721,1,8,0:0:0:0:
136,40,10902,6,0,B|68:36|88:116|12:112,1,150,4|0,1:2|1:0,0:0:0:0:
12,208,11444,1,8,0:0:0:0:
92,260,11625,1,0,1:0:0:0:
108,264,11715,1,8,0:0:0:0:
124,268,11806,2,0,L|196:288,1,75,0|0,1:0|1:0,0:0:0:0:
268,352,12167,2,0,L|340:332,1,75,8|0,0:0|0:0,0:0:0:0:
464,300,12529,6,0,P|484:268|484:232,1,75,4|0,1:2|1:0,0:0:0:0:
460,136,12890,1,8,0:0:0:0:
365,111,13071,1,0,1:0:0:0:
349,115,13161,1,8,0:0:0:0:
333,119,13251,1,0,1:0:0:0:
265,189,13432,1,0,1:0:0:0:
265,189,13613,1,8,0:0:0:0:
157,251,13794,6,0,P|104:251|72:167,1,150,4|0,1:2|1:0,0:0:0:0:
119,86,14336,1,8,0:0:0:0:
119,86,14516,1,0,0:0:0:0:
216,76,14697,2,0,L|256:68,3,37.5,4|8|8|8,1:2|0:0|0:0|0:0,0:0:0:0:
292,40,15059,2,0,L|332:32,3,37.5,0|8|4|4,1:0|3:0|3:0|3:0,0:0:0:0:
372,48,15420,6,0,L|388:108,1,60,6|2,1:2|0:0,0:0:0:0:
452,172,15782,2,0,L|436:232,1,60,2|2,1:2|0:0,0:0:0:0:
408,304,16143,2,0,P|364:344|304:344,1,120,2|2,1:2|1:2,0:0:0:0:
240,304,16685,6,0,L|228:244,1,60,2|0,0:0|1:0,0:0:0:0:
268,176,17047,2,0,L|326:164,1,60,2|0,0:0|1:0,0:0:0:0:
376,104,17408,1,2,0:0:0:0:
256,4,17770,1,2,0:0:0:0:
40,96,18312,6,0,L|51:154,1,60,2|2,1:2|0:0,0:0:0:0:
112,208,18673,2,0,L|100:266,1,60,2|2,1:2|0:0,0:0:0:0:
64,336,19035,2,0,L|4:320,2,60,2|2|2,1:2|0:0|1:2,0:0:0:0:
136,368,19577,6,0,L|196:352,1,60,2|0,0:0|1:0,0:0:0:0:
256,304,19938,2,0,L|313:319,1,60,2|0,0:0|1:0,0:0:0:0:
380,364,20300,1,2,0:0:0:0:
460,228,20661,1,2,0:0:0:0:
332,32,21203,6,0,L|272:48,1,60,2|2,1:2|0:0,0:0:0:0:
216,100,21565,2,0,L|158:84,1,60,2|2,1:2|0:0,0:0:0:0:
100,32,21926,1,2,1:2:0:0:
100,32,22107,1,2,0:0:0:0:
28,168,22468,6,0,L|56:288,1,120,2|2,0:0|0:0,0:0:0:0:
104,348,23010,2,0,L|164:332,1,60,2|2,1:2|0:0,0:0:0:0:
220,280,23372,2,0,L|277:295,1,60,2|2,1:2|0:0,0:0:0:0:
332,352,23733,1,2,1:2:0:0:
476,292,24095,6,0,B|496:236|436:236|452:180,1,120,2|2,1:2|1:2,0:0:0:0:
472,104,24637,1,0,0:0:0:0:
472,104,24818,2,0,L|412:88,1,60,2|0,1:2|0:0,0:0:0:0:
340,64,25179,1,2,1:2:0:0:
188,32,25541,6,0,P|148:68|148:132,1,120,2|12,3:2|0:0,0:0:0:0:
200,196,26083,1,2,1:2:0:0:
200,196,26263,2,0,L|232:200,3,30,2|8|8|8,1:2|0:0|0:0|0:0,0:0:0:0:
260,224,26625,2,0,L|292:228,3,30,0|8|4|4,1:0|3:0|3:0|0:3,0:0:0:0:
316,264,26986,6,0,L|304:332,1,67.4999979400635,6|2,1:2|0:0,0:0:0:0:
224,368,27348,2,0,L|156:352,1,67.4999979400635,10|2,0:0|0:0,0:0:0:0:
72,336,27709,2,0,B|100:272|28:272|48:208,1,134.999995880127,2|10,1:2|0:0,0:0:0:0:
64,124,28251,6,0,L|129:109,1,67.4999979400635,2|0,0:0|1:0,0:0:0:0:
192,48,28613,2,0,L|257:63,1,67.4999979400635,2|8,0:0|0:0,0:0:0:0:
324,120,28974,2,0,L|304:188,1,67.4999979400635,2|0,0:0|1:0,0:0:0:0:
224,220,29336,2,0,L|243:284,1,67.4999979400635,2|8,0:0|0:0,0:0:0:0:
404,364,29878,6,0,P|468:364|504:308,1,134.999995880127,2|10,1:2|0:0,0:0:0:0:
504,220,30420,1,2,0:0:0:0:
504,220,30601,2,0,L|440:200,1,67.4999979400635,2|2,1:2|0:0,0:0:0:0:
388,128,30962,5,10,0:0:0:0:
388,128,31143,2,0,B|328:128|348:192|276:192,1,134.999995880127,2|2,0:0|0:0,0:0:0:0:
208,244,31685,1,8,0:0:0:0:
208,244,31866,2,0,L|144:224,1,67.4999979400635,2|0,0:0|1:0,0:0:0:0:
80,164,32227,2,0,L|100:100,1,67.4999979400635,2|8,0:0|0:0,0:0:0:0:
260,28,32770,6,0,P|296:28|320:48,1,67.4999979400635,2|2,1:2|0:0,0:0:0:0:
364,124,33131,2,0,P|390:144|423:143,1,67.4999979400635,10|2,0:0|0:0,0:0:0:0:
496,92,33492,1,2,1:2:0:0:
496,92,33673,1,2,0:0:0:0:
488,268,34035,6,0,L|352:300,1,134.999995880127,2|2,0:0|0:0,0:0:0:0:
288,352,34577,2,0,L|224:328,1,67.4999979400635,10|2,0:0|0:0,0:0:0:0:
168,260,34938,2,0,L|192:196,1,67.4999979400635,2|2,1:2|0:0,0:0:0:0:
276,164,35300,1,10,0:0:0:0:
452,168,35661,6,0,P|472:140|472:108,1,67.4999979400635,2|2,1:2|0:0,0:0:0:0:
436,28,36023,2,0,P|416:8|376:8,1,67.4999979400635,10|2,0:0|0:0,0:0:0:0:
300,48,36384,2,0,B|236:36|248:112|180:96,1,134.999995880127,2|10,1:2|0:0,0:0:0:0:
12,53,37107,6,0,L|36:185,1,134.999995880127,2|12,1:2|0:0,0:0:0:0:
79,262,37649,1,2,1:2:0:0:
79,262,37830,2,0,L|111:254,3,33.7499989700318,2|8|8|8,1:2|0:0|0:0|0:0,0:0:0:0:
151,271,38191,2,0,L|183:263,3,33.7499989700318,8|4|4|4,0:0|0:3|0:3|0:3,0:0:0:0:
226,286,38553,5,14,0:0:0:0:
226,286,38733,1,10,0:0:0:0:
302,350,38914,1,10,0:0:0:0:
469,248,39276,2,0,L|397:224,1,75,14|8,0:0|0:0,0:0:0:0:
381,220,39547,1,8,0:0:0:0:
366,216,39637,1,10,0:0:0:0:
273,184,39818,1,6,1:2:0:0:
397,34,40179,5,2,1:2:0:0:
483,209,40541,1,2,0:0:0:0:
477,225,40631,1,8,0:0:0:0:
472,241,40721,1,0,1:0:0:0:
418,322,40902,1,2,1:2:0:0:
418,322,41083,2,0,L|346:294,1,75,8|0,0:0|1:0,0:0:0:0:
248,248,41444,5,14,0:0:0:0:
248,248,41625,1,10,0:0:0:0:
332,200,41806,1,10,0:0:0:0:
484,80,42167,5,10,0:0:0:0:
484,80,42348,1,10,3:0:0:0:
400,32,42529,1,6,3:0:0:0:
300,84,42709,6,0,B|240:68|240:148|164:124,1,150,6|2,1:2|1:2,0:0:0:0:
80,72,43251,1,10,0:0:0:0:
20,148,43432,1,2,1:2:0:0:
26,164,43522,1,8,0:0:0:0:
31,180,43613,2,0,L|44:224,3,37.5,0|8|8|8,1:0|0:0|0:0|0:0,0:0:0:0:
72,256,43974,2,0,L|59:300,3,37.5,8|8|8|4,0:0|0:0|3:0|3:0,0:0:0:0:
36,336,44336,6,0,B|100:312|100:388|164:368,1,134.999995880127,6|8,1:2|0:0,0:0:0:0:
248,360,44878,1,2,0:0:0:0:
252,344,44968,1,8,0:0:0:0:
256,328,45059,2,0,L|280:192,1,134.999995880127,2|0,1:2|1:0,0:0:0:0:
360,156,45601,5,2,0:0:0:0:
360,156,45782,2,0,P|316:100|256:100,1,134.999995880127,2|8,1:2|0:0,0:0:0:0:
180,144,46324,1,2,0:0:0:0:
176,160,46414,1,8,0:0:0:0:
172,176,46504,2,0,L|36:148,1,134.999995880127,2|8,1:2|0:0,0:0:0:0:
20,64,47047,5,2,0:0:0:0:
20,64,47227,2,0,B|84:88|84:12|148:32,1,134.999995880127,2|8,1:2|0:0,0:0:0:0:
228,8,47770,1,2,0:0:0:0:
244,12,47860,1,8,0:0:0:0:
260,16,47950,2,0,L|392:48,1,134.999995880127,2|8,1:2|0:0,0:0:0:0:
464,96,48492,5,2,0:0:0:0:
464,96,48673,2,0,L|432:228,1,134.999995880127,2|8,1:2|0:0,0:0:0:0:
388,304,49215,1,2,0:0:0:0:
371,300,49305,1,8,0:0:0:0:
355,296,49396,2,0,L|291:276,1,67.4999979400635,2|2,1:2|0:0,0:0:0:0:
204,256,49757,1,10,0:0:0:0:
204,256,49938,1,2,0:0:0:0:
132,344,50119,6,0,P|64:344|28:292,1,134.999995880127,6|8,1:2|0:0,0:0:0:0:
20,204,50661,1,2,0:0:0:0:
36,200,50751,1,8,0:0:0:0:
52,196,50841,2,0,L|184:164,1,134.999995880127,2|8,1:2|0:0,0:0:0:0:
264,128,51384,5,2,0:0:0:0:
264,128,51565,2,0,L|328:148,1,67.4999979400635,2|8,1:2|0:0,0:0:0:0:
347,156,51836,1,8,0:0:0:0:
367,163,51926,2,0,L|359:195,3,33.7499989700318,8|8|0|0,0:0|0:0|1:0|1:0,0:0:0:0:
372,240,52288,2,0,L|364:272,3,33.7499989700318,8|8|4|4,3:0|3:0|3:0|3:0,0:0:0:0:
324,288,52649,2,0,L|260:268,1,67.4999979400635,12|0,0:0|1:0,0:0:0:0:
160,324,53010,6,0,P|124:324|96:300,1,75,12|0,0:0|1:0,0:0:0:0:
40,200,53372,2,0,P|40:164|60:132,1,75,12|0,0:0|1:0,0:0:0:0:
168,104,53733,1,12,0:0:0:0:
168,104,53914,1,12,0:0:0:0:
256,172,54095,1,0,1:0:0:0:
352,112,54276,6,0,L|364:36,1,75,12|0,0:0|1:0,0:0:0:0:
244,4,54637,1,12,0:0:0:0:
60,112,54998,2,0,B|22:164|80:236|108:208|159:267|123:317,1,240,2|2,0:0|0:0,0:0:0:0:
240,364,55902,6,0,L|320:344,1,82.5000025177003,6|0,1:2|0:0,0:0:0:0:
424,316,56263,1,10,0:0:0:0:
452,212,56444,2,0,P|404:148|324:148,1,165.000005035401,2|2,0:0|0:0,0:0:0:0:
256,232,56986,2,0,P|224:260|184:260,1,82.5000025177003,10|2,0:0|0:0,0:0:0:0:
80,232,57348,6,0,L|48:68,1,165.000005035401,0|8,1:0|0:0,0:0:0:0:
132,4,57890,1,2,0:0:0:0:
240,0,58071,2,0,L|320:20,1,82.5000025177003,2|2,1:2|0:0,0:0:0:0:
424,44,58432,1,10,0:0:0:0:
424,44,58613,1,2,0:0:0:0:
348,120,58794,6,0,B|320:196|408:196|377:273,1,165.000005035401,2|10,1:2|0:0,0:0:0:0:
320,364,59336,2,0,L|242:336,1,82.5000025177003,2|0,0:0|1:0,0:0:0:0:
180,252,59697,2,0,L|257:224,1,82.5000025177003,2|8,0:0|0:0,0:0:0:0:
364,196,60059,1,2,0:0:0:0:
468,168,60239,6,0,P|508:96|468:32,1,165.000005035401,0|8,1:0|0:0,0:0:0:0:
364,0,60782,2,0,L|200:48,1,165.000005035401,2|2,0:0|0:0,0:0:0:0:
132,124,61324,1,10,0:0:0:0:
132,124,61504,1,2,0:0:0:0:
228,172,61685,6,0,B|256:248|168:248|198:325,1,165.000005035401,2|10,1:2|0:0,0:0:0:0:
296,368,62227,2,0,P|336:368|372:340,1,82.5000025177003,2|0,0:0|1:0,0:0:0:0:
432,256,62589,2,0,P|432:212|408:184,1,82.5000025177003,2|8,0:0|0:0,0:0:0:0:
328,112,62951,1,2,0:0:0:0:
224,88,63132,6,0,L|143:111,1,82.5000025177003,0|0,1:0|0:0,0:0:0:0:
64,180,63492,2,0,L|87:260,1,82.5000025177003,10|0,0:0|0:0,0:0:0:0:
160,340,63854,2,0,L|240:316,1,82.5000025177003,2|0,1:2|0:0,0:0:0:0:
340,356,64216,1,10,0:0:0:0:
440,276,64396,5,10,0:0:0:0:
448,260,64486,1,8,0:0:0:0:
456,244,64578,2,0,P|456:204|428:172,1,82.5000025177003,6|0,1:2|1:0,0:0:0:0:
320,108,64938,2,0,L|240:130,1,82.5000025177003,8|0,0:0|1:0,0:0:0:0:
140,208,65300,2,0,L|60:185,1,82.5000025177003,8|0,0:0|1:0,0:0:0:0:
24,84,65661,1,10,0:0:0:0:
24,84,65842,1,2,1:2:0:0:
136,16,66023,5,8,0:0:0:0:
136,16,66113,1,0,1:0:0:0:
136,16,66203,2,0,L|127:56,2,41.2500012588501,0|0|8,1:0|1:0|1:2,0:0:0:0:
244,16,66565,2,0,L|324:36,1,82.5000025177003,2|0,1:2|1:0,0:0:0:0:
341,39,66836,1,0,1:0:0:0:
358,42,66926,1,10,0:0:0:0:
435,116,67107,2,0,L|443:156,3,41.2500012588501,10|8|6|4,0:0|3:0|3:0|3:0,0:0:0:0:
472,201,67468,6,0,L|454:281,1,82.5000025177003,6|0,1:2|0:0,0:0:0:0:
374,354,67830,1,10,0:0:0:0:
272,312,68010,2,0,B|196:340|196:252|119:282,1,165.000005035401,2|0,0:0|0:0,0:0:0:0:
36,352,68553,2,0,P|12:320|12:276,1,82.5000025177003,10|2,0:0|0:0,0:0:0:0:
40,176,68915,6,0,L|204:144,1,165.000005035401,0|8,1:0|0:0,0:0:0:0:
296,196,69457,1,2,0:0:0:0:
392,144,69637,2,0,P|416:112|416:68,1,82.5000025177003,2|2,1:2|0:0,0:0:0:0:
336,0,69998,1,10,0:0:0:0:
336,0,70179,1,2,0:0:0:0:
208,0,70360,6,0,B|131:-19|148:79|62:56,1,165.000005035401,6|10,1:2|0:0,0:0:0:0:
4,148,70903,1,2,0:0:0:0:
80,224,71084,2,0,L|160:196,1,82.5000025177003,4|2,1:2|0:0,0:0:0:0:
224,112,71444,2,0,L|301:139,1,82.5000025177003,8|2,0:0|0:0,0:0:0:0:
404,104,71806,6,0,P|444:176|408:248,2,165.000005035401,4|8|0,1:2|0:0|1:0,0:0:0:0:
360,72,72619,1,8,0:0:0:0:
204,32,72890,2,0,L|120:60,1,82.5000025177003,8|0,0:0|0:0,0:0:0:0:
40,124,73251,5,6,1:2:0:0:
40,124,73432,1,2,0:0:0:0:
52,232,73613,2,0,L|76:312,1,82.5000025177003,10|2,0:0|0:0,0:0:0:0:
168,364,73974,1,2,1:2:0:0:
212,268,74155,2,0,P|244:244|288:244,1,82.5000025177003,2|8,0:0|0:0,0:0:0:0:
376,332,74516,5,2,0:0:0:0:
388,340,74607,1,0,0:0:0:0:
400,348,74697,2,0,P|440:348|472:320,1,82.5000025177003,4|0,1:2|0:0,0:0:0:0:
496,216,75059,2,0,P|496:176|468:144,1,82.5000025177003,10|2,0:0|0:0,0:0:0:0:
372,100,75420,2,0,L|332:112,3,41.2500012588501,2|8|10|8,1:2|0:0|0:0|0:0,0:0:0:0:
308,160,75782,2,0,L|268:172,3,41.2500012588501,0|8|4|4,1:0|3:0|3:0|3:0,0:0:0:0:
220,152,76144,5,6,1:2:0:0:
220,152,76325,1,2,0:0:0:0:
148,76,76505,2,0,L|68:96,1,82.5000025177003,10|2,0:0|0:0,0:0:0:0:
24,192,76866,2,0,L|44:272,1,82.5000025177003,2|0,1:2|0:0,0:0:0:0:
132,336,77227,2,0,L|152:256,1,82.5000025177003,10|0,0:0|0:0,0:0:0:0:
232,184,77589,6,0,L|312:204,1,82.5000025177003,2|0,1:2|0:0,0:0:0:0:
364,296,77950,2,0,L|444:276,1,82.5000025177003,10|0,0:0|0:0,0:0:0:0:
500,184,78312,2,0,P|500:108|432:60,1,165.000005035401,2|10,1:2|0:0,0:0:0:0:
332,96,78854,1,2,0:0:0:0:
228,20,79035,5,0,1:0:0:0:
228,20,79215,1,8,0:0:0:0:
152,96,79396,1,8,0:0:0:0:
152,96,79577,1,8,0:0:0:0:
60,44,79757,2,0,L|20:52,3,41.2500012588501,0|8|8|8,1:0|0:0|0:0|0:0,0:0:0:0:
8,104,80119,2,0,L|16:144,3,41.2500012588501,0|8|8|8,1:0|0:0|0:0|0:0,0:0:0:0:
28,196,80480,5,0,1:0:0:0:
200,348,81926,6,0,L|276:340,1,75,4|0,1:2|0:0,0:0:0:0:
344,272,82287,2,0,L|336:197,1,75,8|0,0:0|1:0,0:0:0:0:
336,180,82559,1,8,0:0:0:0:
333,163,82649,2,0,L|256:172,1,75,0|0,1:0|1:0,0:0:0:0:
176,224,83010,1,8,0:0:0:0:
72,152,83191,6,0,P|72:80|132:36,1,150,4|0,1:2|1:0,0:0:0:0:
228,24,83733,1,8,0:0:0:0:
292,100,83914,1,0,1:0:0:0:
308,96,84004,1,8,0:0:0:0:
324,92,84095,2,0,L|396:72,1,75,0|0,1:0|1:0,0:0:0:0:
460,144,84456,2,0,L|480:216,1,75,8|0,0:0|1:0,0:0:0:0:
416,328,84818,6,0,P|384:348|348:348,1,75,4|0,1:2|0:0,0:0:0:0:
272,288,85179,1,8,0:0:0:0:
196,348,85360,1,0,1:0:0:0:
180,344,85450,1,8,0:0:0:0:
164,340,85540,1,0,1:0:0:0:
72,308,85721,1,0,1:0:0:0:
72,308,85902,1,8,0:0:0:0:
24,188,86083,6,0,P|63:127|135:127,1,150,4|0,1:2|1:0,0:0:0:0:
212,192,86625,1,8,0:0:0:0:
212,192,86806,1,0,0:0:0:0:
273,266,86986,2,0,L|313:274,3,37.5,4|8|8|8,1:2|0:0|0:0|0:0,0:0:0:0:
345,310,87348,2,0,L|385:318,3,37.5,0|8|4|4,1:0|3:0|3:0|3:0,0:0:0:0:
425,294,87709,5,6,1:2:0:0:
256,192,87800,12,0,93492,0:0:0:0:
