osu file format v14

[General]
AudioFilename: audio.mp3
AudioLeadIn: 0
PreviewTime: 55194
Countdown: 1
SampleSet: Soft
StackLeniency: 0.7
Mode: 0
LetterboxInBreaks: 0
WidescreenStoryboard: 0

[Editor]
DistanceSpacing: 1
BeatDivisor: 4
GridSize: 32
TimelineZoom: 2

[Metadata]
Title:Cynthia no Hikari
TitleUnicode:Cynthia no Hikari
Artist:Aoi Eir
ArtistUnicode:Aoi Eir
Creator:Fuseka
Version:Insane
Source:
Tags:
BeatmapID:907962
BeatmapSetID:419551

[Difficulty]
HPDrainRate:7
CircleSize:4.5
OverallDifficulty:7.5
ApproachRate:9.4
SliderMultiplier:1.4
SliderTickRate:1

[Events]
//Background and Video events
0,0,"Konachan.com - 205577 sample.jpg",0,0
//Break Periods
2,143224,153991
//Storyboard Layer 0 (Background)
//Storyboard Layer 1 (Fail)
//Storyboard Layer 2 (Pass)
//Storyboard Layer 3 (Foreground)
//Storyboard Sound Samples

[TimingPoints]
1339,361.44578313253,4,2,0,30,1,0
1339,-133.333333333333,4,2,0,30,0,0
7122,-181.818181818181,4,2,0,30,0,0
8567,-105.263157894737,4,2,0,30,0,0
8658,-86.9565217391303,4,2,0,30,0,0
8748,-80,4,2,0,30,0,0
8838,-68.9655172413793,4,2,0,30,0,0
8929,-57.1428571428571,4,2,0,30,0,0
9019,-64.5161290322581,4,2,0,30,0,0
9110,-74.0740740740741,4,2,0,30,0,0
9200,-95.2380952380952,4,2,0,30,0,0
9290,-125,4,2,0,30,0,0
9381,-181.818181818182,4,2,0,30,0,0
9471,-222.222222222222,4,2,0,30,0,0
9561,-400,4,2,0,30,0,0
9652,-62.5,4,2,0,30,0,0
9697,-500,4,2,0,30,0,0
9742,-62.5,4,2,0,30,0,0
9787,-500,4,2,0,30,0,0
9832,-62.5,4,2,0,30,0,0
9878,-500,4,2,0,30,0,0
9923,-62.5,4,2,0,30,0,0
9968,-500,4,2,0,30,0,0
10013,-100,4,2,0,30,0,0
15796,-111.111111111111,4,2,0,30,0,0
27363,-100,4,2,0,30,0,0
53387,-66.6666666666667,4,2,0,30,0,0
53477,-100,4,2,0,30,0,0
53748,-66.6666666666667,4,2,0,30,0,0
53838,-100,4,2,0,30,0,0
54110,-66.6666666666667,4,2,0,30,0,0
54200,-100,4,2,0,30,0,0
54290,-66.6666666666667,4,2,0,30,0,0
54381,-100,4,2,0,30,0,0
54652,-66.6666666666667,4,2,0,30,0,0
54742,-100,4,2,0,30,0,0
55013,-66.6666666666667,4,2,0,30,0,0
55104,-200,4,2,0,30,0,0
55375,-125,4,2,0,30,0,0
56278,-86.9565217391304,4,2,0,50,0,1
74531,-153.846153846154,4,2,0,50,0,1
76158,-86.9565217391304,4,2,0,50,0,1
82302,-100,4,2,0,30,0,0
88085,-100,4,2,0,30,0,0
96218,-66.6666666666667,4,2,0,30,0,0
96308,-100,4,2,0,30,0,0
96579,-66.6666666666667,4,2,0,30,0,0
96670,-100,4,2,0,30,0,0
117001,-71.4285714285714,4,2,0,50,0,1
135254,-133.333333333333,4,2,0,50,0,1
136881,-71.4285714285714,4,2,0,50,0,1
141579,-142.857142857143,4,2,0,50,0,1
143025,722.89156626506,4,2,0,15,1,0
154591,361.44578313253,4,2,0,100,1,0
154591,-133.333333333333,4,2,0,20,0,0
166157,-113.636363636364,4,2,0,30,0,0
171940,-100,4,2,0,30,0,0
177000,-100,4,2,0,30,0,0
177723,-71.4285714285714,4,2,0,30,0,0
177813,-133.333333333333,4,2,0,30,0,0
178084,-90.9090909090909,4,2,0,30,0,0
178446,-71.4285714285714,4,2,0,30,0,0
178536,-133.333333333333,4,2,0,30,0,0
178807,-90.9090909090909,4,2,0,30,0,0
179169,-71.4285714285714,4,2,0,30,0,0
179259,-133.333333333333,4,2,0,30,0,0
179350,-90.9090909090909,4,2,0,30,0,0
179711,-80,4,2,0,30,0,0
179801,-133.333333333333,4,2,0,30,0,0
179892,-71.4285714285714,4,2,0,30,0,0
179982,-133.333333333333,4,2,0,30,0,0
180253,-71.4285714285714,4,2,0,30,0,0
180344,-133.333333333333,4,2,0,30,0,0
180615,-100,4,2,0,30,0,0
191639,-66.6666666666667,4,2,0,30,0,0
191729,-100,4,2,0,30,0,0
191819,-66.6666666666667,4,2,0,30,0,0
191910,-100,4,2,0,30,0,0
192000,-66.6666666666667,4,2,0,30,0,0
192091,-100,4,2,0,30,0,0
192181,-500,4,2,0,30,0,0
193627,1445.78313253012,4,2,0,5,1,0
193627,-76.9230769230769,4,2,0,5,0,0
200855,361.44578313253,4,2,0,100,1,0
200855,-62.5,4,2,0,50,0,0
200945,-133.333333333333,4,2,0,50,0,0
201035,-62.5,4,2,0,50,0,0
201126,-133.333333333333,4,2,0,50,0,0
201216,-85.1063829787234,4,2,0,50,0,0
201397,-62.5,4,2,0,50,0,0
201487,-500,4,2,0,50,0,0
202300,-76.9230769230769,4,2,0,50,0,1
220553,-125,4,2,0,50,0,1
229770,-100,4,2,0,40,0,0

[HitObjects]
162,243,1339,6,0,B|205:224|218:182|218:182|257:174,1,105.000004005432
352,173,1881,2,0,B|346:119|300:102|300:102|270:95,1,105.000004005432
125,122,2424,1,0,0:0:0:0:
125,122,2604,2,0,B|113:172|95:202|95:202|156:254,1,157.500006008148
251,259,3326,5,0,0:0:0:0:
271,152,3507,1,0,0:0:0:0:
351,234,3688,1,0,0:0:0:0:
373,95,3869,1,0,0:0:0:0:
436,199,4049,1,0,0:0:0:0:
436,199,4230,2,0,L|415:263,1,52.5000020027161
246,284,4592,1,0,0:0:0:0:
246,284,4772,2,0,L|273:224,1,52.5000020027161
332,88,5134,6,0,P|292:121|286:123,1,52.5000020027161
199,140,5495,2,0,B|141:160|109:144|109:144|75:204,1,157.500006008148
177,316,6218,6,0,B|198:284|206:250|206:249|233:214,1,105.000004005432
248,115,6760,1,0,0:0:0:0:
356,183,6941,1,0,0:0:0:0:
236,283,7122,2,0,B|187:309|176:174|176:174|72:121|55:236|82:248,1,308.000009399414
102,278,8658,1,0,0:0:0:0:
135,286,8748,1,0,0:0:0:0:
173,274,8838,1,0,0:0:0:0:
210,243,8929,1,0,0:0:0:0:
249,226,9019,1,0,0:0:0:0:
286,222,9110,5,0,0:0:0:0:
312,233,9200,1,0,0:0:0:0:
327,248,9290,1,0,0:0:0:0:
340,255,9381,1,0,0:0:0:0:
349,263,9471,1,0,0:0:0:0:
350,269,9561,1,0,0:0:0:0:
339,306,9652,6,0,L|270:315,1,56
362,168,9832,2,0,L|401:111,1,56
227,55,10013,6,0,L|145:101,1,70
32,149,10375,1,0,0:0:0:0:
227,249,10555,1,0,0:0:0:0:
64,297,10736,1,0,0:0:0:0:
64,297,10826,1,0,0:0:0:0:
64,297,10917,2,0,P|91:247|118:223,1,70
240,128,11278,6,0,L|192:288,1,140
188,304,11730,1,0,0:0:0:0:
207,308,11820,2,0,L|288:288,1,70
392,168,12092,1,0,0:0:0:0:
372,153,12182,2,0,L|289:167,1,70
92,210,12543,1,0,0:0:0:0:
188,81,12724,1,0,0:0:0:0:
264,236,12905,6,0,P|307:263|337:263,1,70
405,251,13176,1,0,0:0:0:0:
430,229,13266,2,0,P|451:170|449:148,1,70
334,42,13628,2,0,P|309:85|306:123,1,70
302,139,13899,1,0,0:0:0:0:
298,173,13989,1,0,0:0:0:0:
279,294,14170,6,0,L|204:230,1,70
128,160,14531,1,0,0:0:0:0:
32,256,14712,1,0,0:0:0:0:
63,58,14893,2,0,P|117:80|137:85,1,70
161,93,15164,1,0,0:0:0:0:
194,103,15254,1,0,0:0:0:0:
224,120,15345,1,0,0:0:0:0:
247,145,15435,1,0,0:0:0:0:
259,177,15525,1,0,0:0:0:0:
261,212,15616,1,0,0:0:0:0:
257,246,15706,1,0,0:0:0:0:
254,277,15796,6,0,P|253:322|268:339,1,62.9999980773926
425,228,16158,2,0,P|380:220|355:225,1,62.9999980773926
172,315,16519,1,0,0:0:0:0:
328,306,16700,1,0,0:0:0:0:
85,197,16881,1,0,0:0:0:0:
85,197,16971,1,0,0:0:0:0:
85,197,17061,6,0,P|122:179|155:173,1,62.9999980773926
299,53,17423,2,0,P|285:88|261:111,1,62.9999980773926
255,244,17784,2,0,P|291:255|344:266,1,62.9999980773926
147,333,18146,2,0,P|123:301|114:209,1,125.999996154785
224,164,18688,6,0,P|272:184|298:188,1,62.9999980773926
441,215,19049,1,0,0:0:0:0:
355,53,19230,1,0,0:0:0:0:
256,192,19411,1,0,0:0:0:0:
256,192,19501,1,0,0:0:0:0:
256,192,19592,1,0,0:0:0:0:
96,128,19772,1,0,0:0:0:0:
256,192,19953,6,0,L|314:225,1,62.9999980773926
186,89,20314,2,0,L|116:141,1,62.9999980773926
159,289,20676,2,0,L|207:234,1,62.9999980773926
248,147,20947,1,0,0:0:0:0:
257,129,21037,2,0,P|300:117|396:123,1,125.999996154785
443,263,21579,6,0,P|382:280|361:280,1,62.9999980773926
212,260,21941,1,0,0:0:0:0:
374,269,22122,1,0,0:0:0:0:
148,199,22302,2,0,L|193:163,1,31.4999990386963
303,66,22483,1,0,0:0:0:0:
303,66,22845,6,0,P|240:69|218:67,1,62.9999980773926
60,253,23206,2,0,P|73:221|73:187,1,62.9999980773926
68,67,23567,1,0,0:0:0:0:
181,204,23748,1,0,0:0:0:0:
224,65,23929,2,0,L|275:76,1,31.4999990386963
362,99,24110,1,0,0:0:0:0:
363,97,24471,6,0,P|336:134|326:165,1,62.9999980773926
389,294,24832,2,0,P|355:276|320:276,1,62.9999980773926
161,307,25194,2,0,P|194:291|212:259,1,62.9999980773926
126,95,25555,2,0,P|112:131|132:202,1,94.499997116089
163,280,25917,2,0,L|204:256,1,31.4999990386963
283,132,26098,2,0,L|272:182,1,31.4999990386963
341,299,26278,6,0,P|360:244|366:214,1,62.9999980773926
372,194,26549,1,0,0:0:0:0:
374,146,26640,1,0,0:0:0:0:
345,108,26730,1,0,0:0:0:0:
299,97,26820,1,0,0:0:0:0:
254,113,26911,1,0,0:0:0:0:
209,129,27001,1,0,0:0:0:0:
162,121,27092,1,0,0:0:0:0:
126,89,27182,1,0,0:0:0:0:
279,50,27363,6,0,P|270:93|244:122,1,70
117,214,27724,1,0,0:0:0:0:
255,126,27905,1,0,0:0:0:0:
286,307,28085,2,0,P|313:271|337:254,1,70
368,112,28447,1,0,0:0:0:0:
368,112,28628,2,0,P|393:169|392:195,1,70
453,298,28989,2,0,P|408:298|381:297,1,70
176,329,29351,2,0,P|179:285|189:256,1,70
259,126,29712,1,0,0:0:0:0:
259,126,30073,1,0,0:0:0:0:
259,126,30254,6,0,P|225:100|181:83,1,70
58,74,30616,1,0,0:0:0:0:
65,205,30796,1,0,0:0:0:0:
211,151,30977,1,0,0:0:0:0:
208,279,31158,1,0,0:0:0:0:
346,129,31338,1,0,0:0:0:0:
439,273,31519,6,0,L|383:205,1,70
251,302,31881,2,0,L|167:317,1,70
59,166,32242,2,0,L|139:196,1,70
272,240,32604,1,0,0:0:0:0:
272,240,32784,1,0,0:0:0:0:
272,240,33146,5,0,0:0:0:0:
276,244,33326,2,0,P|319:198|333:182,1,70
371,56,33688,1,0,0:0:0:0:
445,219,33778,2,0,L|387:216,1,35
238,190,34049,1,0,0:0:0:0:
236,188,34411,6,0,P|187:183|157:174,1,70
30,129,34772,1,0,0:0:0:0:
108,279,34953,1,0,0:0:0:0:
170,82,35134,1,0,0:0:0:0:
271,242,35314,2,0,L|230:221,1,35
106,140,35495,2,0,L|123:187,1,35
159,305,35676,2,0,P|176:251|189:223,1,70
216,80,36037,6,0,P|248:107|271:149,1,70
312,287,36399,1,0,0:0:0:0:
390,134,36579,1,0,0:0:0:0:
170,168,36760,2,0,P|236:188|254:193,1,70
360,277,37122,2,0,P|371:220|348:163,1,105
269,69,37483,2,0,P|238:126|214:228,1,140
159,303,37935,2,0,L|113:318,1,35
301,305,38116,2,0,L|338:282,1,35
357,254,38296,5,0,0:0:0:0:
385,222,38387,1,0,0:0:0:0:
399,182,38477,1,0,0:0:0:0:
393,140,38567,1,0,0:0:0:0:
362,111,38658,1,0,0:0:0:0:
322,97,38748,1,0,0:0:0:0:
281,107,38838,1,0,0:0:0:0:
245,130,38929,6,0,L|242:184,1,35
249,318,39110,1,0,0:0:0:0:
82,128,39290,1,0,0:0:0:0:
161,71,39652,5,0,0:0:0:0:
120,290,39832,1,0,0:0:0:0:
136,250,39923,1,0,0:0:0:0:
158,214,40013,1,0,0:0:0:0:
190,186,40104,1,0,0:0:0:0:
229,173,40194,6,0,P|272:166|311:180,1,70
424,282,40555,2,0,P|413:245|423:209,1,70
354,52,40917,2,0,P|320:91|298:98,1,70
89,121,41278,2,0,P|122:139|151:174,1,70
297,319,41640,5,0,0:0:0:0:
143,162,41820,1,0,0:0:0:0:
290,320,42001,1,0,0:0:0:0:
143,162,42182,1,0,0:0:0:0:
143,162,42543,5,0,0:0:0:0:
185,159,42634,1,0,0:0:0:0:
225,169,42724,1,0,0:0:0:0:
249,206,42814,1,0,0:0:0:0:
284,229,42905,1,0,0:0:0:0:
325,231,42995,1,0,0:0:0:0:
364,218,43085,2,0,P|407:203|435:203,1,70
283,91,43447,6,0,L|286:133,1,35
291,213,43628,1,0,0:0:0:0:
291,213,43808,1,0,0:0:0:0:
260,188,43899,1,0,0:0:0:0:
216,182,43989,1,0,0:0:0:0:
179,193,44079,1,0,0:0:0:0:
153,222,44170,1,0,0:0:0:0:
154,260,44260,1,0,0:0:0:0:
186,281,44351,1,0,0:0:0:0:
221,267,44441,1,0,0:0:0:0:
236,232,44531,1,0,0:0:0:0:
217,193,44622,1,0,0:0:0:0:
188,162,44712,6,0,P|161:129|232:113,1,140
328,198,45254,5,0,0:0:0:0:
328,198,45435,2,0,P|279:200|191:246,1,140
76,185,45977,1,0,0:0:0:0:
76,185,46158,2,0,B|114:146|123:109|123:108|184:105,1,140
336,55,46700,1,0,0:0:0:0:
336,55,46881,2,0,B|312:99|365:146|365:146|344:192,1,140
210,294,47423,5,0,0:0:0:0:
210,294,47604,2,0,B|157:237|174:221|174:221|214:199|209:177,1,140
101,74,48146,1,0,0:0:0:0:
101,74,48326,2,0,B|168:73|186:103|186:103|245:115,1,140
395,204,48869,1,0,0:0:0:0:
283,306,49049,2,0,B|228:293|216:259|216:259|146:229,1,140
59,164,49592,6,0,P|101:146|149:143,1,70
326,171,49953,1,0,0:0:0:0:
176,236,50134,1,0,0:0:0:0:
223,81,50314,1,0,0:0:0:0:
298,268,50495,2,0,P|346:290|398:221,1,140
311,143,51037,1,0,0:0:0:0:
216,55,51218,2,0,P|151:88|122:163,1,140
247,309,51760,5,0,0:0:0:0:
338,71,51941,1,0,0:0:0:0:
224,156,52122,5,0,0:0:0:0:
197,188,52212,1,0,0:0:0:0:
219,223,52302,1,0,0:0:0:0:
260,228,52393,1,0,0:0:0:0:
297,209,52483,1,0,0:0:0:0:
322,176,52573,1,0,0:0:0:0:
360,159,52664,1,0,0:0:0:0:
401,162,52754,1,0,0:0:0:0:
430,191,52845,1,0,0:0:0:0:
435,232,52935,1,0,0:0:0:0:
407,263,53025,2,0,P|337:261|320:257,1,70
159,107,53387,6,0,L|223:139,1,52.5000020027161
196,294,53748,2,0,L|169:231,1,52.5000020027161
98,70,54110,1,0,0:0:0:0:
196,285,54290,1,0,0:0:0:0:
97,76,54652,2,0,L|129:140,1,52.5000020027161
402,241,55013,2,0,L|338:177,1,52.5000020027161
250,141,55375,6,0,P|273:111|209:143,1,252
238,192,56278,2,0,L|334:192,1,80.5000015354157
453,193,56640,1,0,0:0:0:0:
453,193,56730,1,0,0:0:0:0:
447,193,56820,2,0,P|422:138|383:109,1,80.5000015354157
216,77,57182,1,0,0:0:0:0:
257,268,57363,2,0,L|291:321,1,40.2500007677078
131,225,57543,6,0,P|179:186|213:179,1,80.5000015354157
407,172,57905,2,0,P|357:163|322:156,1,80.5000015354157
135,125,58266,1,0,0:0:0:0:
325,318,58447,1,0,0:0:0:0:
295,83,58628,1,0,0:0:0:0:
121,293,58808,1,0,0:0:0:0:
414,203,58989,1,0,0:0:0:0:
157,167,59170,2,0,P|119:143|89:92,1,80.5000015354157
229,54,59531,5,0,0:0:0:0:
229,54,59712,2,0,P|200:116|165:138,1,80.5000015354157
82,254,60073,2,0,P|128:237|170:244,1,80.5000015354157
368,301,60435,2,0,P|345:243|388:135,1,161.000003070831
430,60,60977,1,0,0:0:0:0:
430,60,61158,2,0,P|364:52|323:63,1,80.5000015354157
216,130,61519,1,0,0:0:0:0:
216,130,61610,1,0,0:0:0:0:
216,130,61700,2,0,P|267:135|315:133,1,80.5000015354157
107,209,62061,6,0,P|86:138|64:110,1,80.5000015354157
148,316,62423,1,0,0:0:0:0:
277,290,62604,2,0,P|332:269|364:270,1,80.5000015354157
436,158,62965,2,0,P|373:143|340:151,1,80.5000015354157
177,83,63326,2,0,P|228:64|349:70,1,161.000003070831
437,170,63869,6,0,P|427:217|393:267,1,80.5000015354157
240,288,64230,2,0,P|244:231|273:184,1,80.5000015354157
159,59,64592,2,0,P|146:108|122:149,1,80.5000015354157
114,161,64863,1,0,0:0:0:0:
90,190,64953,1,0,0:0:0:0:
239,156,65134,1,0,0:0:0:0:
140,268,65314,1,0,0:0:0:0:
417,168,65495,1,0,0:0:0:0:
213,80,65676,1,0,0:0:0:0:
322,297,65857,1,0,0:0:0:0:
374,60,66037,5,0,0:0:0:0:
374,60,66128,1,0,0:0:0:0:
374,60,66218,2,0,P|366:117|338:158,1,80.5000015354157
336,165,66489,1,0,0:0:0:0:
291,181,66579,1,0,0:0:0:0:
249,177,66670,1,0,0:0:0:0:
201,176,66760,1,0,0:0:0:0:
155,197,66851,1,0,0:0:0:0:
133,229,66941,6,0,L|108:283,1,40.2500007677078
320,294,67122,2,0,L|275:248,1,40.2500007677078
155,132,67302,2,0,L|200:150,1,40.2500007677078
370,186,67483,2,0,L|346:128,1,40.2500007677078
282,43,67664,2,0,L|279:90,1,40.2500007677078
246,265,67845,6,0,P|291:232|346:213,1,80.5000015354157
481,165,68206,1,0,0:0:0:0:
481,165,68296,1,0,0:0:0:0:
481,165,68387,2,0,P|415:146|383:128,1,80.5000015354157
218,166,68748,1,0,0:0:0:0:
315,51,68929,1,0,0:0:0:0:
300,289,69110,2,0,P|238:280|210:265,1,80.5000015354157
29,209,69471,2,0,P|72:182|110:176,1,80.5000015354157
291,167,69832,5,0,0:0:0:0:
77,92,70013,1,0,0:0:0:0:
225,275,70194,1,0,0:0:0:0:
215,48,70375,1,0,0:0:0:0:
75,237,70555,2,0,P|136:203|169:193,1,80.5000015354157
270,152,70917,1,0,0:0:0:0:
386,277,71098,5,0,0:0:0:0:
386,277,71188,1,0,0:0:0:0:
386,277,71278,1,0,0:0:0:0:
404,74,71459,1,0,0:0:0:0:
198,166,71640,2,0,P|224:199|249:239,1,80.5000015354157
410,277,72001,2,0,P|396:223|401:170,1,80.5000015354157
261,47,72363,2,0,P|272:100|263:150,1,80.5000015354157
197,286,72724,1,0,0:0:0:0:
123,131,72905,1,0,0:0:0:0:
123,131,72995,1,0,0:0:0:0:
123,131,73085,1,0,0:0:0:0:
295,222,73266,2,0,P|297:156|308:117,1,80.5000015354157
321,49,73628,5,0,0:0:0:0:
171,170,73808,1,0,0:0:0:0:
400,256,73989,1,0,0:0:0:0:
192,64,74170,1,0,0:0:0:0:
98,282,74351,1,0,0:0:0:0:
351,95,74531,2,0,L|361:161,1,45.4999979171754
412,294,74893,6,0,L|349:274,1,45.4999979171754
131,191,75254,1,0,0:0:0:0:
322,252,75435,1,0,0:0:0:0:
262,78,75616,1,0,0:0:0:0:
119,307,75796,1,0,0:0:0:0:
134,271,75887,1,0,0:0:0:0:
161,240,75977,1,0,0:0:0:0:
201,222,76067,1,0,0:0:0:0:
251,208,76158,2,0,P|308:198|362:200,1,80.5000015354157
455,214,76519,5,0,0:0:0:0:
238,89,76700,1,0,0:0:0:0:
299,302,76881,1,0,0:0:0:0:
58,171,77061,1,0,0:0:0:0:
181,327,77242,2,0,L|177:222,1,80.5000015354157
350,62,77604,2,0,L|321:159,1,80.5000015354157
46,143,77965,2,0,L|139:168,1,80.5000015354157
301,328,78326,2,0,L|301:236,1,80.5000015354157
399,94,78688,2,0,L|303:104,1,80.5000015354157
104,161,79049,5,0,0:0:0:0:
423,227,79230,1,0,0:0:0:0:
300,101,79411,1,0,0:0:0:0:
280,282,79591,1,0,0:0:0:0:
87,45,79772,1,0,0:0:0:0:
111,322,79953,1,0,0:0:0:0:
72,184,80133,5,0,0:0:0:0:
106,162,80224,1,0,0:0:0:0:
145,158,80314,1,0,0:0:0:0:
183,169,80404,1,0,0:0:0:0:
215,192,80495,1,0,0:0:0:0:
249,218,80585,1,0,0:0:0:0:
304,206,80676,1,0,0:0:0:0:
361,189,80766,1,0,0:0:0:0:
423,172,80857,1,0,0:0:0:0:
255,128,82302,6,0,L|301:197,1,70
359,283,82664,1,0,0:0:0:0:
375,146,82845,1,0,0:0:0:0:
197,250,83025,1,0,0:0:0:0:
91,102,83206,1,0,0:0:0:0:
286,102,83387,5,0,0:0:0:0:
286,102,83477,1,0,0:0:0:0:
286,102,83567,2,0,P|266:142|234:178,1,70
124,282,83929,1,0,0:0:0:0:
249,163,84110,1,0,0:0:0:0:
378,295,84290,2,0,P|391:248|408:210,1,70
436,84,84652,1,0,0:0:0:0:
436,84,84742,1,0,0:0:0:0:
436,84,84832,1,0,0:0:0:0:
397,219,85013,1,0,0:0:0:0:
287,90,85194,6,0,P|241:98|212:97,1,70
91,78,85555,1,0,0:0:0:0:
191,242,85736,1,0,0:0:0:0:
53,187,85917,1,0,0:0:0:0:
53,187,86007,1,0,0:0:0:0:
53,187,86098,2,0,P|126:153|172:151,1,105
221,141,86459,6,0,L|231:282,1,140
230,280,87001,1,0,0:0:0:0:
330,181,87182,1,0,0:0:0:0:
103,209,87363,1,0,0:0:0:0:
122,175,87453,1,0,0:0:0:0:
145,145,87543,1,0,0:0:0:0:
177,121,87634,1,0,0:0:0:0:
221,109,87724,1,0,0:0:0:0:
261,108,87814,1,0,0:0:0:0:
299,127,87905,1,0,0:0:0:0:
341,134,87995,1,0,0:0:0:0:
379,129,88085,6,0,P|435:98|448:64,1,70
271,70,88447,2,0,P|226:62|192:64,1,70
171,79,88718,1,0,0:0:0:0:
136,96,88808,1,0,0:0:0:0:
185,204,88989,1,0,0:0:0:0:
60,296,89170,2,0,P|110:278|141:276,1,70
323,272,89531,2,0,P|291:242|272:214,1,70
172,82,89893,6,0,P|164:132|128:160,1,70
59,249,90254,1,0,0:0:0:0:
64,256,90435,6,0,P|100:267|122:274,1,35
228,308,90616,1,0,0:0:0:0:
252,182,90977,5,0,0:0:0:0:
382,227,91158,1,0,0:0:0:0:
358,102,91338,1,0,0:0:0:0:
211,79,91519,1,0,0:0:0:0:
121,174,91700,1,0,0:0:0:0:
158,287,91881,1,0,0:0:0:0:
259,146,92061,1,0,0:0:0:0:
259,146,92242,6,0,L|320:192,1,70
150,77,92603,2,0,L|64:128,1,70
159,289,92965,2,0,L|224:224,1,70
257,129,93326,2,0,P|300:117|416:128,1,140
480,224,93869,6,0,P|419:241|384:256,1,70
239,137,94230,1,0,0:0:0:0:
315,298,94411,1,0,0:0:0:0:
127,269,94592,2,0,L|171:222,1,35
296,104,94772,1,0,0:0:0:0:
283,106,95134,6,0,P|220:109|192:96,1,70
57,228,95495,2,0,P|97:235|135:263,1,70
279,300,95857,1,0,0:0:0:0:
244,131,96037,1,0,0:0:0:0:
430,190,96218,2,0,L|381:218,1,52.5000020027161
226,295,96399,1,0,0:0:0:0:
225,300,96760,6,0,P|203:256|201:226,1,70
210,105,97122,1,0,0:0:0:0:
337,221,97302,1,0,0:0:0:0:
391,82,97483,2,0,P|333:67|311:73,1,70
126,95,97845,2,0,P|112:131|120:190,1,70
98,236,98116,1,0,0:0:0:0:
98,236,98206,6,0,L|171:210,1,70
201,197,98477,1,0,0:0:0:0:
241,182,98567,1,0,0:0:0:0:
288,179,98658,1,0,0:0:0:0:
333,196,98748,5,0,0:0:0:0:
368,221,98838,1,0,0:0:0:0:
392,266,98929,1,0,0:0:0:0:
377,313,99019,1,0,0:0:0:0:
331,333,99110,1,0,0:0:0:0:
279,311,99200,1,0,0:0:0:0:
262,256,99290,5,0,0:0:0:0:
280,200,99381,1,0,0:0:0:0:
318,153,99471,1,0,0:0:0:0:
369,118,99561,1,0,0:0:0:0:
375,65,99652,6,0,L|351:22,1,35
173,156,99832,2,0,L|168:198,1,35
151,263,100375,1,0,0:0:0:0:
447,172,100555,1,0,0:0:0:0:
123,152,100736,1,0,0:0:0:0:
149,154,101278,1,0,0:0:0:0:
361,189,101640,1,0,0:0:0:0:
253,66,102001,1,0,0:0:0:0:
251,95,102543,5,0,0:0:0:0:
284,305,102724,1,0,0:0:0:0:
405,134,102905,1,0,0:0:0:0:
407,231,103266,5,0,0:0:0:0:
250,95,103447,1,0,0:0:0:0:
141,264,103628,1,0,0:0:0:0:
194,268,104170,5,0,0:0:0:0:
275,100,104531,1,0,0:0:0:0:
369,272,104712,1,0,0:0:0:0:
356,235,104802,1,0,0:0:0:0:
331,208,104893,1,0,0:0:0:0:
299,194,104983,1,0,0:0:0:0:
263,190,105073,1,0,0:0:0:0:
226,208,105164,1,0,0:0:0:0:
185,197,105254,1,0,0:0:0:0:
151,161,105345,1,0,0:0:0:0:
137,114,105435,6,0,P|150:75|262:71,1,140
374,115,105977,1,0,0:0:0:0:
439,250,106158,2,0,B|395:264|351:258|351:258|346:232|300:225,1,140
125,222,106700,1,0,0:0:0:0:
73,78,106881,2,0,B|51:131|40:179|40:180|83:159|77:217,1,140
232,288,107423,5,0,0:0:0:0:
232,288,107513,1,0,0:0:0:0:
232,288,107604,2,0,P|236:238|195:151,1,140
114,64,108146,1,0,0:0:0:0:
114,64,108326,2,0,P|165:87|266:90,1,140
381,66,108869,1,0,0:0:0:0:
385,248,109049,2,0,B|318:234|311:183|311:183|258:172,1,140
209,283,109592,1,0,0:0:0:0:
58,278,109772,2,0,B|94:206|93:181|93:181|123:152,1,140
284,66,110314,6,0,P|283:120|271:140,1,70
175,286,110676,1,0,0:0:0:0:
197,111,110857,1,0,0:0:0:0:
360,294,111037,1,0,0:0:0:0:
246,194,111218,2,0,P|186:198|117:241,1,140
38,270,111760,1,0,0:0:0:0:
162,99,111941,2,0,P|161:174|133:246,1,140
297,203,112483,5,0,0:0:0:0:
269,311,112664,2,0,P|310:265|338:247,1,70
353,238,112935,1,0,0:0:0:0:
387,213,113025,1,0,0:0:0:0:
409,175,113116,1,0,0:0:0:0:
415,128,113206,1,0,0:0:0:0:
395,90,113296,1,0,0:0:0:0:
360,70,113387,1,0,0:0:0:0:
311,73,113477,1,0,0:0:0:0:
267,88,113567,1,0,0:0:0:0:
216,97,113658,1,0,0:0:0:0:
174,93,113748,2,0,P|132:82|91:76,1,70
135,234,114110,6,0,L|211:213,1,70
382,113,114471,2,0,L|382:191,1,70
402,313,114832,5,0,0:0:0:0:
206,85,115013,1,0,0:0:0:0:
87,247,115375,5,0,0:0:0:0:
360,138,115736,5,0,0:0:0:0:
231,211,116098,6,0,P|208:256|258:200,1,315
240,173,117001,6,0,L|136:127,1,97.9999970092774
66,283,117363,1,0,0:0:0:0:
92,268,117453,1,0,0:0:0:0:
118,248,117543,2,0,P|151:198|159:150,1,97.9999970092774
163,51,117905,5,0,0:0:0:0:
272,120,118085,2,0,P|334:119|385:105,1,97.9999970092774
421,287,118447,2,0,P|382:240|345:222,1,97.9999970092774
170,91,118808,2,0,P|166:154|183:194,1,97.9999970092774
366,281,119170,1,0,0:0:0:0:
107,198,119351,1,0,0:0:0:0:
322,91,119531,1,0,0:0:0:0:
215,304,119712,1,0,0:0:0:0:
116,117,119893,2,0,P|78:93|48:42,1,80.5000015354157
274,61,120254,5,0,0:0:0:0:
274,61,120435,2,0,P|245:123|210:145,1,80.5000015354157
89,289,120796,2,0,P|127:244|171:231,1,97.9999970092774
386,187,121158,2,0,P|338:196|191:167,1,195.999994018555
83,84,121700,1,0,0:0:0:0:
103,303,121881,2,0,P|145:259|171:216,1,97.9999970092774
251,60,122242,1,0,0:0:0:0:
251,60,122332,1,0,0:0:0:0:
251,60,122423,2,0,P|290:108|313:152,1,97.9999970092774
440,292,122784,6,0,P|376:279|335:265,1,97.9999970092774
180,213,123146,1,0,0:0:0:0:
268,59,123326,2,0,P|283:113|279:169,1,97.9999970092774
94,293,123688,2,0,P|110:209|136:176,1,97.9999970092774
126,62,124049,2,0,B|131:157|204:117|204:117|299:177,1,195.999994018555
412,256,124592,6,0,P|368:214|351:167,1,97.9999970092774
257,54,124953,2,0,P|233:114|195:145,1,97.9999970092774
99,290,125314,2,0,P|157:256|204:245,1,97.9999970092774
357,223,125676,5,0,0:0:0:0:
169,116,125857,1,0,0:0:0:0:
352,66,126037,1,0,0:0:0:0:
232,282,126218,1,0,0:0:0:0:
445,201,126399,1,0,0:0:0:0:
132,71,126579,1,0,0:0:0:0:
187,312,126760,1,0,0:0:0:0:
340,80,126941,1,0,0:0:0:0:
389,273,127122,5,0,0:0:0:0:
370,248,127212,1,0,0:0:0:0:
339,235,127302,1,0,0:0:0:0:
299,240,127393,1,0,0:0:0:0:
256,250,127483,1,0,0:0:0:0:
217,227,127573,1,0,0:0:0:0:
174,218,127664,6,0,L|112:238,1,48.9999985046387
203,66,127845,2,0,L|195:139,1,48.9999985046387
296,274,128025,2,0,L|319:335,1,48.9999985046387
377,119,128206,2,0,L|320:150,1,48.9999985046387
180,268,128387,2,0,L|207:213,1,48.9999985046387
354,75,128567,2,0,P|373:135|372:197,1,97.9999970092774
356,292,128929,5,0,0:0:0:0:
356,292,129019,1,0,0:0:0:0:
356,292,129110,2,0,P|301:278|243:203,1,146.999995513916
193,96,129471,2,0,L|181:149,1,48.9999985046387
174,299,129652,2,0,L|128:254,1,48.9999985046387
29,208,129832,2,0,P|72:181|130:174,1,97.9999970092774
285,189,130194,5,0,0:0:0:0:
122,78,130375,1,0,0:0:0:0:
74,275,130555,1,0,0:0:0:0:
286,219,130736,1,0,0:0:0:0:
77,127,130917,1,0,0:0:0:0:
309,73,131098,1,0,0:0:0:0:
138,292,131278,1,0,0:0:0:0:
243,164,131459,5,0,0:0:0:0:
243,164,131549,1,0,0:0:0:0:
243,164,131640,1,0,0:0:0:0:
380,281,131820,1,0,0:0:0:0:
423,127,132001,2,0,P|364:117|323:119,1,97.9999970092774
182,59,132363,2,0,P|170:128|185:167,1,97.9999970092774
119,314,132724,2,0,P|194:303|222:287,1,97.9999970092774
369,206,133085,5,0,0:0:0:0:
186,126,133266,1,0,0:0:0:0:
247,277,133447,1,0,0:0:0:0:
253,283,133537,1,0,0:0:0:0:
252,277,133628,2,0,P|287:228|295:182,1,97.9999970092774
149,66,133989,2,0,P|153:131|181:188,1,97.9999970092774
205,217,134351,5,0,0:0:0:0:
342,259,134531,1,0,0:0:0:0:
133,213,134712,1,0,0:0:0:0:
401,168,134893,1,0,0:0:0:0:
100,95,135073,1,0,0:0:0:0:
452,109,135254,2,0,L|390:144,1,52.5000020027161
290,268,135616,6,0,L|226:237,1,52.5000020027161
118,195,135977,1,0,0:0:0:0:
353,299,136158,1,0,0:0:0:0:
322,58,136339,1,0,0:0:0:0:
139,283,136519,1,0,0:0:0:0:
122,250,136610,1,0,0:0:0:0:
113,217,136700,1,0,0:0:0:0:
117,182,136790,1,0,0:0:0:0:
133,144,136881,2,0,P|179:113|236:105,1,97.9999970092774
362,148,137242,5,0,0:0:0:0:
208,289,137423,1,0,0:0:0:0:
110,98,137604,1,0,0:0:0:0:
435,255,137784,1,0,0:0:0:0:
84,254,137965,2,0,L|187:313,1,97.9999970092774
407,195,138327,2,0,L|340:97,1,97.9999970092774
166,70,138688,2,0,L|164:177,1,97.9999970092774
242,259,139049,2,0,L|339:198,1,97.9999970092774
320,106,139411,2,0,L|187:121,1,97.9999970092774
45,179,139772,5,0,0:0:0:0:
428,281,139953,2,0,L|367:194,1,97.9999970092774
173,117,140315,1,0,0:0:0:0:
372,201,140495,1,0,0:0:0:0:
76,269,140676,1,0,0:0:0:0:
259,33,140857,5,0,0:0:0:0:
273,71,140947,1,0,0:0:0:0:
256,109,141037,1,0,0:0:0:0:
225,147,141128,1,0,0:0:0:0:
216,191,141218,1,0,0:0:0:0:
236,227,141308,1,0,0:0:0:0:
271,251,141399,1,0,0:0:0:0:
280,297,141489,1,0,0:0:0:0:
255,339,141579,2,0,P|208:297|300:337,1,391.99998803711
160,96,154591,6,0,L|224:128,1,52.5000020027161
256,217,154952,2,0,L|188:184,1,52.5000020027161
112,244,155313,2,0,L|175:273,1,52.5000020027161
121,150,155675,2,0,L|59:118,1,52.5000020027161
250,118,156036,1,0,0:0:0:0:
275,123,156127,1,0,0:0:0:0:
304,135,156217,1,0,0:0:0:0:
324,157,156307,1,0,0:0:0:0:
338,189,156398,6,0,L|356:247,1,52.5000020027161
365,89,156759,2,0,L|387:157,1,52.5000020027161
255,50,157121,2,0,L|276:119,1,52.5000020027161
278,231,157482,5,0,0:0:0:0:
248,234,157572,1,0,0:0:0:0:
216,222,157663,1,0,0:0:0:0:
199,194,157753,1,0,0:0:0:0:
183,160,157844,2,0,L|154:103,1,52.5000020027161
92,232,158205,6,0,L|125:285,1,52.5000020027161
231,251,158566,2,0,L|258:302,1,52.5000020027161
246,129,158928,2,0,L|280:191,1,52.5000020027161
157,184,159289,2,0,L|123:119,1,52.5000020027161
212,58,159650,1,0,0:0:0:0:
242,54,159740,1,0,0:0:0:0:
273,55,159831,1,0,0:0:0:0:
304,69,159921,1,0,0:0:0:0:
331,96,160012,2,0,L|370:145,1,52.5000020027161
318,261,160374,5,0,0:0:0:0:
296,236,160464,1,0,0:0:0:0:
267,217,160554,1,0,0:0:0:0:
233,209,160645,1,0,0:0:0:0:
189,210,160735,2,0,L|136:215,1,52.5000020027161
206,320,161097,2,0,L|195:245,1,52.5000020027161
149,99,161458,2,0,L|109:162,1,52.5000020027161
240,182,161819,1,0,0:0:0:0:
261,189,161909,1,0,0:0:0:0:
285,195,162000,1,0,0:0:0:0:
312,193,162090,1,0,0:0:0:0:
349,181,162181,2,0,L|404:150,1,52.5000020027161
275,102,162542,6,0,L|204:129,1,52.5000020027161
206,217,162904,2,0,L|145:245,1,52.5000020027161
59,140,163265,1,0,0:0:0:0:
74,109,163356,1,0,0:0:0:0:
94,91,163446,1,0,0:0:0:0:
119,80,163536,1,0,0:0:0:0:
152,70,163627,2,0,L|210:72,1,52.5000020027161
329,156,163988,6,0,P|296:175|262:250,1,105.000004005432
397,279,164530,1,0,0:0:0:0:
411,256,164621,1,0,0:0:0:0:
423,227,164711,2,0,P|425:185|416:160,1,52.5000020027161
316,111,165072,2,0,P|315:145|325:166,1,52.5000020027161
275,288,165434,1,0,0:0:0:0:
265,258,165524,1,0,0:0:0:0:
236,230,165615,1,0,0:0:0:0:
201,217,165705,1,0,0:0:0:0:
159,212,165795,2,0,P|118:216|94:231,1,52.5000020027161
212,313,166157,6,0,L|210:232,1,61.6000018798829
119,181,166518,2,0,P|152:138|165:129,1,61.6000018798829
218,52,166880,2,0,P|261:61|284:73,1,61.6000018798829
398,93,167241,2,0,P|394:124|372:153,1,61.6000018798829
345,292,167603,2,0,B|311:272|298:244|299:244|232:216,1,123.200003759766
297,86,168325,6,0,B|281:123|241:137|181:132|181:132|139:190,1,184.800005639649
141,306,169048,2,0,B|239:328|258:257|258:257|366:236,1,246.400007519531
460,221,170133,2,0,P|428:201|387:197,1,61.6000018798829
208,152,170494,2,0,P|251:155|280:149,1,61.6000018798829
371,64,170856,2,0,P|384:111|376:139,1,61.6000018798829
353,289,171217,2,0,P|310:258|295:230,1,61.6000018798829
146,205,171578,2,0,P|176:179|205:173,1,61.6000018798829
322,110,171940,6,0,L|311:206,1,70
174,167,172301,2,0,L|155:263,1,70
74,57,172663,2,0,L|43:130,1,70
230,92,173024,2,0,L|234:176,1,70
367,64,173386,2,0,P|381:135|374:227,1,140
272,305,174109,6,0,L|270:221,1,70
132,245,174470,2,0,L|186:194,1,70
23,121,174831,2,0,L|179:96,1,140
275,77,175554,6,0,P|295:124|291:227,1,140
146,235,176097,1,0,0:0:0:0:
146,235,176277,2,0,P|169:189|187:171,1,70
220,139,176548,1,0,0:0:0:0:
257,117,176639,1,0,0:0:0:0:
302,107,176729,1,0,0:0:0:0:
346,113,176819,1,0,0:0:0:0:
438,180,177000,6,0,P|356:197|283:190,1,140
261,183,177452,1,0,0:0:0:0:
225,172,177542,1,0,0:0:0:0:
181,170,177633,1,0,0:0:0:0:
141,187,177723,6,0,L|102:224,1,48.9999985046387
239,297,178084,5,0,0:0:0:0:
248,264,178175,1,0,0:0:0:0:
246,224,178265,1,0,0:0:0:0:
229,187,178356,1,0,0:0:0:0:
210,154,178446,2,0,L|174:118,1,48.9999985046387
285,157,178807,5,0,0:0:0:0:
319,155,178898,1,0,0:0:0:0:
348,149,178988,1,0,0:0:0:0:
376,128,179078,1,0,0:0:0:0:
395,96,179169,2,0,L|411:49,2,48.9999985046387
393,117,179440,1,0,0:0:0:0:
413,142,179530,1,0,0:0:0:0:
439,168,179621,1,0,0:0:0:0:
443,210,179711,1,0,0:0:0:0:
415,248,179801,2,0,L|374:256,1,26.2500010013581
246,296,179982,5,0,0:0:0:0:
225,272,180072,1,0,0:0:0:0:
211,243,180163,1,0,0:0:0:0:
206,213,180253,1,0,0:0:0:0:
213,182,180344,1,0,0:0:0:0:
226,153,180434,1,0,0:0:0:0:
249,132,180524,1,0,0:0:0:0:
275,98,180615,6,0,P|249:56|132:136,1,210
119,281,181337,2,0,L|166:273,1,35
297,197,181518,2,0,L|247:197,1,35
359,319,181699,2,0,L|379:261,1,35
393,156,181880,2,0,B|331:141|308:120|308:120|291:193|207:163,1,210
105,120,182603,6,0,L|157:109,1,35
185,258,182783,2,0,L|165:304,1,35
47,262,182964,2,0,L|11:216,1,35
186,76,183145,2,0,L|196:127,1,35
174,297,183325,2,0,P|200:264|236:247,1,70
358,207,183687,2,0,P|320:170|292:157,1,70
136,109,184048,6,0,P|148:153|167:183,1,70
283,293,184410,2,0,P|293:255|283:222,1,70
273,73,184771,1,0,0:0:0:0:
273,73,184862,1,0,0:0:0:0:
273,73,184952,2,0,P|239:117|211:130,1,70
192,148,185223,1,0,0:0:0:0:
157,170,185313,5,0,0:0:0:0:
138,208,185404,1,0,0:0:0:0:
148,248,185494,1,0,0:0:0:0:
183,269,185584,1,0,0:0:0:0:
225,267,185675,5,0,0:0:0:0:
262,247,185765,1,0,0:0:0:0:
282,209,185856,1,0,0:0:0:0:
320,192,185946,1,0,0:0:0:0:
355,213,186036,1,0,0:0:0:0:
395,225,186127,1,0,0:0:0:0:
434,212,186217,1,0,0:0:0:0:
449,173,186307,1,0,0:0:0:0:
455,131,186398,6,0,P|337:97|247:132,1,210
145,210,187121,2,0,L|186:230,1,35
350,146,187301,2,0,L|310:168,1,35
266,302,187482,2,0,L|282:254,1,35
243,149,187663,5,0,0:0:0:0:
226,118,187753,1,0,0:0:0:0:
197,90,187844,6,0,L|152:83,1,35
58,195,188024,1,0,0:0:0:0:
86,179,188115,2,0,L|134:169,1,35
202,217,188295,1,0,0:0:0:0:
192,256,188386,2,0,P|124:285|165:200,1,210
252,185,189109,6,0,P|292:190|335:203,1,70
439,254,189470,2,0,P|415:219|399:183,1,70
384,154,189741,2,0,L|388:111,2,35
220,103,190012,2,0,L|170:127,2,35
89,228,190283,2,0,L|109:277,2,35
219,206,190554,2,0,P|275:220|313:241,1,70
404,296,190916,1,0,0:0:0:0:
300,102,191097,1,0,0:0:0:0:
234,269,191277,2,0,P|172:297|147:292,1,70
59,209,191639,5,0,0:0:0:0:
274,188,191819,1,0,0:0:0:0:
153,111,192000,1,0,0:0:0:0:
429,293,192181,1,0,0:0:0:0:
160,160,193627,6,0,B|192:192|256:128|256:128|322:128,1,159.249992710114
384,288,195072,2,0,P|352:256|320:256,1,68.2499968757631
192,160,195795,2,0,L|191:233,1,68.2499968757631
224,320,196518,2,0,P|256:288|288:224,1,113.749994792938
192,96,197693,1,0,0:0:0:0:
192,96,197783,1,0,0:0:0:0:
192,96,197873,2,0,P|160:192|164:264,1,159.249992710114
288,320,199410,2,0,L|290:151,1,159.249992710114
64,256,200855,5,0,0:0:0:0:
323,69,201035,2,0,L|328:207,1,112
341,351,201397,1,0,0:0:0:0:
320,258,202300,6,0,P|243:216|216:203,1,90.9999958343508
70,144,202662,1,0,0:0:0:0:
265,46,202842,2,0,L|252:148,1,90.9999958343508
190,306,203204,1,0,0:0:0:0:
190,306,203294,1,0,0:0:0:0:
190,306,203385,2,0,P|141:292|104:264,1,90.9999958343508
139,66,203746,1,0,0:0:0:0:
100,262,203927,1,0,0:0:0:0:
300,139,204108,1,0,0:0:0:0:
395,282,204288,5,0,0:0:0:0:
206,243,204469,1,0,0:0:0:0:
403,155,204650,1,0,0:0:0:0:
170,137,204830,1,0,0:0:0:0:
418,61,205011,1,0,0:0:0:0:
105,59,205192,2,0,P|76:105|64:159,1,90.9999958343508
204,227,205553,5,0,0:0:0:0:
204,227,205644,1,0,0:0:0:0:
204,227,205734,2,0,P|193:170|173:139,1,90.9999958343508
86,292,206095,2,0,P|144:309|191:307,1,90.9999958343508
367,293,206457,2,0,P|402:235|310:165,1,181.999991668702
128,192,206999,1,0,0:0:0:0:
128,192,207180,6,0,P|171:168|201:128,1,90.9999958343508
257,49,207541,1,0,0:0:0:0:
358,215,207722,1,0,0:0:0:0:
236,138,207903,1,0,0:0:0:0:
207,293,208083,2,0,P|157:294|118:273,1,90.9999958343508
174,149,208445,1,0,0:0:0:0:
331,273,208626,1,0,0:0:0:0:
379,79,208806,1,0,0:0:0:0:
272,189,208987,6,0,P|240:143|203:122,1,90.9999958343508
54,76,209348,2,0,P|51:138|64:193,1,90.9999958343508
251,268,209710,1,0,0:0:0:0:
251,268,209891,2,0,P|209:233|171:218,1,90.9999958343508
375,78,210252,2,0,P|356:132|331:166,1,90.9999958343508
211,313,210614,1,0,0:0:0:0:
211,313,210704,1,0,0:0:0:0:
211,313,210794,1,0,0:0:0:0:
158,186,210975,5,0,0:0:0:0:
385,211,211156,1,0,0:0:0:0:
107,141,211336,1,0,0:0:0:0:
362,158,211517,1,0,0:0:0:0:
105,228,211698,1,0,0:0:0:0:
379,191,211879,1,0,0:0:0:0:
102,156,212059,1,0,0:0:0:0:
396,238,212240,1,0,0:0:0:0:
326,78,212421,5,0,0:0:0:0:
289,94,212511,1,0,0:0:0:0:
264,127,212601,1,0,0:0:0:0:
259,162,212692,1,0,0:0:0:0:
277,191,212782,1,0,0:0:0:0:
291,231,212873,1,0,0:0:0:0:
277,263,212963,6,0,L|240:311,1,45.4999979171754
89,244,213144,2,0,L|146:250,1,45.4999979171754
203,154,213324,2,0,L|194:103,1,45.4999979171754
356,167,213505,2,0,L|346:234,1,45.4999979171754
261,340,213686,2,0,L|254:286,1,45.4999979171754
232,167,213867,6,0,P|274:123|312:107,1,90.9999958343508
429,75,214228,1,0,0:0:0:0:
429,75,214409,2,0,P|434:152|422:191,1,90.9999958343508
340,301,214770,1,0,0:0:0:0:
167,238,214951,2,0,L|143:289,1,45.4999979171754
308,208,215132,2,0,L|327:152,1,45.4999979171754
250,71,215312,2,0,P|203:104|161:115,1,90.9999958343508
72,194,215674,5,0,0:0:0:0:
282,221,215855,1,0,0:0:0:0:
152,91,216035,1,0,0:0:0:0:
231,331,216216,1,0,0:0:0:0:
52,239,216397,1,0,0:0:0:0:
259,97,216577,1,0,0:0:0:0:
406,277,216758,6,0,P|412:217|424:175,1,90.9999958343508
451,69,217120,1,0,0:0:0:0:
307,155,217300,2,0,P|238:154|204:144,1,90.9999958343508
101,294,217662,2,0,P|154:262|204:258,1,90.9999958343508
166,72,218023,2,0,P|169:144|140:177,1,90.9999958343508
259,314,218385,6,0,L|313:284,1,45.4999979171754
391,244,218565,1,0,0:0:0:0:
346,134,218746,1,0,0:0:0:0:
225,230,218927,2,0,L|218:174,1,45.4999979171754
219,84,219108,1,0,0:0:0:0:
79,151,219288,2,0,L|99:204,1,45.4999979171754
139,282,219469,1,0,0:0:0:0:
139,282,219650,5,0,0:0:0:0:
292,236,219830,1,0,0:0:0:0:
132,280,220011,1,0,0:0:0:0:
298,104,220192,1,0,0:0:0:0:
130,287,220373,1,0,0:0:0:0:
404,75,220553,2,0,L|400:150,1,56
91,306,220915,6,0,L|129:238,1,56
222,73,221276,1,0,0:0:0:0:
368,294,221457,1,0,0:0:0:0:
104,195,221638,1,0,0:0:0:0:
440,102,221818,1,0,0:0:0:0:
440,102,221909,1,0,0:0:0:0:
440,102,221999,2,0,L|394:223,1,112
367,276,222541,5,0,0:0:0:0:
246,104,222722,1,0,0:0:0:0:
145,303,222903,1,0,0:0:0:0:
422,167,223083,1,0,0:0:0:0:
82,162,223264,2,0,L|153:199,1,56
408,278,223626,1,0,0:0:0:0:
116,91,223806,1,0,0:0:0:0:
222,323,223987,6,0,L|263:256,1,56
426,72,224348,2,0,L|356:72,1,56
57,154,224710,2,0,L|114:198,1,56
364,289,225071,1,0,0:0:0:0:
163,104,225252,1,0,0:0:0:0:
377,228,225433,5,0,0:0:0:0:
141,175,225614,1,0,0:0:0:0:
371,112,225794,1,0,0:0:0:0:
123,276,225975,1,0,0:0:0:0:
438,294,226156,1,0,0:0:0:0:
51,75,226336,1,0,0:0:0:0:
263,299,226517,5,0,0:0:0:0:
244,273,226608,1,0,0:0:0:0:
245,237,226698,1,0,0:0:0:0:
254,197,226788,1,0,0:0:0:0:
279,171,226879,1,0,0:0:0:0:
255,125,228324,5,0,0:0:0:0:
256,148,228415,1,0,0:0:0:0:
254,171,228505,1,0,0:0:0:0:
255,317,228686,2,0,P|270:290|309:263,1,56
441,132,229047,5,0,0:0:0:0:
416,158,229138,1,0,0:0:0:0:
381,172,229228,1,0,0:0:0:0:
331,175,229318,1,0,0:0:0:0:
280,161,229409,1,0,0:0:0:0:
231,132,229499,1,0,0:0:0:0:
181,135,229589,1,0,0:0:0:0:
137,161,229680,1,0,0:0:0:0:
111,194,229770,6,0,P|93:245|103:264,1,70
384,294,230132,2,0,P|355:261|326:246,1,70
189,197,230493,1,0,0:0:0:0:
392,151,230674,1,0,0:0:0:0:
104,73,230855,1,0,0:0:0:0:
337,64,231035,6,0,P|319:112|311:160,1,70
298,287,231397,1,0,0:0:0:0:
304,133,231577,1,0,0:0:0:0:
184,216,231758,2,0,P|143:196|97:187,1,70
70,287,232120,1,0,0:0:0:0:
185,72,232300,1,0,0:0:0:0:
236,293,232481,1,0,0:0:0:0:
296,167,232662,6,0,P|344:151|382:153,1,70
488,151,233023,5,0,0:0:0:0:
397,284,233204,1,0,0:0:0:0:
397,284,233294,1,0,0:0:0:0:
402,280,233385,1,0,0:0:0:0:
237,168,233565,6,0,L|255:114,1,35
77,55,233746,2,0,L|122:80,1,35
117,179,233927,2,0,P|104:223|107:272,1,70
272,308,234288,1,0,0:0:0:0:
103,255,234469,1,0,0:0:0:0:
290,176,234650,6,0,P|340:174|375:182,1,70
406,207,234921,1,0,0:0:0:0:
432,243,235011,1,0,0:0:0:0:
431,294,235101,1,0,0:0:0:0:
409,341,235192,1,0,0:0:0:0:
351,352,235282,1,0,0:0:0:0:
300,338,235373,1,0,0:0:0:0:
267,304,235463,1,0,0:0:0:0:
250,257,235553,2,0,L|260:214,3,35
276,187,235915,5,0,0:0:0:0:
262,192,236276,5,0,0:0:0:0:
326,61,236457,1,0,0:0:0:0:
399,163,236638,1,0,0:0:0:0:
207,88,236818,2,0,P|141:101|113:117,1,70
45,246,237180,6,0,P|95:234|122:233,1,70
269,228,237541,2,0,P|268:269|295:292,1,70
346,300,237812,1,0,0:0:0:0:
395,288,237903,1,0,0:0:0:0:
434,249,237993,1,0,0:0:0:0:
451,195,238083,6,0,P|445:149|429:116,1,70
236,62,238445,2,0,L|231:223,1,140
237,308,239168,5,0,0:0:0:0:
325,248,239348,1,0,0:0:0:0:
162,215,239529,1,0,0:0:0:0:
395,158,239710,2,0,P|427:108|439:68,1,70
171,83,240071,2,0,P|198:124|227:144,1,70
214,313,240433,2,0,P|182:289|138:270,1,70
42,207,240794,5,0,0:0:0:0:
66,174,240885,1,0,0:0:0:0:
103,161,240975,1,0,0:0:0:0:
152,162,241065,1,0,0:0:0:0:
208,190,241156,1,0,0:0:0:0:
267,199,241246,1,0,0:0:0:0:
322,201,241336,5,0,0:0:0:0:
159,286,241517,1,0,0:0:0:0:
159,286,241698,5,0,0:0:0:0:
282,92,241879,1,0,0:0:0:0:
313,303,242240,6,0,L|331:259,1,35
225,67,242601,2,0,L|221:109,1,35
190,308,242963,5,0,0:0:0:0:
93,113,243144,1,0,0:0:0:0:
93,113,243234,1,0,0:0:0:0:
93,113,243324,1,0,0:0:0:0:
364,107,243505,1,0,0:0:0:0:
364,107,243686,5,0,0:0:0:0:
285,317,243867,1,0,0:0:0:0:
112,118,244047,1,0,0:0:0:0:
256,192,244589,12,0,250011,0:0:0:0:
