osu file format v14

[General]
AudioFilename: audio.mp3
AudioLeadIn: 0
PreviewTime: 50393
Countdown: 0
SampleSet: Soft
StackLeniency: 0.7
Mode: 3
LetterboxInBreaks: 0
SpecialStyle: 0
WidescreenStoryboard: 0

[Editor]
Bookmarks: 183309,221565
DistanceSpacing: 2
BeatDivisor: 4
GridSize: 8
TimelineZoom: 2.899999

[Metadata]
Title:Cynthia No Hikari 1.1x
TitleUnicode:シンシアの光 1.1x
Artist:Aoi Eir
ArtistUnicode:藍井エイル
Creator:Lude
Version:Revelation 7K [feat. qodtjr]
Source:ソードアート・オンライン ロスト・ソング
Tags:nightcore
BeatmapID:1616386
BeatmapSetID:768576

[Difficulty]
HPDrainRate:8
CircleSize:7
OverallDifficulty:8
ApproachRate:5
SliderMultiplier:1.4
SliderTickRate:1

[Events]
//Background and Video events
0,0,"swordartonline_1658363b.jpg",0,0
//Break Periods
//Storyboard Layer 0 (Background)
//Storyboard Layer 1 (Fail)
//Storyboard Layer 2 (Pass)
//Storyboard Layer 3 (Foreground)
//Storyboard Sound Samples

[TimingPoints]
1496,326.975476839237,4,2,0,10,1,0
129685,-125,4,2,0,10,0,0
138840,-111.111111111111,4,2,0,10,0,0
140148,-100,4,2,0,10,0,0

[HitObjects]
329,192,1496,128,0,2803:0:0:0:0:
36,192,1496,128,0,2476:0:0:0:0:
475,192,2476,128,0,2803:0:0:0:0:
182,192,2803,128,0,4111:0:0:0:0:
109,192,2803,128,0,3457:0:0:0:0:
329,192,3457,128,0,4111:0:0:0:0:
402,192,4111,128,0,5256:0:0:0:0:
36,192,4111,128,0,4929:0:0:0:0:
182,192,5092,128,0,5256:0:0:0:0:
329,192,5256,128,0,5419:0:0:0:0:
36,192,5419,128,0,6727:0:0:0:0:
256,192,5419,128,0,6727:0:0:0:0:
475,192,6727,128,0,7872:0:0:0:0:
182,192,6727,128,0,7872:0:0:0:0:
36,192,8035,128,0,8117:0:0:0:0:
256,192,8035,128,0,8117:0:0:0:0:
109,192,8117,128,0,8198:0:0:0:0:
329,192,8117,128,0,8198:0:0:0:0:
182,192,8198,128,0,8280:0:0:0:0:
402,192,8198,128,0,8280:0:0:0:0:
256,192,8280,128,0,8362:0:0:0:0:
475,192,8280,128,0,8362:0:0:0:0:
329,192,8362,128,0,8444:0:0:0:0:
109,192,8362,128,0,8444:0:0:0:0:
182,192,8444,128,0,8525:0:0:0:0:
402,192,8444,128,0,8525:0:0:0:0:
256,192,8525,128,0,8607:0:0:0:0:
36,192,8525,128,0,8607:0:0:0:0:
475,192,8607,128,0,8689:0:0:0:0:
109,192,8607,128,0,8689:0:0:0:0:
402,192,8689,128,0,8771:0:0:0:0:
329,192,8689,128,0,8771:0:0:0:0:
256,192,8771,128,0,8852:0:0:0:0:
182,192,8771,128,0,8852:0:0:0:0:
109,192,8852,128,0,8934:0:0:0:0:
36,192,8852,128,0,8934:0:0:0:0:
475,192,8934,128,0,9016:0:0:0:0:
402,192,8934,128,0,9016:0:0:0:0:
182,192,9016,1,0,0:0:0:0:
109,192,9016,1,0,0:0:0:0:
36,192,9016,1,0,0:0:0:0:
329,192,9098,1,0,0:0:0:0:
402,192,9098,1,0,0:0:0:0:
475,192,9098,1,0,0:0:0:0:
182,192,9179,1,0,0:0:0:0:
109,192,9179,1,0,0:0:0:0:
36,192,9179,1,0,0:0:0:0:
402,192,9261,1,0,0:0:0:0:
329,192,9261,1,0,0:0:0:0:
475,192,9261,1,0,0:0:0:0:
256,192,9343,1,0,0:0:0:0:
182,192,9343,1,0,0:0:0:0:
109,192,9343,1,0,0:0:0:0:
36,192,9343,1,0,0:0:0:0:
182,192,9506,1,0,0:0:0:0:
109,192,9506,1,0,0:0:0:0:
329,192,9506,1,0,0:0:0:0:
256,192,9670,1,0,0:0:0:0:
182,192,9670,1,0,0:0:0:0:
475,192,9670,1,0,0:0:0:0:
402,192,9670,1,0,0:0:0:0:
109,192,9833,1,0,0:0:0:0:
36,192,9833,1,0,0:0:0:0:
329,192,9915,1,0,0:0:0:0:
402,192,9915,1,0,0:0:0:0:
182,192,9997,1,0,0:0:0:0:
109,192,9997,1,0,0:0:0:0:
475,192,9997,1,0,0:0:0:0:
256,192,10160,1,0,0:0:0:0:
182,192,10160,1,0,0:0:0:0:
36,192,10160,1,0,0:0:0:0:
402,192,10324,1,0,0:0:0:0:
36,192,10324,1,0,0:0:0:0:
329,192,10324,1,0,0:0:0:0:
109,192,10324,1,0,0:0:0:0:
256,192,10487,1,0,0:0:0:0:
109,192,10487,1,0,0:0:0:0:
402,192,10487,1,0,0:0:0:0:
475,192,10487,1,0,0:0:0:0:
256,192,10814,1,0,0:0:0:0:
182,192,10814,1,0,0:0:0:0:
109,192,10814,1,0,0:0:0:0:
402,192,10978,1,0,0:0:0:0:
475,192,10978,1,0,0:0:0:0:
36,192,10978,1,0,0:0:0:0:
109,192,10978,1,0,0:0:0:0:
329,192,11141,1,0,0:0:0:0:
256,192,11141,1,0,0:0:0:0:
182,192,11223,1,0,0:0:0:0:
109,192,11223,1,0,0:0:0:0:
36,192,11223,1,0,0:0:0:0:
329,192,11305,1,0,0:0:0:0:
402,192,11305,1,0,0:0:0:0:
475,192,11305,1,0,0:0:0:0:
329,192,11468,1,0,0:0:0:0:
402,192,11468,1,0,0:0:0:0:
109,192,11468,1,0,0:0:0:0:
182,192,11632,1,0,0:0:0:0:
36,192,11632,1,0,0:0:0:0:
475,192,11632,1,0,0:0:0:0:
256,192,11632,1,0,0:0:0:0:
109,192,11959,1,0,0:0:0:0:
256,192,11959,1,0,0:0:0:0:
402,192,11959,1,0,0:0:0:0:
475,192,11959,1,0,0:0:0:0:
182,192,12122,1,0,0:0:0:0:
402,192,12122,1,0,0:0:0:0:
256,192,12286,1,0,0:0:0:0:
329,192,12286,1,0,0:0:0:0:
36,192,12286,1,0,0:0:0:0:
475,192,12286,1,0,0:0:0:0:
182,192,12449,1,0,0:0:0:0:
475,192,12449,1,0,0:0:0:0:
402,192,12531,1,0,0:0:0:0:
109,192,12531,1,0,0:0:0:0:
256,192,12613,1,0,0:0:0:0:
329,192,12613,1,0,0:0:0:0:
36,192,12613,1,0,0:0:0:0:
256,192,12776,1,0,0:0:0:0:
182,192,12776,1,0,0:0:0:0:
329,192,12940,1,0,0:0:0:0:
402,192,12940,1,0,0:0:0:0:
36,192,12940,1,0,0:0:0:0:
109,192,12940,1,0,0:0:0:0:
109,192,13103,1,0,0:0:0:0:
256,192,13103,1,0,0:0:0:0:
475,192,13103,1,0,0:0:0:0:
402,192,13103,1,0,0:0:0:0:
182,192,13430,1,0,0:0:0:0:
36,192,13430,1,0,0:0:0:0:
256,192,13594,1,0,0:0:0:0:
475,192,13594,1,0,0:0:0:0:
109,192,13594,1,0,0:0:0:0:
402,192,13757,1,0,0:0:0:0:
256,192,13839,1,0,0:0:0:0:
182,192,13921,1,0,0:0:0:0:
109,192,13921,1,0,0:0:0:0:
402,192,14002,1,0,0:0:0:0:
329,192,14084,1,0,0:0:0:0:
36,192,14084,1,0,0:0:0:0:
109,192,14166,1,0,0:0:0:0:
182,192,14248,1,0,0:0:0:0:
475,192,14248,1,0,0:0:0:0:
402,192,14329,1,0,0:0:0:0:
329,192,14411,1,0,0:0:0:0:
36,192,14411,1,0,0:0:0:0:
256,192,14493,1,0,0:0:0:0:
182,192,14575,1,0,0:0:0:0:
109,192,14575,1,0,0:0:0:0:
36,192,14575,1,0,0:0:0:0:
402,192,14575,1,0,0:0:0:0:
475,192,14575,1,0,0:0:0:0:
329,192,14738,1,0,0:0:0:0:
182,192,14901,1,0,0:0:0:0:
109,192,14901,1,0,0:0:0:0:
329,192,15065,1,0,0:0:0:0:
182,192,15228,1,0,0:0:0:0:
109,192,15228,1,0,0:0:0:0:
329,192,15392,1,0,0:0:0:0:
182,192,15555,1,0,0:0:0:0:
109,192,15555,1,0,0:0:0:0:
329,192,15719,128,0,16046:0:0:0:0:
109,192,15882,1,0,0:0:0:0:
36,192,15882,1,0,0:0:0:0:
182,192,16046,128,0,16373:0:0:0:0:
402,192,16209,1,0,0:0:0:0:
475,192,16209,1,0,0:0:0:0:
36,192,16373,128,0,16700:0:0:0:0:
329,192,16536,1,0,0:0:0:0:
402,192,16536,1,0,0:0:0:0:
256,192,16700,128,0,16863:0:0:0:0:
109,192,16863,1,0,0:0:0:0:
402,192,16863,1,0,0:0:0:0:
256,192,17027,1,0,0:0:0:0:
329,192,17190,1,0,0:0:0:0:
402,192,17190,1,0,0:0:0:0:
182,192,17354,1,0,0:0:0:0:
402,192,17517,1,0,0:0:0:0:
329,192,17517,1,0,0:0:0:0:
182,192,17681,1,0,0:0:0:0:
329,192,17844,1,0,0:0:0:0:
402,192,17844,1,0,0:0:0:0:
182,192,18008,1,0,0:0:0:0:
329,192,18171,1,0,0:0:0:0:
402,192,18171,1,0,0:0:0:0:
182,192,18335,128,0,18662:0:0:0:0:
475,192,18498,1,0,0:0:0:0:
36,192,18498,1,0,0:0:0:0:
329,192,18662,128,0,18989:0:0:0:0:
182,192,18825,1,0,0:0:0:0:
36,192,18825,1,0,0:0:0:0:
109,192,18989,128,0,19316:0:0:0:0:
256,192,19152,1,0,0:0:0:0:
475,192,19152,1,0,0:0:0:0:
402,192,19316,128,0,19479:0:0:0:0:
182,192,19479,1,0,0:0:0:0:
36,192,19479,1,0,0:0:0:0:
256,192,19643,1,0,0:0:0:0:
475,192,19806,1,0,0:0:0:0:
109,192,19806,1,0,0:0:0:0:
329,192,19970,1,0,0:0:0:0:
402,192,20133,1,0,0:0:0:0:
36,192,20133,1,0,0:0:0:0:
109,192,20297,1,0,0:0:0:0:
182,192,20460,1,0,0:0:0:0:
475,192,20460,1,0,0:0:0:0:
402,192,20624,1,0,0:0:0:0:
329,192,20787,1,0,0:0:0:0:
36,192,20787,1,0,0:0:0:0:
182,192,20951,1,0,0:0:0:0:
109,192,21114,1,0,0:0:0:0:
402,192,21114,1,0,0:0:0:0:
329,192,21278,1,0,0:0:0:0:
182,192,21441,1,0,0:0:0:0:
475,192,21441,1,0,0:0:0:0:
109,192,21604,1,0,0:0:0:0:
402,192,21768,1,0,0:0:0:0:
36,192,21768,1,0,0:0:0:0:
256,192,21931,1,0,0:0:0:0:
329,192,22095,1,0,0:0:0:0:
109,192,22095,1,0,0:0:0:0:
182,192,22258,1,0,0:0:0:0:
256,192,22422,1,0,0:0:0:0:
402,192,22422,1,0,0:0:0:0:
182,192,22585,1,0,0:0:0:0:
109,192,22749,1,0,0:0:0:0:
475,192,22749,1,0,0:0:0:0:
402,192,22912,1,0,0:0:0:0:
329,192,23076,1,0,0:0:0:0:
36,192,23076,1,0,0:0:0:0:
109,192,23239,1,0,0:0:0:0:
182,192,23403,1,0,0:0:0:0:
329,192,23403,1,0,0:0:0:0:
256,192,23566,1,0,0:0:0:0:
329,192,23730,1,0,0:0:0:0:
36,192,23730,1,0,0:0:0:0:
182,192,23893,1,0,0:0:0:0:
109,192,24057,1,0,0:0:0:0:
402,192,24057,1,0,0:0:0:0:
475,192,24057,1,0,0:0:0:0:
182,192,24220,1,0,0:0:0:0:
329,192,24302,1,0,0:0:0:0:
475,192,24302,1,0,0:0:0:0:
36,192,24384,1,0,0:0:0:0:
109,192,24384,1,0,0:0:0:0:
182,192,24466,1,0,0:0:0:0:
256,192,24466,1,0,0:0:0:0:
402,192,24547,1,0,0:0:0:0:
475,192,24547,1,0,0:0:0:0:
329,192,24629,1,0,0:0:0:0:
109,192,24629,1,0,0:0:0:0:
256,192,24711,1,0,0:0:0:0:
36,192,24711,1,0,0:0:0:0:
475,192,24711,1,0,0:0:0:0:
402,192,24793,1,0,0:0:0:0:
329,192,24793,1,0,0:0:0:0:
256,192,24874,1,0,0:0:0:0:
109,192,24874,1,0,0:0:0:0:
182,192,24956,1,0,0:0:0:0:
329,192,24956,1,0,0:0:0:0:
256,192,25038,1,0,0:0:0:0:
402,192,25038,1,0,0:0:0:0:
36,192,25038,1,0,0:0:0:0:
182,192,25201,1,0,0:0:0:0:
329,192,25201,1,0,0:0:0:0:
109,192,25365,1,0,0:0:0:0:
475,192,25365,1,0,0:0:0:0:
402,192,25365,1,0,0:0:0:0:
256,192,25528,1,0,0:0:0:0:
329,192,25692,1,0,0:0:0:0:
36,192,25692,1,0,0:0:0:0:
109,192,25855,1,0,0:0:0:0:
329,192,25855,1,0,0:0:0:0:
256,192,26019,1,0,0:0:0:0:
182,192,26019,1,0,0:0:0:0:
402,192,26019,1,0,0:0:0:0:
182,192,26182,1,0,0:0:0:0:
36,192,26346,1,0,0:0:0:0:
256,192,26346,1,0,0:0:0:0:
109,192,26509,1,0,0:0:0:0:
402,192,26673,1,0,0:0:0:0:
475,192,26673,1,0,0:0:0:0:
182,192,26673,1,0,0:0:0:0:
329,192,26836,1,0,0:0:0:0:
329,192,27000,1,0,0:0:0:0:
109,192,27000,1,0,0:0:0:0:
329,192,27163,1,0,0:0:0:0:
256,192,27327,1,0,0:0:0:0:
109,192,27327,1,0,0:0:0:0:
36,192,27327,1,0,0:0:0:0:
182,192,27490,1,0,0:0:0:0:
256,192,27654,1,0,0:0:0:0:
402,192,27654,1,0,0:0:0:0:
329,192,27817,1,0,0:0:0:0:
182,192,27817,1,0,0:0:0:0:
256,192,27981,1,0,0:0:0:0:
36,192,27981,1,0,0:0:0:0:
402,192,27981,1,0,0:0:0:0:
109,192,28144,1,0,0:0:0:0:
182,192,28307,1,0,0:0:0:0:
475,192,28307,1,0,0:0:0:0:
256,192,28471,1,0,0:0:0:0:
329,192,28634,1,0,0:0:0:0:
402,192,28634,1,0,0:0:0:0:
36,192,28634,1,0,0:0:0:0:
182,192,28798,1,0,0:0:0:0:
109,192,28961,1,0,0:0:0:0:
475,192,28961,1,0,0:0:0:0:
402,192,29125,1,0,0:0:0:0:
256,192,29125,1,0,0:0:0:0:
329,192,29288,1,0,0:0:0:0:
109,192,29288,1,0,0:0:0:0:
36,192,29288,1,0,0:0:0:0:
256,192,29452,1,0,0:0:0:0:
182,192,29615,1,0,0:0:0:0:
402,192,29615,1,0,0:0:0:0:
329,192,29779,1,0,0:0:0:0:
256,192,29942,1,0,0:0:0:0:
36,192,29942,1,0,0:0:0:0:
475,192,29942,1,0,0:0:0:0:
109,192,30106,1,0,0:0:0:0:
402,192,30269,1,0,0:0:0:0:
182,192,30269,1,0,0:0:0:0:
329,192,30433,1,0,0:0:0:0:
109,192,30433,1,0,0:0:0:0:
256,192,30596,1,0,0:0:0:0:
36,192,30596,1,0,0:0:0:0:
402,192,30596,1,0,0:0:0:0:
182,192,30760,1,0,0:0:0:0:
329,192,30923,1,0,0:0:0:0:
36,192,30923,1,0,0:0:0:0:
109,192,31087,1,0,0:0:0:0:
182,192,31250,1,0,0:0:0:0:
402,192,31250,1,0,0:0:0:0:
475,192,31250,1,0,0:0:0:0:
329,192,31414,1,0,0:0:0:0:
256,192,31577,1,0,0:0:0:0:
36,192,31577,1,0,0:0:0:0:
182,192,31741,1,0,0:0:0:0:
475,192,31741,1,0,0:0:0:0:
109,192,31904,1,0,0:0:0:0:
402,192,31904,1,0,0:0:0:0:
329,192,31904,1,0,0:0:0:0:
256,192,32068,1,0,0:0:0:0:
329,192,32231,1,0,0:0:0:0:
36,192,32231,1,0,0:0:0:0:
109,192,32395,1,0,0:0:0:0:
182,192,32558,1,0,0:0:0:0:
402,192,32558,1,0,0:0:0:0:
475,192,32558,1,0,0:0:0:0:
256,192,32722,1,0,0:0:0:0:
329,192,32885,1,0,0:0:0:0:
109,192,32885,1,0,0:0:0:0:
182,192,33049,1,0,0:0:0:0:
475,192,33049,1,0,0:0:0:0:
256,192,33212,1,0,0:0:0:0:
402,192,33212,1,0,0:0:0:0:
36,192,33212,1,0,0:0:0:0:
182,192,33376,1,0,0:0:0:0:
329,192,33376,1,0,0:0:0:0:
109,192,33539,1,0,0:0:0:0:
36,192,33539,1,0,0:0:0:0:
329,192,33703,1,0,0:0:0:0:
182,192,33703,1,0,0:0:0:0:
402,192,33866,1,0,0:0:0:0:
109,192,33866,1,0,0:0:0:0:
475,192,33866,1,0,0:0:0:0:
182,192,34030,1,0,0:0:0:0:
256,192,34193,1,0,0:0:0:0:
475,192,34193,1,0,0:0:0:0:
402,192,34357,1,0,0:0:0:0:
182,192,34357,1,0,0:0:0:0:
329,192,34520,1,0,0:0:0:0:
256,192,34520,1,0,0:0:0:0:
36,192,34520,1,0,0:0:0:0:
109,192,34684,1,0,0:0:0:0:
402,192,34765,1,0,0:0:0:0:
182,192,34847,1,0,0:0:0:0:
475,192,34847,1,0,0:0:0:0:
402,192,34929,1,0,0:0:0:0:
329,192,35010,1,0,0:0:0:0:
109,192,35010,1,0,0:0:0:0:
256,192,35092,1,0,0:0:0:0:
182,192,35174,1,0,0:0:0:0:
36,192,35174,1,0,0:0:0:0:
329,192,35256,1,0,0:0:0:0:
402,192,35337,1,0,0:0:0:0:
109,192,35337,1,0,0:0:0:0:
256,192,35501,5,0,0:0:0:0:
36,192,35501,1,0,0:0:0:0:
475,192,35501,1,0,0:0:0:0:
182,192,35501,1,0,0:0:0:0:
329,192,35501,1,0,0:0:0:0:
329,192,35664,1,0,0:0:0:0:
475,192,35664,1,0,0:0:0:0:
182,192,35664,1,0,0:0:0:0:
36,192,35664,1,0,0:0:0:0:
182,192,35828,1,0,0:0:0:0:
329,192,35828,1,0,0:0:0:0:
36,192,35828,1,0,0:0:0:0:
475,192,35828,1,0,0:0:0:0:
182,192,36155,1,0,0:0:0:0:
36,192,36155,1,0,0:0:0:0:
329,192,36155,1,0,0:0:0:0:
475,192,36155,1,0,0:0:0:0:
182,192,36318,1,0,0:0:0:0:
109,192,36318,1,0,0:0:0:0:
329,192,36400,1,0,0:0:0:0:
256,192,36482,1,0,0:0:0:0:
182,192,36482,1,0,0:0:0:0:
402,192,36564,1,0,0:0:0:0:
329,192,36645,1,0,0:0:0:0:
109,192,36645,1,0,0:0:0:0:
36,192,36645,1,0,0:0:0:0:
182,192,36645,1,0,0:0:0:0:
256,192,36809,1,0,0:0:0:0:
182,192,36972,1,0,0:0:0:0:
109,192,36972,1,0,0:0:0:0:
402,192,36972,1,0,0:0:0:0:
329,192,36972,1,0,0:0:0:0:
256,192,37136,1,0,0:0:0:0:
36,192,37136,1,0,0:0:0:0:
475,192,37136,1,0,0:0:0:0:
329,192,37299,1,0,0:0:0:0:
182,192,37299,1,0,0:0:0:0:
402,192,37381,1,0,0:0:0:0:
475,192,37381,1,0,0:0:0:0:
256,192,37463,1,0,0:0:0:0:
109,192,37463,1,0,0:0:0:0:
329,192,37626,1,0,0:0:0:0:
109,192,37626,1,0,0:0:0:0:
36,192,37626,1,0,0:0:0:0:
402,192,37626,1,0,0:0:0:0:
256,192,37790,1,0,0:0:0:0:
109,192,37790,1,0,0:0:0:0:
402,192,37790,1,0,0:0:0:0:
475,192,37790,1,0,0:0:0:0:
182,192,37953,1,0,0:0:0:0:
36,192,37953,1,0,0:0:0:0:
109,192,38117,1,0,0:0:0:0:
256,192,38117,1,0,0:0:0:0:
329,192,38117,1,0,0:0:0:0:
402,192,38117,1,0,0:0:0:0:
475,192,38117,1,0,0:0:0:0:
109,192,38280,1,0,0:0:0:0:
256,192,38280,1,0,0:0:0:0:
402,192,38280,1,0,0:0:0:0:
475,192,38280,1,0,0:0:0:0:
256,192,38444,1,0,0:0:0:0:
109,192,38444,1,0,0:0:0:0:
402,192,38444,1,0,0:0:0:0:
475,192,38444,1,0,0:0:0:0:
109,192,38771,1,0,0:0:0:0:
256,192,38771,1,0,0:0:0:0:
402,192,38771,1,0,0:0:0:0:
475,192,38771,1,0,0:0:0:0:
182,192,38934,1,0,0:0:0:0:
329,192,38934,1,0,0:0:0:0:
402,192,38934,1,0,0:0:0:0:
109,192,39098,1,0,0:0:0:0:
256,192,39098,1,0,0:0:0:0:
256,192,39261,1,0,0:0:0:0:
36,192,39261,1,0,0:0:0:0:
475,192,39261,1,0,0:0:0:0:
329,192,39261,1,0,0:0:0:0:
109,192,39588,1,0,0:0:0:0:
329,192,39588,1,0,0:0:0:0:
182,192,39752,1,0,0:0:0:0:
402,192,39752,1,0,0:0:0:0:
475,192,39752,1,0,0:0:0:0:
256,192,39915,1,0,0:0:0:0:
329,192,39915,1,0,0:0:0:0:
36,192,39997,1,0,0:0:0:0:
329,192,40079,1,0,0:0:0:0:
402,192,40079,1,0,0:0:0:0:
109,192,40160,1,0,0:0:0:0:
182,192,40242,1,0,0:0:0:0:
475,192,40242,1,0,0:0:0:0:
402,192,40324,1,0,0:0:0:0:
256,192,40406,1,0,0:0:0:0:
36,192,40406,1,0,0:0:0:0:
109,192,40487,1,0,0:0:0:0:
182,192,40569,1,0,0:0:0:0:
329,192,40569,1,0,0:0:0:0:
402,192,40733,128,0,41223:0:0:0:0:
256,192,40733,1,0,0:0:0:0:
36,192,40733,1,0,0:0:0:0:
475,192,40733,1,0,0:0:0:0:
109,192,40896,1,0,0:0:0:0:
182,192,41060,1,0,0:0:0:0:
36,192,41060,1,0,0:0:0:0:
256,192,41060,1,0,0:0:0:0:
182,192,41223,1,0,0:0:0:0:
329,192,41223,1,0,0:0:0:0:
475,192,41223,1,0,0:0:0:0:
109,192,41305,1,0,0:0:0:0:
475,192,41387,128,0,41877:0:0:0:0:
182,192,41387,1,0,0:0:0:0:
36,192,41387,1,0,0:0:0:0:
329,192,41550,1,0,0:0:0:0:
182,192,41713,1,0,0:0:0:0:
36,192,41713,1,0,0:0:0:0:
256,192,41713,1,0,0:0:0:0:
402,192,41877,1,0,0:0:0:0:
329,192,41877,1,0,0:0:0:0:
329,192,42040,128,0,42531:0:0:0:0:
36,192,42040,1,0,0:0:0:0:
182,192,42040,1,0,0:0:0:0:
256,192,42204,1,0,0:0:0:0:
182,192,42367,1,0,0:0:0:0:
36,192,42367,1,0,0:0:0:0:
109,192,42367,1,0,0:0:0:0:
402,192,42531,1,0,0:0:0:0:
36,192,42531,1,0,0:0:0:0:
475,192,42531,1,0,0:0:0:0:
182,192,42613,1,0,0:0:0:0:
36,192,42694,1,0,0:0:0:0:
109,192,42694,1,0,0:0:0:0:
402,192,42694,128,0,43185:0:0:0:0:
256,192,42858,1,0,0:0:0:0:
182,192,43021,1,0,0:0:0:0:
36,192,43021,1,0,0:0:0:0:
109,192,43021,1,0,0:0:0:0:
256,192,43185,1,0,0:0:0:0:
36,192,43348,1,0,0:0:0:0:
109,192,43348,128,0,43839:0:0:0:0:
329,192,43348,1,0,0:0:0:0:
402,192,43348,1,0,0:0:0:0:
182,192,43512,1,0,0:0:0:0:
402,192,43675,1,0,0:0:0:0:
475,192,43675,1,0,0:0:0:0:
256,192,43675,1,0,0:0:0:0:
475,192,43839,1,0,0:0:0:0:
256,192,43921,1,0,0:0:0:0:
109,192,44002,128,0,44493:0:0:0:0:
475,192,44002,1,0,0:0:0:0:
329,192,44002,1,0,0:0:0:0:
182,192,44166,1,0,0:0:0:0:
475,192,44329,1,0,0:0:0:0:
329,192,44329,1,0,0:0:0:0:
402,192,44329,1,0,0:0:0:0:
182,192,44493,1,0,0:0:0:0:
109,192,44656,128,0,44983:0:0:0:0:
475,192,44656,1,0,0:0:0:0:
402,192,44656,1,0,0:0:0:0:
256,192,44820,1,0,0:0:0:0:
402,192,44983,1,0,0:0:0:0:
475,192,44983,1,0,0:0:0:0:
329,192,44983,1,0,0:0:0:0:
109,192,45147,128,0,45474:0:0:0:0:
329,192,45147,1,0,0:0:0:0:
475,192,45228,1,0,0:0:0:0:
402,192,45228,1,0,0:0:0:0:
329,192,45310,1,0,0:0:0:0:
256,192,45310,1,0,0:0:0:0:
182,192,45474,128,0,45637:0:0:0:0:
256,192,45637,128,0,45801:0:0:0:0:
402,192,45637,1,0,0:0:0:0:
475,192,45637,1,0,0:0:0:0:
36,192,45637,1,0,0:0:0:0:
329,192,45801,128,0,45964:0:0:0:0:
402,192,45964,128,0,46455:0:0:0:0:
36,192,45964,1,0,0:0:0:0:
109,192,45964,128,0,46455:0:0:0:0:
182,192,45964,1,0,0:0:0:0:
475,192,45964,1,0,0:0:0:0:
256,192,46128,1,0,0:0:0:0:
36,192,46291,1,0,0:0:0:0:
329,192,46291,1,0,0:0:0:0:
475,192,46291,1,0,0:0:0:0:
182,192,46455,1,0,0:0:0:0:
256,192,46536,1,0,0:0:0:0:
36,192,46618,128,0,47109:0:0:0:0:
182,192,46618,1,0,0:0:0:0:
109,192,46618,1,0,0:0:0:0:
329,192,46618,1,0,0:0:0:0:
402,192,46618,1,0,0:0:0:0:
475,192,46618,128,0,47109:0:0:0:0:
256,192,46782,1,0,0:0:0:0:
109,192,46945,1,0,0:0:0:0:
182,192,46945,1,0,0:0:0:0:
329,192,46945,1,0,0:0:0:0:
256,192,47109,1,0,0:0:0:0:
109,192,47272,128,0,48416:0:0:0:0:
402,192,47272,128,0,48416:0:0:0:0:
182,192,47272,1,0,0:0:0:0:
36,192,47272,1,0,0:0:0:0:
475,192,47272,1,0,0:0:0:0:
329,192,47272,1,0,0:0:0:0:
256,192,47436,1,0,0:0:0:0:
182,192,47436,1,0,0:0:0:0:
329,192,47517,1,0,0:0:0:0:
182,192,47599,1,0,0:0:0:0:
36,192,47599,1,0,0:0:0:0:
256,192,47681,1,0,0:0:0:0:
329,192,47763,1,0,0:0:0:0:
475,192,47763,1,0,0:0:0:0:
36,192,47844,1,0,0:0:0:0:
182,192,47926,1,0,0:0:0:0:
256,192,47926,1,0,0:0:0:0:
475,192,48008,1,0,0:0:0:0:
329,192,48090,1,0,0:0:0:0:
36,192,48090,1,0,0:0:0:0:
256,192,48171,1,0,0:0:0:0:
182,192,48253,1,0,0:0:0:0:
329,192,48253,1,0,0:0:0:0:
475,192,48253,1,0,0:0:0:0:
36,192,48253,1,0,0:0:0:0:
182,192,48416,1,0,0:0:0:0:
329,192,48416,1,0,0:0:0:0:
182,192,48580,1,0,0:0:0:0:
36,192,48580,1,0,0:0:0:0:
329,192,48580,1,0,0:0:0:0:
475,192,48580,1,0,0:0:0:0:
256,192,48580,1,0,0:0:0:0:
182,192,48907,1,0,0:0:0:0:
256,192,48907,1,0,0:0:0:0:
329,192,48907,1,0,0:0:0:0:
36,192,48907,1,0,0:0:0:0:
475,192,48907,1,0,0:0:0:0:
109,192,49234,1,0,0:0:0:0:
36,192,49234,1,0,0:0:0:0:
256,192,49234,1,0,0:0:0:0:
402,192,49234,1,0,0:0:0:0:
329,192,49234,1,0,0:0:0:0:
256,192,49397,1,0,0:0:0:0:
329,192,49397,1,0,0:0:0:0:
402,192,49397,1,0,0:0:0:0:
109,192,49397,1,0,0:0:0:0:
36,192,49397,1,0,0:0:0:0:
256,192,49724,1,0,0:0:0:0:
182,192,49724,1,0,0:0:0:0:
36,192,49724,1,0,0:0:0:0:
329,192,49724,1,0,0:0:0:0:
475,192,49724,1,0,0:0:0:0:
182,192,50051,1,0,0:0:0:0:
36,192,50051,1,0,0:0:0:0:
256,192,50051,1,0,0:0:0:0:
329,192,50051,1,0,0:0:0:0:
475,192,50051,1,0,0:0:0:0:
402,192,50378,128,0,50705:0:0:0:0:
109,192,50705,128,0,50869:0:0:0:0:
256,192,50869,128,0,51032:0:0:0:0:
329,192,51032,128,0,51196:0:0:0:0:
475,192,51196,1,0,0:0:0:0:
36,192,51196,1,0,0:0:0:0:
402,192,51196,1,0,0:0:0:0:
182,192,51196,1,0,0:0:0:0:
109,192,51278,1,0,0:0:0:0:
182,192,51359,1,0,0:0:0:0:
402,192,51359,1,0,0:0:0:0:
256,192,51441,1,0,0:0:0:0:
329,192,51523,1,0,0:0:0:0:
402,192,51523,1,0,0:0:0:0:
36,192,51523,1,0,0:0:0:0:
475,192,51523,1,0,0:0:0:0:
182,192,51604,1,0,0:0:0:0:
475,192,51686,1,0,0:0:0:0:
109,192,51686,1,0,0:0:0:0:
402,192,51768,1,0,0:0:0:0:
329,192,51850,1,0,0:0:0:0:
36,192,51850,1,0,0:0:0:0:
256,192,51850,1,0,0:0:0:0:
109,192,51931,1,0,0:0:0:0:
182,192,52013,1,0,0:0:0:0:
402,192,52013,1,0,0:0:0:0:
256,192,52095,1,0,0:0:0:0:
329,192,52177,1,0,0:0:0:0:
36,192,52177,1,0,0:0:0:0:
475,192,52177,1,0,0:0:0:0:
109,192,52177,1,0,0:0:0:0:
182,192,52258,1,0,0:0:0:0:
256,192,52340,1,0,0:0:0:0:
402,192,52340,1,0,0:0:0:0:
109,192,52422,1,0,0:0:0:0:
36,192,52504,1,0,0:0:0:0:
402,192,52504,1,0,0:0:0:0:
475,192,52504,1,0,0:0:0:0:
329,192,52585,1,0,0:0:0:0:
256,192,52667,1,0,0:0:0:0:
109,192,52667,1,0,0:0:0:0:
182,192,52749,1,0,0:0:0:0:
109,192,52831,1,0,0:0:0:0:
36,192,52831,1,0,0:0:0:0:
475,192,52831,1,0,0:0:0:0:
402,192,52831,1,0,0:0:0:0:
329,192,52912,1,0,0:0:0:0:
256,192,52994,1,0,0:0:0:0:
402,192,52994,1,0,0:0:0:0:
109,192,53076,1,0,0:0:0:0:
182,192,53158,1,0,0:0:0:0:
36,192,53158,1,0,0:0:0:0:
402,192,53158,1,0,0:0:0:0:
256,192,53239,1,0,0:0:0:0:
329,192,53321,1,0,0:0:0:0:
475,192,53321,1,0,0:0:0:0:
109,192,53403,1,0,0:0:0:0:
182,192,53485,1,0,0:0:0:0:
36,192,53485,1,0,0:0:0:0:
402,192,53485,1,0,0:0:0:0:
475,192,53485,1,0,0:0:0:0:
256,192,53566,1,0,0:0:0:0:
329,192,53648,1,0,0:0:0:0:
402,192,53648,1,0,0:0:0:0:
182,192,53730,1,0,0:0:0:0:
36,192,53812,1,0,0:0:0:0:
475,192,53812,1,0,0:0:0:0:
109,192,53812,1,0,0:0:0:0:
256,192,53893,1,0,0:0:0:0:
329,192,53975,1,0,0:0:0:0:
36,192,53975,1,0,0:0:0:0:
109,192,54057,1,0,0:0:0:0:
182,192,54139,1,0,0:0:0:0:
475,192,54139,1,0,0:0:0:0:
402,192,54139,1,0,0:0:0:0:
329,192,54139,1,0,0:0:0:0:
256,192,54220,1,0,0:0:0:0:
329,192,54302,1,0,0:0:0:0:
36,192,54302,1,0,0:0:0:0:
182,192,54384,1,0,0:0:0:0:
109,192,54466,1,0,0:0:0:0:
475,192,54466,1,0,0:0:0:0:
402,192,54466,1,0,0:0:0:0:
329,192,54547,1,0,0:0:0:0:
256,192,54629,1,0,0:0:0:0:
36,192,54629,1,0,0:0:0:0:
182,192,54711,1,0,0:0:0:0:
109,192,54793,1,0,0:0:0:0:
402,192,54793,1,0,0:0:0:0:
475,192,54793,1,0,0:0:0:0:
329,192,54793,1,0,0:0:0:0:
256,192,54874,1,0,0:0:0:0:
329,192,54956,1,0,0:0:0:0:
36,192,54956,1,0,0:0:0:0:
109,192,55038,1,0,0:0:0:0:
182,192,55119,1,0,0:0:0:0:
475,192,55119,1,0,0:0:0:0:
256,192,55119,1,0,0:0:0:0:
329,192,55201,1,0,0:0:0:0:
402,192,55283,1,0,0:0:0:0:
109,192,55283,1,0,0:0:0:0:
182,192,55365,1,0,0:0:0:0:
256,192,55446,1,0,0:0:0:0:
36,192,55446,1,0,0:0:0:0:
329,192,55446,1,0,0:0:0:0:
475,192,55446,1,0,0:0:0:0:
182,192,55528,1,0,0:0:0:0:
109,192,55610,1,0,0:0:0:0:
402,192,55610,1,0,0:0:0:0:
329,192,55692,1,0,0:0:0:0:
256,192,55773,1,0,0:0:0:0:
36,192,55773,1,0,0:0:0:0:
475,192,55773,1,0,0:0:0:0:
402,192,55855,1,0,0:0:0:0:
329,192,55937,1,0,0:0:0:0:
109,192,55937,1,0,0:0:0:0:
256,192,56019,1,0,0:0:0:0:
182,192,56100,1,0,0:0:0:0:
475,192,56100,1,0,0:0:0:0:
36,192,56100,1,0,0:0:0:0:
109,192,56100,1,0,0:0:0:0:
402,192,56182,1,0,0:0:0:0:
329,192,56264,1,0,0:0:0:0:
109,192,56264,1,0,0:0:0:0:
182,192,56346,1,0,0:0:0:0:
256,192,56427,1,0,0:0:0:0:
36,192,56427,1,0,0:0:0:0:
402,192,56427,1,0,0:0:0:0:
109,192,56509,1,0,0:0:0:0:
182,192,56591,1,0,0:0:0:0:
475,192,56591,1,0,0:0:0:0:
402,192,56673,1,0,0:0:0:0:
329,192,56754,1,0,0:0:0:0:
109,192,56754,1,0,0:0:0:0:
36,192,56754,1,0,0:0:0:0:
182,192,56754,1,0,0:0:0:0:
256,192,56836,1,0,0:0:0:0:
182,192,56918,1,0,0:0:0:0:
475,192,56918,1,0,0:0:0:0:
329,192,57000,1,0,0:0:0:0:
402,192,57081,1,0,0:0:0:0:
36,192,57081,1,0,0:0:0:0:
256,192,57081,1,0,0:0:0:0:
109,192,57163,1,0,0:0:0:0:
182,192,57245,1,0,0:0:0:0:
402,192,57245,1,0,0:0:0:0:
256,192,57327,1,0,0:0:0:0:
329,192,57408,1,0,0:0:0:0:
36,192,57408,1,0,0:0:0:0:
109,192,57408,1,0,0:0:0:0:
475,192,57408,1,0,0:0:0:0:
182,192,57490,1,0,0:0:0:0:
109,192,57572,1,0,0:0:0:0:
402,192,57572,1,0,0:0:0:0:
329,192,57654,1,0,0:0:0:0:
256,192,57735,1,0,0:0:0:0:
36,192,57735,1,0,0:0:0:0:
475,192,57735,1,0,0:0:0:0:
182,192,57817,1,0,0:0:0:0:
402,192,57899,1,0,0:0:0:0:
109,192,57899,1,0,0:0:0:0:
329,192,57981,1,0,0:0:0:0:
256,192,58062,1,0,0:0:0:0:
475,192,58062,1,0,0:0:0:0:
182,192,58062,1,0,0:0:0:0:
36,192,58062,1,0,0:0:0:0:
329,192,58144,1,0,0:0:0:0:
402,192,58226,1,0,0:0:0:0:
109,192,58226,1,0,0:0:0:0:
182,192,58307,1,0,0:0:0:0:
256,192,58389,1,0,0:0:0:0:
36,192,58389,1,0,0:0:0:0:
475,192,58389,1,0,0:0:0:0:
329,192,58471,1,0,0:0:0:0:
402,192,58553,1,0,0:0:0:0:
109,192,58553,1,0,0:0:0:0:
182,192,58634,1,0,0:0:0:0:
256,192,58716,1,0,0:0:0:0:
475,192,58716,1,0,0:0:0:0:
109,192,58716,1,0,0:0:0:0:
329,192,58716,1,0,0:0:0:0:
402,192,58798,1,0,0:0:0:0:
329,192,58880,1,0,0:0:0:0:
36,192,58880,1,0,0:0:0:0:
256,192,58961,1,0,0:0:0:0:
109,192,58961,1,0,0:0:0:0:
182,192,59043,1,0,0:0:0:0:
402,192,59043,1,0,0:0:0:0:
475,192,59043,1,0,0:0:0:0:
329,192,59125,1,0,0:0:0:0:
256,192,59207,1,0,0:0:0:0:
36,192,59207,1,0,0:0:0:0:
109,192,59288,1,0,0:0:0:0:
182,192,59370,1,0,0:0:0:0:
402,192,59370,1,0,0:0:0:0:
475,192,59370,1,0,0:0:0:0:
329,192,59370,1,0,0:0:0:0:
256,192,59452,1,0,0:0:0:0:
329,192,59534,1,0,0:0:0:0:
109,192,59534,1,0,0:0:0:0:
36,192,59534,1,0,0:0:0:0:
182,192,59615,1,0,0:0:0:0:
329,192,59697,1,0,0:0:0:0:
36,192,59697,1,0,0:0:0:0:
475,192,59697,1,0,0:0:0:0:
402,192,59697,1,0,0:0:0:0:
256,192,59779,1,0,0:0:0:0:
182,192,59861,1,0,0:0:0:0:
109,192,59861,1,0,0:0:0:0:
329,192,59942,1,0,0:0:0:0:
402,192,60024,1,0,0:0:0:0:
109,192,60024,1,0,0:0:0:0:
475,192,60024,1,0,0:0:0:0:
36,192,60024,1,0,0:0:0:0:
182,192,60106,1,0,0:0:0:0:
256,192,60188,1,0,0:0:0:0:
402,192,60188,1,0,0:0:0:0:
329,192,60269,1,0,0:0:0:0:
36,192,60351,1,0,0:0:0:0:
402,192,60351,1,0,0:0:0:0:
475,192,60351,1,0,0:0:0:0:
109,192,60351,1,0,0:0:0:0:
256,192,60433,1,0,0:0:0:0:
182,192,60515,1,0,0:0:0:0:
402,192,60515,1,0,0:0:0:0:
329,192,60596,1,0,0:0:0:0:
109,192,60596,1,0,0:0:0:0:
256,192,60678,1,0,0:0:0:0:
36,192,60678,1,0,0:0:0:0:
475,192,60678,1,0,0:0:0:0:
402,192,60760,1,0,0:0:0:0:
329,192,60842,1,0,0:0:0:0:
109,192,60842,1,0,0:0:0:0:
256,192,60842,1,0,0:0:0:0:
182,192,60923,1,0,0:0:0:0:
329,192,61005,1,0,0:0:0:0:
402,192,61005,1,0,0:0:0:0:
36,192,61005,1,0,0:0:0:0:
109,192,61087,1,0,0:0:0:0:
256,192,61087,1,0,0:0:0:0:
182,192,61169,1,0,0:0:0:0:
475,192,61169,1,0,0:0:0:0:
402,192,61250,1,0,0:0:0:0:
329,192,61250,1,0,0:0:0:0:
256,192,61332,1,0,0:0:0:0:
36,192,61332,1,0,0:0:0:0:
109,192,61332,1,0,0:0:0:0:
182,192,61414,1,0,0:0:0:0:
329,192,61414,1,0,0:0:0:0:
256,192,61495,1,0,0:0:0:0:
402,192,61495,1,0,0:0:0:0:
329,192,61577,1,0,0:0:0:0:
36,192,61577,1,0,0:0:0:0:
109,192,61659,1,0,0:0:0:0:
475,192,61659,1,0,0:0:0:0:
182,192,61659,1,0,0:0:0:0:
256,192,61659,1,0,0:0:0:0:
402,192,61741,1,0,0:0:0:0:
329,192,61822,1,0,0:0:0:0:
36,192,61822,1,0,0:0:0:0:
256,192,61904,1,0,0:0:0:0:
182,192,61986,1,0,0:0:0:0:
109,192,61986,1,0,0:0:0:0:
475,192,61986,1,0,0:0:0:0:
402,192,61986,1,0,0:0:0:0:
329,192,62068,1,0,0:0:0:0:
402,192,62149,1,0,0:0:0:0:
36,192,62149,1,0,0:0:0:0:
109,192,62231,1,0,0:0:0:0:
182,192,62313,1,0,0:0:0:0:
475,192,62313,1,0,0:0:0:0:
402,192,62313,1,0,0:0:0:0:
256,192,62395,1,0,0:0:0:0:
329,192,62476,1,0,0:0:0:0:
36,192,62476,1,0,0:0:0:0:
182,192,62558,1,0,0:0:0:0:
109,192,62640,1,0,0:0:0:0:
402,192,62640,1,0,0:0:0:0:
475,192,62640,1,0,0:0:0:0:
256,192,62640,1,0,0:0:0:0:
329,192,62722,1,0,0:0:0:0:
256,192,62803,1,0,0:0:0:0:
36,192,62803,1,0,0:0:0:0:
475,192,62885,1,0,0:0:0:0:
402,192,62967,1,0,0:0:0:0:
109,192,62967,1,0,0:0:0:0:
329,192,62967,1,0,0:0:0:0:
182,192,63049,1,0,0:0:0:0:
256,192,63130,1,0,0:0:0:0:
402,192,63130,1,0,0:0:0:0:
329,192,63212,1,0,0:0:0:0:
402,192,63294,1,0,0:0:0:0:
109,192,63294,1,0,0:0:0:0:
36,192,63294,1,0,0:0:0:0:
475,192,63294,1,0,0:0:0:0:
182,192,63376,1,0,0:0:0:0:
256,192,63457,1,0,0:0:0:0:
402,192,63457,1,0,0:0:0:0:
329,192,63539,1,0,0:0:0:0:
256,192,63621,1,0,0:0:0:0:
36,192,63621,1,0,0:0:0:0:
109,192,63621,1,0,0:0:0:0:
182,192,63703,1,0,0:0:0:0:
109,192,63784,1,0,0:0:0:0:
402,192,63784,1,0,0:0:0:0:
329,192,63866,1,0,0:0:0:0:
256,192,63948,1,0,0:0:0:0:
475,192,63948,1,0,0:0:0:0:
36,192,63948,1,0,0:0:0:0:
402,192,63948,1,0,0:0:0:0:
109,192,64030,1,0,0:0:0:0:
182,192,64111,1,0,0:0:0:0:
402,192,64111,1,0,0:0:0:0:
256,192,64193,1,0,0:0:0:0:
329,192,64275,1,0,0:0:0:0:
475,192,64275,1,0,0:0:0:0:
36,192,64275,1,0,0:0:0:0:
182,192,64357,1,0,0:0:0:0:
109,192,64438,1,0,0:0:0:0:
402,192,64438,1,0,0:0:0:0:
329,192,64520,1,0,0:0:0:0:
256,192,64602,1,0,0:0:0:0:
36,192,64602,1,0,0:0:0:0:
475,192,64602,1,0,0:0:0:0:
182,192,64602,1,0,0:0:0:0:
402,192,64684,1,0,0:0:0:0:
329,192,64765,1,0,0:0:0:0:
109,192,64765,1,0,0:0:0:0:
182,192,64847,1,0,0:0:0:0:
256,192,64929,1,0,0:0:0:0:
402,192,64929,1,0,0:0:0:0:
36,192,64929,1,0,0:0:0:0:
109,192,65010,1,0,0:0:0:0:
182,192,65092,1,0,0:0:0:0:
402,192,65092,1,0,0:0:0:0:
475,192,65092,1,0,0:0:0:0:
256,192,65174,1,0,0:0:0:0:
329,192,65256,1,0,0:0:0:0:
36,192,65256,1,0,0:0:0:0:
402,192,65256,1,0,0:0:0:0:
109,192,65256,1,0,0:0:0:0:
182,192,65337,1,0,0:0:0:0:
109,192,65419,1,0,0:0:0:0:
475,192,65419,1,0,0:0:0:0:
402,192,65501,1,0,0:0:0:0:
329,192,65583,1,0,0:0:0:0:
36,192,65583,1,0,0:0:0:0:
182,192,65583,1,0,0:0:0:0:
256,192,65664,1,0,0:0:0:0:
329,192,65746,1,0,0:0:0:0:
109,192,65746,1,0,0:0:0:0:
182,192,65828,1,0,0:0:0:0:
256,192,65910,1,0,0:0:0:0:
36,192,65910,1,0,0:0:0:0:
475,192,65910,1,0,0:0:0:0:
402,192,65910,1,0,0:0:0:0:
109,192,65991,1,0,0:0:0:0:
182,192,66073,1,0,0:0:0:0:
402,192,66073,1,0,0:0:0:0:
256,192,66155,1,0,0:0:0:0:
329,192,66237,1,0,0:0:0:0:
402,192,66237,1,0,0:0:0:0:
109,192,66237,1,0,0:0:0:0:
182,192,66318,1,0,0:0:0:0:
256,192,66318,1,0,0:0:0:0:
109,192,66400,1,0,0:0:0:0:
475,192,66400,1,0,0:0:0:0:
402,192,66482,1,0,0:0:0:0:
329,192,66564,1,0,0:0:0:0:
36,192,66564,1,0,0:0:0:0:
256,192,66564,1,0,0:0:0:0:
475,192,66564,1,0,0:0:0:0:
182,192,66645,1,0,0:0:0:0:
109,192,66727,1,0,0:0:0:0:
402,192,66727,1,0,0:0:0:0:
329,192,66809,1,0,0:0:0:0:
256,192,66891,1,0,0:0:0:0:
109,192,66891,1,0,0:0:0:0:
36,192,66891,1,0,0:0:0:0:
329,192,66972,1,0,0:0:0:0:
402,192,67054,1,0,0:0:0:0:
109,192,67054,1,0,0:0:0:0:
182,192,67136,1,0,0:0:0:0:
256,192,67218,1,0,0:0:0:0:
36,192,67218,1,0,0:0:0:0:
475,192,67218,1,0,0:0:0:0:
402,192,67218,1,0,0:0:0:0:
109,192,67299,1,0,0:0:0:0:
182,192,67381,1,0,0:0:0:0:
402,192,67381,1,0,0:0:0:0:
329,192,67463,1,0,0:0:0:0:
256,192,67545,1,0,0:0:0:0:
109,192,67545,1,0,0:0:0:0:
475,192,67545,1,0,0:0:0:0:
402,192,67626,1,0,0:0:0:0:
329,192,67708,1,0,0:0:0:0:
36,192,67708,1,0,0:0:0:0:
256,192,67790,1,0,0:0:0:0:
182,192,67872,1,0,0:0:0:0:
109,192,67872,1,0,0:0:0:0:
475,192,67872,1,0,0:0:0:0:
402,192,67872,1,0,0:0:0:0:
329,192,67953,1,0,0:0:0:0:
402,192,68035,1,0,0:0:0:0:
36,192,68035,1,0,0:0:0:0:
182,192,68117,5,0,0:0:0:0:
256,192,68198,1,0,0:0:0:0:
475,192,68198,1,0,0:0:0:0:
402,192,68198,1,0,0:0:0:0:
109,192,68280,1,0,0:0:0:0:
182,192,68362,1,0,0:0:0:0:
402,192,68362,1,0,0:0:0:0:
329,192,68444,1,0,0:0:0:0:
256,192,68525,1,0,0:0:0:0:
36,192,68525,1,0,0:0:0:0:
475,192,68525,1,0,0:0:0:0:
109,192,68525,1,0,0:0:0:0:
182,192,68607,1,0,0:0:0:0:
109,192,68689,1,0,0:0:0:0:
402,192,68689,1,0,0:0:0:0:
329,192,68771,1,0,0:0:0:0:
256,192,68852,5,0,0:0:0:0:
36,192,68852,1,0,0:0:0:0:
475,192,68852,1,0,0:0:0:0:
109,192,68934,1,0,0:0:0:0:
329,192,68934,1,0,0:0:0:0:
182,192,69016,1,0,0:0:0:0:
475,192,69016,1,0,0:0:0:0:
402,192,69016,1,0,0:0:0:0:
329,192,69098,1,0,0:0:0:0:
256,192,69098,1,0,0:0:0:0:
182,192,69179,1,0,0:0:0:0:
36,192,69179,1,0,0:0:0:0:
109,192,69179,1,0,0:0:0:0:
402,192,69261,1,0,0:0:0:0:
329,192,69343,1,0,0:0:0:0:
109,192,69343,1,0,0:0:0:0:
182,192,69425,1,0,0:0:0:0:
256,192,69506,5,0,0:0:0:0:
36,192,69506,1,0,0:0:0:0:
402,192,69506,1,0,0:0:0:0:
475,192,69506,1,0,0:0:0:0:
182,192,69670,1,0,0:0:0:0:
36,192,69833,1,0,0:0:0:0:
256,192,69833,1,0,0:0:0:0:
402,192,69833,1,0,0:0:0:0:
475,192,69833,1,0,0:0:0:0:
182,192,69997,1,0,0:0:0:0:
256,192,70160,1,0,0:0:0:0:
36,192,70160,1,0,0:0:0:0:
402,192,70160,1,0,0:0:0:0:
475,192,70160,1,0,0:0:0:0:
329,192,70324,1,0,0:0:0:0:
256,192,70487,1,0,0:0:0:0:
109,192,70487,1,0,0:0:0:0:
36,192,70487,1,0,0:0:0:0:
475,192,70487,1,0,0:0:0:0:
329,192,70651,1,0,0:0:0:0:
36,192,70814,1,0,0:0:0:0:
109,192,70814,1,0,0:0:0:0:
475,192,70814,1,0,0:0:0:0:
182,192,70814,1,0,0:0:0:0:
256,192,70978,1,0,0:0:0:0:
182,192,71141,1,0,0:0:0:0:
109,192,71141,1,0,0:0:0:0:
36,192,71141,1,0,0:0:0:0:
475,192,71141,1,0,0:0:0:0:
256,192,71305,1,0,0:0:0:0:
36,192,71468,1,0,0:0:0:0:
475,192,71468,1,0,0:0:0:0:
329,192,71468,1,0,0:0:0:0:
402,192,71468,1,0,0:0:0:0:
256,192,71632,1,0,0:0:0:0:
36,192,71795,1,0,0:0:0:0:
329,192,71795,1,0,0:0:0:0:
475,192,71795,1,0,0:0:0:0:
402,192,71795,1,0,0:0:0:0:
256,192,71959,1,0,0:0:0:0:
182,192,72122,1,0,0:0:0:0:
109,192,72122,1,0,0:0:0:0:
329,192,72122,1,0,0:0:0:0:
402,192,72122,1,0,0:0:0:0:
182,192,72286,1,0,0:0:0:0:
475,192,72286,1,0,0:0:0:0:
329,192,72286,1,0,0:0:0:0:
182,192,72449,1,0,0:0:0:0:
329,192,72449,1,0,0:0:0:0:
475,192,72449,1,0,0:0:0:0:
256,192,72613,1,0,0:0:0:0:
36,192,72613,1,0,0:0:0:0:
182,192,72776,1,0,0:0:0:0:
109,192,72776,1,0,0:0:0:0:
402,192,72858,1,0,0:0:0:0:
329,192,72858,1,0,0:0:0:0:
182,192,72940,1,0,0:0:0:0:
256,192,72940,1,0,0:0:0:0:
402,192,73021,1,0,0:0:0:0:
475,192,73021,1,0,0:0:0:0:
109,192,73103,1,0,0:0:0:0:
36,192,73103,1,0,0:0:0:0:
329,192,73185,1,0,0:0:0:0:
402,192,73185,1,0,0:0:0:0:
256,192,73267,1,0,0:0:0:0:
182,192,73267,1,0,0:0:0:0:
109,192,73348,1,0,0:0:0:0:
36,192,73348,1,0,0:0:0:0:
402,192,73430,1,0,0:0:0:0:
475,192,73430,1,0,0:0:0:0:
329,192,73430,1,0,0:0:0:0:
256,192,73430,1,0,0:0:0:0:
109,192,73594,128,0,73921:0:0:0:0:
402,192,73921,128,0,74084:0:0:0:0:
182,192,74084,128,0,74411:0:0:0:0:
109,192,74411,128,0,74738:0:0:0:0:
182,192,74738,1,0,0:0:0:0:
36,192,74738,1,0,0:0:0:0:
402,192,74738,1,0,0:0:0:0:
475,192,74738,1,0,0:0:0:0:
182,192,74901,1,0,0:0:0:0:
402,192,74901,1,0,0:0:0:0:
329,192,75065,1,0,0:0:0:0:
36,192,75065,1,0,0:0:0:0:
475,192,75065,1,0,0:0:0:0:
256,192,75065,1,0,0:0:0:0:
109,192,75228,1,0,0:0:0:0:
182,192,75228,1,0,0:0:0:0:
329,192,75310,1,0,0:0:0:0:
402,192,75310,1,0,0:0:0:0:
109,192,75392,1,0,0:0:0:0:
36,192,75392,1,0,0:0:0:0:
256,192,75392,1,0,0:0:0:0:
256,192,75555,1,0,0:0:0:0:
109,192,75555,1,0,0:0:0:0:
329,192,75719,1,0,0:0:0:0:
475,192,75719,1,0,0:0:0:0:
182,192,75719,1,0,0:0:0:0:
402,192,75719,1,0,0:0:0:0:
329,192,75882,1,0,0:0:0:0:
109,192,75882,1,0,0:0:0:0:
36,192,75882,1,0,0:0:0:0:
256,192,76046,1,0,0:0:0:0:
182,192,76209,1,0,0:0:0:0:
402,192,76209,1,0,0:0:0:0:
329,192,76373,1,0,0:0:0:0:
109,192,76373,1,0,0:0:0:0:
475,192,76373,1,0,0:0:0:0:
256,192,76373,1,0,0:0:0:0:
329,192,76536,1,0,0:0:0:0:
182,192,76536,1,0,0:0:0:0:
402,192,76618,1,0,0:0:0:0:
475,192,76618,1,0,0:0:0:0:
109,192,76700,1,0,0:0:0:0:
36,192,76700,1,0,0:0:0:0:
256,192,76700,1,0,0:0:0:0:
256,192,76863,1,0,0:0:0:0:
109,192,76863,1,0,0:0:0:0:
182,192,77027,1,0,0:0:0:0:
402,192,77027,1,0,0:0:0:0:
475,192,77027,1,0,0:0:0:0:
36,192,77027,1,0,0:0:0:0:
402,192,77190,1,0,0:0:0:0:
329,192,77190,1,0,0:0:0:0:
109,192,77272,1,0,0:0:0:0:
36,192,77272,1,0,0:0:0:0:
402,192,77354,1,0,0:0:0:0:
182,192,77354,1,0,0:0:0:0:
182,192,77517,1,0,0:0:0:0:
402,192,77517,1,0,0:0:0:0:
329,192,77681,1,0,0:0:0:0:
475,192,77681,1,0,0:0:0:0:
182,192,77681,1,0,0:0:0:0:
36,192,77681,1,0,0:0:0:0:
402,192,77844,1,0,0:0:0:0:
256,192,77844,1,0,0:0:0:0:
109,192,77926,1,0,0:0:0:0:
36,192,77926,1,0,0:0:0:0:
329,192,78008,1,0,0:0:0:0:
475,192,78008,1,0,0:0:0:0:
182,192,78008,1,0,0:0:0:0:
329,192,78171,1,0,0:0:0:0:
182,192,78171,1,0,0:0:0:0:
256,192,78335,1,0,0:0:0:0:
402,192,78335,1,0,0:0:0:0:
36,192,78335,1,0,0:0:0:0:
475,192,78335,1,0,0:0:0:0:
329,192,78498,1,0,0:0:0:0:
109,192,78498,1,0,0:0:0:0:
402,192,78498,1,0,0:0:0:0:
182,192,78662,1,0,0:0:0:0:
475,192,78825,1,0,0:0:0:0:
402,192,78825,1,0,0:0:0:0:
329,192,78989,1,0,0:0:0:0:
36,192,78989,1,0,0:0:0:0:
475,192,78989,1,0,0:0:0:0:
109,192,78989,1,0,0:0:0:0:
182,192,79152,1,0,0:0:0:0:
329,192,79234,1,0,0:0:0:0:
109,192,79316,1,0,0:0:0:0:
36,192,79316,1,0,0:0:0:0:
329,192,79397,1,0,0:0:0:0:
402,192,79397,1,0,0:0:0:0:
182,192,79479,1,0,0:0:0:0:
109,192,79479,1,0,0:0:0:0:
329,192,79561,1,0,0:0:0:0:
402,192,79561,1,0,0:0:0:0:
256,192,79643,1,0,0:0:0:0:
182,192,79643,1,0,0:0:0:0:
36,192,79643,1,0,0:0:0:0:
402,192,79724,1,0,0:0:0:0:
329,192,79806,1,0,0:0:0:0:
256,192,79888,1,0,0:0:0:0:
182,192,79970,1,0,0:0:0:0:
109,192,79970,1,0,0:0:0:0:
36,192,79970,1,0,0:0:0:0:
475,192,79970,1,0,0:0:0:0:
329,192,79970,1,0,0:0:0:0:
36,192,80133,1,0,0:0:0:0:
182,192,80133,1,0,0:0:0:0:
109,192,80297,1,0,0:0:0:0:
256,192,80297,1,0,0:0:0:0:
402,192,80297,1,0,0:0:0:0:
475,192,80297,1,0,0:0:0:0:
329,192,80460,1,0,0:0:0:0:
475,192,80460,1,0,0:0:0:0:
182,192,80542,1,0,0:0:0:0:
109,192,80542,1,0,0:0:0:0:
256,192,80624,1,0,0:0:0:0:
402,192,80624,1,0,0:0:0:0:
475,192,80624,1,0,0:0:0:0:
182,192,80787,1,0,0:0:0:0:
329,192,80787,1,0,0:0:0:0:
402,192,80787,1,0,0:0:0:0:
256,192,80951,1,0,0:0:0:0:
109,192,80951,1,0,0:0:0:0:
36,192,80951,1,0,0:0:0:0:
475,192,80951,1,0,0:0:0:0:
182,192,81114,1,0,0:0:0:0:
329,192,81114,1,0,0:0:0:0:
402,192,81114,128,0,81441:0:0:0:0:
256,192,81278,1,0,0:0:0:0:
182,192,81441,1,0,0:0:0:0:
36,192,81441,1,0,0:0:0:0:
329,192,81441,128,0,81768:0:0:0:0:
36,192,81604,1,0,0:0:0:0:
109,192,81604,1,0,0:0:0:0:
182,192,81604,1,0,0:0:0:0:
402,192,81604,1,0,0:0:0:0:
256,192,81768,128,0,82095:0:0:0:0:
36,192,81931,1,0,0:0:0:0:
109,192,81931,1,0,0:0:0:0:
402,192,81931,1,0,0:0:0:0:
182,192,82095,128,0,82258:0:0:0:0:
329,192,82095,1,0,0:0:0:0:
475,192,82095,1,0,0:0:0:0:
402,192,82258,1,0,0:0:0:0:
475,192,82258,1,0,0:0:0:0:
36,192,82258,1,0,0:0:0:0:
109,192,82258,1,0,0:0:0:0:
256,192,82422,1,0,0:0:0:0:
182,192,82585,1,0,0:0:0:0:
475,192,82585,1,0,0:0:0:0:
329,192,82585,1,0,0:0:0:0:
256,192,82749,1,0,0:0:0:0:
109,192,82749,1,0,0:0:0:0:
329,192,82749,1,0,0:0:0:0:
36,192,82912,1,0,0:0:0:0:
182,192,82912,1,0,0:0:0:0:
402,192,82912,1,0,0:0:0:0:
475,192,82912,1,0,0:0:0:0:
256,192,83076,1,0,0:0:0:0:
182,192,83239,1,0,0:0:0:0:
329,192,83239,1,0,0:0:0:0:
475,192,83239,1,0,0:0:0:0:
109,192,83403,1,0,0:0:0:0:
256,192,83403,1,0,0:0:0:0:
402,192,83403,1,0,0:0:0:0:
182,192,83566,1,0,0:0:0:0:
36,192,83566,1,0,0:0:0:0:
329,192,83566,1,0,0:0:0:0:
402,192,83566,1,0,0:0:0:0:
256,192,83730,1,0,0:0:0:0:
36,192,83730,1,0,0:0:0:0:
109,192,83730,128,0,84057:0:0:0:0:
182,192,83893,1,0,0:0:0:0:
329,192,84057,128,0,84384:0:0:0:0:
402,192,84057,1,0,0:0:0:0:
475,192,84057,1,0,0:0:0:0:
36,192,84220,1,0,0:0:0:0:
109,192,84220,1,0,0:0:0:0:
256,192,84220,1,0,0:0:0:0:
182,192,84220,1,0,0:0:0:0:
402,192,84384,128,0,84711:0:0:0:0:
36,192,84547,1,0,0:0:0:0:
182,192,84547,1,0,0:0:0:0:
256,192,84547,1,0,0:0:0:0:
329,192,84711,128,0,84874:0:0:0:0:
109,192,84711,1,0,0:0:0:0:
256,192,84711,1,0,0:0:0:0:
182,192,84874,1,0,0:0:0:0:
36,192,84874,1,0,0:0:0:0:
402,192,84874,1,0,0:0:0:0:
475,192,84874,1,0,0:0:0:0:
256,192,85038,1,0,0:0:0:0:
182,192,85201,1,0,0:0:0:0:
36,192,85201,1,0,0:0:0:0:
402,192,85201,1,0,0:0:0:0:
475,192,85201,1,0,0:0:0:0:
256,192,85365,1,0,0:0:0:0:
329,192,85365,1,0,0:0:0:0:
109,192,85365,1,0,0:0:0:0:
182,192,85528,1,0,0:0:0:0:
36,192,85528,1,0,0:0:0:0:
402,192,85528,1,0,0:0:0:0:
475,192,85528,1,0,0:0:0:0:
329,192,85692,1,0,0:0:0:0:
256,192,85855,1,0,0:0:0:0:
109,192,85855,1,0,0:0:0:0:
402,192,85855,1,0,0:0:0:0:
36,192,86019,1,0,0:0:0:0:
182,192,86019,1,0,0:0:0:0:
329,192,86019,1,0,0:0:0:0:
109,192,86182,1,0,0:0:0:0:
36,192,86182,1,0,0:0:0:0:
256,192,86182,1,0,0:0:0:0:
475,192,86182,1,0,0:0:0:0:
182,192,86346,1,0,0:0:0:0:
329,192,86346,1,0,0:0:0:0:
402,192,86346,1,0,0:0:0:0:
256,192,86509,1,0,0:0:0:0:
182,192,86673,1,0,0:0:0:0:
36,192,86673,1,0,0:0:0:0:
329,192,86673,1,0,0:0:0:0:
109,192,86836,1,0,0:0:0:0:
36,192,86836,1,0,0:0:0:0:
256,192,86836,1,0,0:0:0:0:
475,192,86836,1,0,0:0:0:0:
329,192,87000,1,0,0:0:0:0:
256,192,87163,1,0,0:0:0:0:
109,192,87163,1,0,0:0:0:0:
402,192,87163,1,0,0:0:0:0:
182,192,87327,1,0,0:0:0:0:
36,192,87327,1,0,0:0:0:0:
256,192,87327,1,0,0:0:0:0:
36,192,87490,1,0,0:0:0:0:
109,192,87490,1,0,0:0:0:0:
329,192,87490,1,0,0:0:0:0:
475,192,87490,1,0,0:0:0:0:
182,192,87654,1,0,0:0:0:0:
329,192,87735,1,0,0:0:0:0:
475,192,87817,1,0,0:0:0:0:
36,192,87817,1,0,0:0:0:0:
182,192,87817,1,0,0:0:0:0:
256,192,87981,1,0,0:0:0:0:
109,192,87981,1,0,0:0:0:0:
402,192,87981,1,0,0:0:0:0:
182,192,88144,1,0,0:0:0:0:
329,192,88144,1,0,0:0:0:0:
475,192,88144,1,0,0:0:0:0:
402,192,88144,1,0,0:0:0:0:
109,192,88307,1,0,0:0:0:0:
256,192,88307,1,0,0:0:0:0:
182,192,88471,1,0,0:0:0:0:
36,192,88471,1,0,0:0:0:0:
402,192,88471,1,0,0:0:0:0:
109,192,88634,1,0,0:0:0:0:
329,192,88634,1,0,0:0:0:0:
182,192,88798,1,0,0:0:0:0:
36,192,88798,1,0,0:0:0:0:
256,192,88798,1,0,0:0:0:0:
475,192,88798,1,0,0:0:0:0:
109,192,88961,1,0,0:0:0:0:
329,192,88961,1,0,0:0:0:0:
402,192,88961,1,0,0:0:0:0:
256,192,89125,1,0,0:0:0:0:
182,192,89125,128,0,89207:0:0:0:0:
329,192,89125,128,0,89207:0:0:0:0:
402,192,89207,128,0,89288:0:0:0:0:
109,192,89207,128,0,89288:0:0:0:0:
182,192,89288,128,0,89370:0:0:0:0:
329,192,89288,128,0,89370:0:0:0:0:
109,192,89370,128,0,89452:0:0:0:0:
402,192,89370,128,0,89452:0:0:0:0:
36,192,89452,128,0,89534:0:0:0:0:
475,192,89452,128,0,89534:0:0:0:0:
329,192,89534,128,0,89615:0:0:0:0:
182,192,89534,128,0,89615:0:0:0:0:
109,192,89615,128,0,89697:0:0:0:0:
402,192,89615,128,0,89697:0:0:0:0:
36,192,89697,128,0,89779:0:0:0:0:
475,192,89697,128,0,89779:0:0:0:0:
182,192,89779,1,0,0:0:0:0:
329,192,89779,1,0,0:0:0:0:
36,192,89861,1,0,0:0:0:0:
402,192,89861,1,0,0:0:0:0:
182,192,89942,1,0,0:0:0:0:
475,192,89942,1,0,0:0:0:0:
109,192,90024,1,0,0:0:0:0:
329,192,90024,1,0,0:0:0:0:
36,192,90106,1,0,0:0:0:0:
475,192,90106,1,0,0:0:0:0:
182,192,90188,1,0,0:0:0:0:
329,192,90188,1,0,0:0:0:0:
109,192,90269,1,0,0:0:0:0:
402,192,90269,1,0,0:0:0:0:
329,192,90351,1,0,0:0:0:0:
182,192,90351,1,0,0:0:0:0:
109,192,90433,1,0,0:0:0:0:
36,192,90433,1,0,0:0:0:0:
256,192,90433,1,0,0:0:0:0:
402,192,90433,1,0,0:0:0:0:
475,192,90433,1,0,0:0:0:0:
109,192,90596,1,0,0:0:0:0:
256,192,90596,1,0,0:0:0:0:
402,192,90596,1,0,0:0:0:0:
36,192,90596,1,0,0:0:0:0:
36,192,90760,1,0,0:0:0:0:
109,192,90760,1,0,0:0:0:0:
256,192,90760,1,0,0:0:0:0:
402,192,90760,1,0,0:0:0:0:
182,192,91087,1,0,0:0:0:0:
256,192,91087,1,0,0:0:0:0:
329,192,91087,1,0,0:0:0:0:
402,192,91087,1,0,0:0:0:0:
329,192,91250,1,0,0:0:0:0:
182,192,91250,1,0,0:0:0:0:
109,192,91250,1,0,0:0:0:0:
256,192,91250,1,0,0:0:0:0:
256,192,91414,1,0,0:0:0:0:
182,192,91414,1,0,0:0:0:0:
109,192,91414,1,0,0:0:0:0:
36,192,91414,1,0,0:0:0:0:
402,192,91577,1,0,0:0:0:0:
475,192,91577,1,0,0:0:0:0:
329,192,91577,1,0,0:0:0:0:
36,192,91904,1,0,0:0:0:0:
182,192,91904,1,0,0:0:0:0:
256,192,91904,1,0,0:0:0:0:
329,192,91904,1,0,0:0:0:0:
109,192,92231,1,0,0:0:0:0:
329,192,92231,1,0,0:0:0:0:
256,192,92231,1,0,0:0:0:0:
402,192,92231,1,0,0:0:0:0:
182,192,92395,1,0,0:0:0:0:
36,192,92395,1,0,0:0:0:0:
475,192,92395,1,0,0:0:0:0:
182,192,92558,1,0,0:0:0:0:
329,192,92558,1,0,0:0:0:0:
402,192,92558,1,0,0:0:0:0:
475,192,92558,1,0,0:0:0:0:
109,192,92722,1,0,0:0:0:0:
256,192,92722,1,0,0:0:0:0:
182,192,92885,1,0,0:0:0:0:
36,192,92885,1,0,0:0:0:0:
402,192,92885,1,0,0:0:0:0:
109,192,93049,1,0,0:0:0:0:
36,192,93049,1,0,0:0:0:0:
256,192,93049,1,0,0:0:0:0:
402,192,93049,1,0,0:0:0:0:
475,192,93049,1,0,0:0:0:0:
109,192,93212,1,0,0:0:0:0:
256,192,93212,1,0,0:0:0:0:
402,192,93212,1,0,0:0:0:0:
475,192,93212,1,0,0:0:0:0:
475,192,93376,1,0,0:0:0:0:
402,192,93376,1,0,0:0:0:0:
256,192,93376,1,0,0:0:0:0:
109,192,93376,1,0,0:0:0:0:
182,192,93703,1,0,0:0:0:0:
256,192,93703,1,0,0:0:0:0:
402,192,93703,1,0,0:0:0:0:
475,192,93703,1,0,0:0:0:0:
402,192,93866,1,0,0:0:0:0:
329,192,93866,1,0,0:0:0:0:
182,192,93866,1,0,0:0:0:0:
109,192,93866,1,0,0:0:0:0:
329,192,94030,1,0,0:0:0:0:
256,192,94030,1,0,0:0:0:0:
109,192,94030,1,0,0:0:0:0:
36,192,94030,1,0,0:0:0:0:
182,192,94193,1,0,0:0:0:0:
402,192,94193,1,0,0:0:0:0:
109,192,94520,1,0,0:0:0:0:
256,192,94520,1,0,0:0:0:0:
329,192,94520,1,0,0:0:0:0:
475,192,94520,1,0,0:0:0:0:
182,192,94684,1,0,0:0:0:0:
402,192,94684,1,0,0:0:0:0:
109,192,94847,1,0,0:0:0:0:
329,192,94847,1,0,0:0:0:0:
256,192,94847,1,0,0:0:0:0:
182,192,95010,1,0,0:0:0:0:
36,192,95010,1,0,0:0:0:0:
402,192,95010,1,0,0:0:0:0:
475,192,95010,1,0,0:0:0:0:
109,192,95174,1,0,0:0:0:0:
256,192,95174,1,0,0:0:0:0:
329,192,95256,1,0,0:0:0:0:
402,192,95256,1,0,0:0:0:0:
182,192,95337,1,0,0:0:0:0:
36,192,95337,1,0,0:0:0:0:
402,192,95419,1,0,0:0:0:0:
475,192,95419,1,0,0:0:0:0:
109,192,95501,1,0,0:0:0:0:
182,192,95501,1,0,0:0:0:0:
329,192,95583,1,0,0:0:0:0:
402,192,95583,1,0,0:0:0:0:
256,192,95664,1,0,0:0:0:0:
475,192,95664,1,0,0:0:0:0:
109,192,95664,1,0,0:0:0:0:
36,192,95664,128,0,96155:0:0:0:0:
329,192,95828,1,0,0:0:0:0:
256,192,95991,1,0,0:0:0:0:
402,192,95991,1,0,0:0:0:0:
475,192,95991,1,0,0:0:0:0:
182,192,96155,128,0,96318:0:0:0:0:
329,192,96237,1,0,0:0:0:0:
402,192,96237,1,0,0:0:0:0:
475,192,96318,128,0,96809:0:0:0:0:
109,192,96318,1,0,0:0:0:0:
36,192,96318,1,0,0:0:0:0:
256,192,96482,1,0,0:0:0:0:
182,192,96645,1,0,0:0:0:0:
36,192,96645,1,0,0:0:0:0:
109,192,96645,1,0,0:0:0:0:
402,192,96645,1,0,0:0:0:0:
329,192,96809,128,0,96972:0:0:0:0:
36,192,96972,128,0,97463:0:0:0:0:
182,192,96972,1,0,0:0:0:0:
402,192,96972,1,0,0:0:0:0:
475,192,96972,1,0,0:0:0:0:
329,192,97136,1,0,0:0:0:0:
256,192,97299,1,0,0:0:0:0:
402,192,97299,1,0,0:0:0:0:
475,192,97299,1,0,0:0:0:0:
182,192,97463,128,0,97626:0:0:0:0:
329,192,97545,1,0,0:0:0:0:
402,192,97545,1,0,0:0:0:0:
475,192,97626,128,0,98117:0:0:0:0:
109,192,97626,1,0,0:0:0:0:
36,192,97626,1,0,0:0:0:0:
256,192,97626,1,0,0:0:0:0:
182,192,97790,1,0,0:0:0:0:
109,192,97953,1,0,0:0:0:0:
36,192,97953,1,0,0:0:0:0:
256,192,97953,1,0,0:0:0:0:
402,192,97953,1,0,0:0:0:0:
182,192,98117,128,0,98280:0:0:0:0:
475,192,98280,128,0,98771:0:0:0:0:
109,192,98280,1,0,0:0:0:0:
36,192,98280,1,0,0:0:0:0:
256,192,98444,1,0,0:0:0:0:
109,192,98607,1,0,0:0:0:0:
36,192,98607,1,0,0:0:0:0:
329,192,98607,1,0,0:0:0:0:
402,192,98607,1,0,0:0:0:0:
182,192,98771,128,0,98934:0:0:0:0:
402,192,98852,1,0,0:0:0:0:
475,192,98852,1,0,0:0:0:0:
329,192,98934,128,0,99425:0:0:0:0:
109,192,98934,1,0,0:0:0:0:
36,192,98934,1,0,0:0:0:0:
256,192,99098,1,0,0:0:0:0:
182,192,99261,1,0,0:0:0:0:
109,192,99261,1,0,0:0:0:0:
402,192,99261,1,0,0:0:0:0:
36,192,99425,128,0,99588:0:0:0:0:
475,192,99588,128,0,99915:0:0:0:0:
182,192,99588,1,0,0:0:0:0:
329,192,99588,1,0,0:0:0:0:
256,192,99752,1,0,0:0:0:0:
109,192,99915,1,0,0:0:0:0:
36,192,99915,1,0,0:0:0:0:
329,192,99915,1,0,0:0:0:0:
402,192,99915,1,0,0:0:0:0:
182,192,100079,128,0,100242:0:0:0:0:
329,192,100160,1,0,0:0:0:0:
402,192,100160,1,0,0:0:0:0:
109,192,100242,128,0,100406:0:0:0:0:
256,192,100242,1,0,0:0:0:0:
475,192,100242,1,0,0:0:0:0:
36,192,100406,128,0,100569:0:0:0:0:
475,192,100569,128,0,100733:0:0:0:0:
256,192,100569,1,0,0:0:0:0:
109,192,100569,1,0,0:0:0:0:
329,192,100569,1,0,0:0:0:0:
402,192,100733,128,0,100896:0:0:0:0:
329,192,100896,128,0,101387:0:0:0:0:
182,192,100896,1,0,0:0:0:0:
36,192,100896,1,0,0:0:0:0:
475,192,100896,1,0,0:0:0:0:
256,192,101060,1,0,0:0:0:0:
109,192,101223,1,0,0:0:0:0:
36,192,101223,1,0,0:0:0:0:
402,192,101223,1,0,0:0:0:0:
182,192,101387,128,0,101550:0:0:0:0:
329,192,101468,1,0,0:0:0:0:
402,192,101468,1,0,0:0:0:0:
36,192,101550,128,0,102040:0:0:0:0:
475,192,101550,1,0,0:0:0:0:
256,192,101550,1,0,0:0:0:0:
109,192,101550,1,0,0:0:0:0:
182,192,101713,1,0,0:0:0:0:
109,192,101877,1,0,0:0:0:0:
256,192,101877,1,0,0:0:0:0:
402,192,101877,1,0,0:0:0:0:
475,192,101877,1,0,0:0:0:0:
329,192,102040,128,0,102204:0:0:0:0:
36,192,102204,1,0,0:0:0:0:
109,192,102204,1,0,0:0:0:0:
256,192,102204,1,0,0:0:0:0:
402,192,102204,1,0,0:0:0:0:
475,192,102204,1,0,0:0:0:0:
329,192,102367,1,0,0:0:0:0:
402,192,102367,1,0,0:0:0:0:
109,192,102449,1,0,0:0:0:0:
182,192,102449,1,0,0:0:0:0:
329,192,102531,1,0,0:0:0:0:
475,192,102531,1,0,0:0:0:0:
182,192,102613,1,0,0:0:0:0:
36,192,102613,1,0,0:0:0:0:
329,192,102694,1,0,0:0:0:0:
402,192,102694,1,0,0:0:0:0:
109,192,102776,1,0,0:0:0:0:
182,192,102776,1,0,0:0:0:0:
329,192,102858,1,0,0:0:0:0:
475,192,102858,1,0,0:0:0:0:
36,192,102940,1,0,0:0:0:0:
182,192,102940,1,0,0:0:0:0:
329,192,103021,1,0,0:0:0:0:
402,192,103021,1,0,0:0:0:0:
36,192,103103,1,0,0:0:0:0:
109,192,103103,1,0,0:0:0:0:
256,192,103185,1,0,0:0:0:0:
329,192,103185,1,0,0:0:0:0:
475,192,103185,1,0,0:0:0:0:
182,192,103348,1,0,0:0:0:0:
256,192,103348,1,0,0:0:0:0:
402,192,103348,1,0,0:0:0:0:
109,192,103512,1,0,0:0:0:0:
36,192,103512,1,0,0:0:0:0:
256,192,103512,1,0,0:0:0:0:
402,192,103512,1,0,0:0:0:0:
475,192,103512,1,0,0:0:0:0:
182,192,103675,1,0,0:0:0:0:
329,192,103675,1,0,0:0:0:0:
36,192,103839,1,0,0:0:0:0:
109,192,103839,1,0,0:0:0:0:
256,192,103839,1,0,0:0:0:0:
402,192,103839,1,0,0:0:0:0:
475,192,103839,1,0,0:0:0:0:
182,192,104002,1,0,0:0:0:0:
329,192,104002,1,0,0:0:0:0:
109,192,104166,1,0,0:0:0:0:
182,192,104166,1,0,0:0:0:0:
256,192,104166,1,0,0:0:0:0:
329,192,104166,1,0,0:0:0:0:
402,192,104166,1,0,0:0:0:0:
402,192,104329,1,0,0:0:0:0:
329,192,104329,1,0,0:0:0:0:
256,192,104329,1,0,0:0:0:0:
109,192,104329,1,0,0:0:0:0:
182,192,104329,1,0,0:0:0:0:
182,192,104493,1,0,0:0:0:0:
329,192,104493,1,0,0:0:0:0:
109,192,104656,1,0,0:0:0:0:
36,192,104656,1,0,0:0:0:0:
256,192,104656,1,0,0:0:0:0:
475,192,104656,1,0,0:0:0:0:
402,192,104656,1,0,0:0:0:0:
109,192,104820,1,0,0:0:0:0:
402,192,104820,1,0,0:0:0:0:
36,192,104983,1,0,0:0:0:0:
109,192,104983,1,0,0:0:0:0:
256,192,104983,1,0,0:0:0:0:
402,192,104983,1,0,0:0:0:0:
475,192,104983,1,0,0:0:0:0:
182,192,105310,128,0,105637:0:0:0:0:
329,192,105310,128,0,105637:0:0:0:0:
36,192,105637,128,0,105801:0:0:0:0:
475,192,105637,128,0,105801:0:0:0:0:
182,192,105801,128,0,105964:0:0:0:0:
329,192,105801,128,0,105964:0:0:0:0:
109,192,105964,128,0,106128:0:0:0:0:
402,192,105964,128,0,106128:0:0:0:0:
36,192,106128,1,0,0:0:0:0:
256,192,106128,1,0,0:0:0:0:
329,192,106128,1,0,0:0:0:0:
475,192,106128,1,0,0:0:0:0:
402,192,106209,1,0,0:0:0:0:
329,192,106291,1,0,0:0:0:0:
109,192,106291,1,0,0:0:0:0:
256,192,106373,1,0,0:0:0:0:
182,192,106455,1,0,0:0:0:0:
109,192,106455,1,0,0:0:0:0:
475,192,106455,1,0,0:0:0:0:
36,192,106455,1,0,0:0:0:0:
329,192,106536,1,0,0:0:0:0:
36,192,106618,1,0,0:0:0:0:
402,192,106618,1,0,0:0:0:0:
109,192,106700,1,0,0:0:0:0:
182,192,106782,1,0,0:0:0:0:
475,192,106782,1,0,0:0:0:0:
256,192,106782,1,0,0:0:0:0:
402,192,106863,1,0,0:0:0:0:
329,192,106945,1,0,0:0:0:0:
109,192,106945,1,0,0:0:0:0:
256,192,107027,1,0,0:0:0:0:
182,192,107109,1,0,0:0:0:0:
475,192,107109,1,0,0:0:0:0:
36,192,107109,1,0,0:0:0:0:
402,192,107109,1,0,0:0:0:0:
329,192,107190,1,0,0:0:0:0:
256,192,107272,1,0,0:0:0:0:
109,192,107272,1,0,0:0:0:0:
402,192,107354,1,0,0:0:0:0:
475,192,107436,1,0,0:0:0:0:
109,192,107436,1,0,0:0:0:0:
36,192,107436,1,0,0:0:0:0:
182,192,107517,1,0,0:0:0:0:
256,192,107599,1,0,0:0:0:0:
402,192,107599,1,0,0:0:0:0:
329,192,107681,1,0,0:0:0:0:
402,192,107763,1,0,0:0:0:0:
475,192,107763,1,0,0:0:0:0:
36,192,107763,1,0,0:0:0:0:
109,192,107763,1,0,0:0:0:0:
182,192,107844,1,0,0:0:0:0:
256,192,107926,1,0,0:0:0:0:
109,192,107926,1,0,0:0:0:0:
402,192,108008,1,0,0:0:0:0:
329,192,108090,1,0,0:0:0:0:
475,192,108090,1,0,0:0:0:0:
109,192,108090,1,0,0:0:0:0:
256,192,108171,1,0,0:0:0:0:
182,192,108253,1,0,0:0:0:0:
36,192,108253,1,0,0:0:0:0:
402,192,108335,1,0,0:0:0:0:
329,192,108416,1,0,0:0:0:0:
475,192,108416,1,0,0:0:0:0:
109,192,108416,1,0,0:0:0:0:
36,192,108416,1,0,0:0:0:0:
256,192,108498,1,0,0:0:0:0:
182,192,108580,1,0,0:0:0:0:
109,192,108580,1,0,0:0:0:0:
329,192,108662,1,0,0:0:0:0:
475,192,108743,1,0,0:0:0:0:
36,192,108743,1,0,0:0:0:0:
402,192,108743,1,0,0:0:0:0:
256,192,108825,1,0,0:0:0:0:
182,192,108907,1,0,0:0:0:0:
475,192,108907,1,0,0:0:0:0:
402,192,108989,1,0,0:0:0:0:
329,192,109070,1,0,0:0:0:0:
36,192,109070,1,0,0:0:0:0:
109,192,109070,1,0,0:0:0:0:
182,192,109070,1,0,0:0:0:0:
256,192,109152,1,0,0:0:0:0:
182,192,109234,1,0,0:0:0:0:
475,192,109234,1,0,0:0:0:0:
329,192,109316,1,0,0:0:0:0:
402,192,109397,1,0,0:0:0:0:
36,192,109397,1,0,0:0:0:0:
109,192,109397,1,0,0:0:0:0:
182,192,109479,1,0,0:0:0:0:
256,192,109561,1,0,0:0:0:0:
475,192,109561,1,0,0:0:0:0:
329,192,109643,1,0,0:0:0:0:
402,192,109724,1,0,0:0:0:0:
109,192,109724,1,0,0:0:0:0:
36,192,109724,1,0,0:0:0:0:
182,192,109724,1,0,0:0:0:0:
256,192,109806,1,0,0:0:0:0:
182,192,109888,1,0,0:0:0:0:
475,192,109888,1,0,0:0:0:0:
402,192,109970,1,0,0:0:0:0:
329,192,110051,1,0,0:0:0:0:
36,192,110051,1,0,0:0:0:0:
256,192,110051,1,0,0:0:0:0:
182,192,110133,1,0,0:0:0:0:
109,192,110215,1,0,0:0:0:0:
402,192,110215,1,0,0:0:0:0:
329,192,110297,1,0,0:0:0:0:
256,192,110378,1,0,0:0:0:0:
475,192,110378,1,0,0:0:0:0:
182,192,110378,1,0,0:0:0:0:
36,192,110378,1,0,0:0:0:0:
329,192,110460,1,0,0:0:0:0:
402,192,110542,1,0,0:0:0:0:
109,192,110542,1,0,0:0:0:0:
182,192,110624,1,0,0:0:0:0:
256,192,110705,1,0,0:0:0:0:
475,192,110705,1,0,0:0:0:0:
36,192,110705,1,0,0:0:0:0:
109,192,110787,1,0,0:0:0:0:
182,192,110869,1,0,0:0:0:0:
402,192,110869,1,0,0:0:0:0:
256,192,110951,1,0,0:0:0:0:
329,192,111032,1,0,0:0:0:0:
36,192,111032,1,0,0:0:0:0:
475,192,111032,1,0,0:0:0:0:
402,192,111032,1,0,0:0:0:0:
109,192,111114,1,0,0:0:0:0:
182,192,111196,1,0,0:0:0:0:
402,192,111196,1,0,0:0:0:0:
329,192,111278,1,0,0:0:0:0:
256,192,111359,1,0,0:0:0:0:
475,192,111359,1,0,0:0:0:0:
109,192,111359,1,0,0:0:0:0:
402,192,111441,1,0,0:0:0:0:
329,192,111523,1,0,0:0:0:0:
36,192,111523,1,0,0:0:0:0:
109,192,111604,1,0,0:0:0:0:
182,192,111686,1,0,0:0:0:0:
402,192,111686,1,0,0:0:0:0:
475,192,111686,1,0,0:0:0:0:
329,192,111686,1,0,0:0:0:0:
256,192,111768,1,0,0:0:0:0:
329,192,111850,1,0,0:0:0:0:
36,192,111850,1,0,0:0:0:0:
182,192,111931,1,0,0:0:0:0:
109,192,112013,1,0,0:0:0:0:
475,192,112013,1,0,0:0:0:0:
256,192,112013,1,0,0:0:0:0:
402,192,112095,1,0,0:0:0:0:
329,192,112177,1,0,0:0:0:0:
109,192,112177,1,0,0:0:0:0:
256,192,112258,1,0,0:0:0:0:
182,192,112340,1,0,0:0:0:0:
475,192,112340,1,0,0:0:0:0:
402,192,112340,1,0,0:0:0:0:
36,192,112340,1,0,0:0:0:0:
329,192,112422,1,0,0:0:0:0:
402,192,112504,1,0,0:0:0:0:
109,192,112504,1,0,0:0:0:0:
182,192,112585,1,0,0:0:0:0:
256,192,112667,1,0,0:0:0:0:
475,192,112667,1,0,0:0:0:0:
36,192,112667,1,0,0:0:0:0:
329,192,112749,1,0,0:0:0:0:
109,192,112831,1,0,0:0:0:0:
402,192,112831,1,0,0:0:0:0:
182,192,112912,1,0,0:0:0:0:
256,192,112994,1,0,0:0:0:0:
36,192,112994,1,0,0:0:0:0:
329,192,112994,1,0,0:0:0:0:
475,192,112994,1,0,0:0:0:0:
182,192,113076,1,0,0:0:0:0:
109,192,113158,1,0,0:0:0:0:
402,192,113158,1,0,0:0:0:0:
329,192,113239,1,0,0:0:0:0:
256,192,113321,1,0,0:0:0:0:
475,192,113321,1,0,0:0:0:0:
36,192,113321,1,0,0:0:0:0:
182,192,113403,1,0,0:0:0:0:
109,192,113485,1,0,0:0:0:0:
402,192,113485,1,0,0:0:0:0:
329,192,113566,1,0,0:0:0:0:
256,192,113648,1,0,0:0:0:0:
36,192,113648,1,0,0:0:0:0:
402,192,113648,1,0,0:0:0:0:
182,192,113648,1,0,0:0:0:0:
109,192,113730,1,0,0:0:0:0:
182,192,113812,1,0,0:0:0:0:
475,192,113812,1,0,0:0:0:0:
329,192,113812,1,0,0:0:0:0:
256,192,113893,1,0,0:0:0:0:
402,192,113893,1,0,0:0:0:0:
329,192,113975,1,0,0:0:0:0:
109,192,113975,1,0,0:0:0:0:
36,192,113975,1,0,0:0:0:0:
475,192,113975,1,0,0:0:0:0:
182,192,114139,1,0,0:0:0:0:
329,192,114139,1,0,0:0:0:0:
109,192,114302,1,0,0:0:0:0:
36,192,114302,1,0,0:0:0:0:
256,192,114302,1,0,0:0:0:0:
402,192,114302,1,0,0:0:0:0:
182,192,114466,1,0,0:0:0:0:
329,192,114466,1,0,0:0:0:0:
475,192,114629,1,0,0:0:0:0:
36,192,114629,1,0,0:0:0:0:
109,192,114629,1,0,0:0:0:0:
402,192,114629,1,0,0:0:0:0:
182,192,114793,1,0,0:0:0:0:
329,192,114793,1,0,0:0:0:0:
109,192,114956,1,0,0:0:0:0:
402,192,114956,1,0,0:0:0:0:
36,192,114956,1,0,0:0:0:0:
475,192,114956,1,0,0:0:0:0:
256,192,114956,1,0,0:0:0:0:
182,192,115119,1,0,0:0:0:0:
329,192,115119,1,0,0:0:0:0:
475,192,115283,1,0,0:0:0:0:
109,192,115283,1,0,0:0:0:0:
36,192,115283,1,0,0:0:0:0:
402,192,115283,1,0,0:0:0:0:
182,192,115365,1,0,0:0:0:0:
329,192,115365,1,0,0:0:0:0:
109,192,115446,1,0,0:0:0:0:
402,192,115446,1,0,0:0:0:0:
182,192,115528,1,0,0:0:0:0:
329,192,115528,1,0,0:0:0:0:
36,192,115610,1,0,0:0:0:0:
475,192,115610,1,0,0:0:0:0:
182,192,115692,1,0,0:0:0:0:
329,192,115692,1,0,0:0:0:0:
109,192,115773,1,0,0:0:0:0:
402,192,115773,1,0,0:0:0:0:
182,192,115855,1,0,0:0:0:0:
329,192,115855,1,0,0:0:0:0:
36,192,115937,1,0,0:0:0:0:
475,192,115937,1,0,0:0:0:0:
109,192,116019,1,0,0:0:0:0:
402,192,116019,1,0,0:0:0:0:
182,192,116100,1,0,0:0:0:0:
329,192,116100,1,0,0:0:0:0:
109,192,116182,1,0,0:0:0:0:
402,192,116182,1,0,0:0:0:0:
36,192,116264,1,0,0:0:0:0:
256,192,116264,1,0,0:0:0:0:
475,192,116264,1,0,0:0:0:0:
182,192,116346,1,0,0:0:0:0:
329,192,116346,1,0,0:0:0:0:
109,192,116427,1,0,0:0:0:0:
402,192,116427,1,0,0:0:0:0:
182,192,116509,1,0,0:0:0:0:
329,192,116509,1,0,0:0:0:0:
402,192,116591,1,0,0:0:0:0:
36,192,116591,1,0,0:0:0:0:
256,192,116591,1,0,0:0:0:0:
475,192,116591,1,0,0:0:0:0:
109,192,116673,1,0,0:0:0:0:
182,192,116754,1,0,0:0:0:0:
475,192,116754,1,0,0:0:0:0:
256,192,116836,1,0,0:0:0:0:
329,192,116918,1,0,0:0:0:0:
402,192,116918,1,0,0:0:0:0:
36,192,116918,1,0,0:0:0:0:
109,192,116918,1,0,0:0:0:0:
182,192,117000,1,0,0:0:0:0:
109,192,117081,1,0,0:0:0:0:
475,192,117081,1,0,0:0:0:0:
402,192,117163,1,0,0:0:0:0:
329,192,117245,1,0,0:0:0:0:
36,192,117245,1,0,0:0:0:0:
109,192,117245,1,0,0:0:0:0:
256,192,117327,1,0,0:0:0:0:
182,192,117408,1,0,0:0:0:0:
475,192,117408,1,0,0:0:0:0:
329,192,117490,1,0,0:0:0:0:
402,192,117572,1,0,0:0:0:0:
109,192,117572,1,0,0:0:0:0:
36,192,117572,1,0,0:0:0:0:
256,192,117572,1,0,0:0:0:0:
182,192,117654,1,0,0:0:0:0:
256,192,117735,1,0,0:0:0:0:
475,192,117735,1,0,0:0:0:0:
36,192,117817,1,0,0:0:0:0:
182,192,117899,128,0,117981:0:0:0:0:
402,192,117899,128,0,117981:0:0:0:0:
475,192,117899,128,0,117981:0:0:0:0:
36,192,117981,128,0,118062:0:0:0:0:
256,192,117981,128,0,118062:0:0:0:0:
109,192,118062,128,0,118144:0:0:0:0:
329,192,118062,128,0,118144:0:0:0:0:
182,192,118144,128,0,118226:0:0:0:0:
402,192,118144,128,0,118226:0:0:0:0:
256,192,118226,128,0,118307:0:0:0:0:
475,192,118226,128,0,118307:0:0:0:0:
182,192,118307,128,0,118389:0:0:0:0:
402,192,118307,128,0,118389:0:0:0:0:
36,192,118389,128,0,118471:0:0:0:0:
329,192,118389,128,0,118471:0:0:0:0:
109,192,118471,128,0,118553:0:0:0:0:
256,192,118471,128,0,118553:0:0:0:0:
182,192,118553,128,0,118634:0:0:0:0:
402,192,118553,128,0,118634:0:0:0:0:
36,192,118634,128,0,118716:0:0:0:0:
329,192,118634,128,0,118716:0:0:0:0:
402,192,118716,128,0,118798:0:0:0:0:
109,192,118716,128,0,118798:0:0:0:0:
182,192,118798,128,0,118880:0:0:0:0:
329,192,118798,128,0,118880:0:0:0:0:
256,192,118880,128,0,118961:0:0:0:0:
475,192,118880,128,0,118961:0:0:0:0:
182,192,118961,128,0,119043:0:0:0:0:
402,192,118961,128,0,119043:0:0:0:0:
109,192,119043,128,0,119125:0:0:0:0:
329,192,119043,128,0,119125:0:0:0:0:
256,192,119125,128,0,119207:0:0:0:0:
402,192,119125,128,0,119207:0:0:0:0:
182,192,119207,1,0,0:0:0:0:
36,192,119207,1,0,0:0:0:0:
475,192,119207,1,0,0:0:0:0:
109,192,119207,1,0,0:0:0:0:
329,192,119288,1,0,0:0:0:0:
402,192,119370,1,0,0:0:0:0:
109,192,119370,1,0,0:0:0:0:
182,192,119452,1,0,0:0:0:0:
256,192,119534,1,0,0:0:0:0:
475,192,119534,1,0,0:0:0:0:
36,192,119534,1,0,0:0:0:0:
329,192,119534,1,0,0:0:0:0:
109,192,119615,1,0,0:0:0:0:
182,192,119697,1,0,0:0:0:0:
402,192,119697,1,0,0:0:0:0:
329,192,119779,1,0,0:0:0:0:
256,192,119861,1,0,0:0:0:0:
109,192,119861,1,0,0:0:0:0:
475,192,119861,1,0,0:0:0:0:
402,192,119942,1,0,0:0:0:0:
329,192,120024,1,0,0:0:0:0:
109,192,120024,1,0,0:0:0:0:
36,192,120024,1,0,0:0:0:0:
256,192,120106,1,0,0:0:0:0:
182,192,120188,1,0,0:0:0:0:
475,192,120188,1,0,0:0:0:0:
109,192,120188,1,0,0:0:0:0:
402,192,120188,1,0,0:0:0:0:
329,192,120269,1,0,0:0:0:0:
402,192,120351,1,0,0:0:0:0:
36,192,120351,1,0,0:0:0:0:
109,192,120433,1,0,0:0:0:0:
182,192,120515,128,0,120596:0:0:0:0:
329,192,120515,128,0,120596:0:0:0:0:
36,192,120596,128,0,120678:0:0:0:0:
109,192,120596,128,0,120678:0:0:0:0:
256,192,120678,128,0,120760:0:0:0:0:
402,192,120678,128,0,120760:0:0:0:0:
182,192,120760,128,0,120842:0:0:0:0:
109,192,120760,128,0,120842:0:0:0:0:
475,192,120842,128,0,120923:0:0:0:0:
402,192,120842,128,0,120923:0:0:0:0:
329,192,120923,128,0,121005:0:0:0:0:
256,192,120923,128,0,121005:0:0:0:0:
109,192,121005,128,0,121087:0:0:0:0:
182,192,121005,128,0,121087:0:0:0:0:
402,192,121087,128,0,121169:0:0:0:0:
475,192,121087,128,0,121169:0:0:0:0:
36,192,121169,128,0,121250:0:0:0:0:
182,192,121169,128,0,121250:0:0:0:0:
329,192,121250,128,0,121332:0:0:0:0:
256,192,121250,128,0,121332:0:0:0:0:
402,192,121332,128,0,121414:0:0:0:0:
475,192,121332,128,0,121414:0:0:0:0:
109,192,121414,128,0,121495:0:0:0:0:
182,192,121414,128,0,121495:0:0:0:0:
475,192,121495,128,0,121577:0:0:0:0:
256,192,121495,128,0,121577:0:0:0:0:
402,192,121577,128,0,121659:0:0:0:0:
182,192,121577,128,0,121659:0:0:0:0:
329,192,121659,128,0,121741:0:0:0:0:
109,192,121659,128,0,121741:0:0:0:0:
256,192,121741,128,0,121822:0:0:0:0:
36,192,121741,128,0,121822:0:0:0:0:
109,192,121822,1,0,0:0:0:0:
475,192,121822,128,0,121904:0:0:0:0:
402,192,121822,128,0,121904:0:0:0:0:
329,192,121822,128,0,121904:0:0:0:0:
182,192,121904,1,0,0:0:0:0:
256,192,121986,128,0,122068:0:0:0:0:
109,192,121986,128,0,122068:0:0:0:0:
36,192,121986,128,0,122068:0:0:0:0:
402,192,122068,1,0,0:0:0:0:
329,192,122149,1,0,0:0:0:0:
36,192,122149,128,0,122231:0:0:0:0:
109,192,122149,128,0,122231:0:0:0:0:
256,192,122149,128,0,122231:0:0:0:0:
402,192,122231,1,0,0:0:0:0:
36,192,122313,128,0,122395:0:0:0:0:
109,192,122313,128,0,122395:0:0:0:0:
329,192,122313,128,0,122395:0:0:0:0:
182,192,122395,1,0,0:0:0:0:
36,192,122476,128,0,122558:0:0:0:0:
256,192,122476,128,0,122558:0:0:0:0:
402,192,122476,128,0,122558:0:0:0:0:
109,192,122558,1,0,0:0:0:0:
475,192,122640,128,0,122722:0:0:0:0:
329,192,122640,128,0,122722:0:0:0:0:
182,192,122640,128,0,122722:0:0:0:0:
256,192,122722,1,0,0:0:0:0:
329,192,122803,1,0,0:0:0:0:
402,192,122803,1,0,0:0:0:0:
36,192,122803,1,0,0:0:0:0:
109,192,122803,1,0,0:0:0:0:
182,192,122885,1,0,0:0:0:0:
109,192,122967,128,0,123049:0:0:0:0:
256,192,122967,128,0,123049:0:0:0:0:
475,192,122967,128,0,123049:0:0:0:0:
329,192,123049,5,0,0:0:0:0:
256,192,123130,1,0,0:0:0:0:
36,192,123130,1,0,0:0:0:0:
109,192,123130,1,0,0:0:0:0:
402,192,123212,1,0,0:0:0:0:
36,192,123294,128,0,123376:0:0:0:0:
109,192,123294,128,0,123376:0:0:0:0:
182,192,123294,128,0,123376:0:0:0:0:
329,192,123376,1,0,0:0:0:0:
36,192,123457,1,0,0:0:0:0:
256,192,123457,128,0,123539:0:0:0:0:
402,192,123457,128,0,123539:0:0:0:0:
475,192,123457,128,0,123539:0:0:0:0:
329,192,123539,1,0,0:0:0:0:
182,192,123621,128,0,123703:0:0:0:0:
109,192,123621,128,0,123703:0:0:0:0:
36,192,123621,128,0,123703:0:0:0:0:
256,192,123703,1,0,0:0:0:0:
329,192,123784,128,0,123866:0:0:0:0:
402,192,123784,128,0,123866:0:0:0:0:
475,192,123784,128,0,123866:0:0:0:0:
109,192,123866,1,0,0:0:0:0:
36,192,123866,1,0,0:0:0:0:
182,192,123948,128,0,124030:0:0:0:0:
256,192,123948,128,0,124030:0:0:0:0:
329,192,123948,128,0,124030:0:0:0:0:
109,192,124030,1,0,0:0:0:0:
36,192,124030,1,0,0:0:0:0:
329,192,124111,1,0,0:0:0:0:
475,192,124111,1,0,0:0:0:0:
402,192,124111,1,0,0:0:0:0:
109,192,124193,1,0,0:0:0:0:
36,192,124193,1,0,0:0:0:0:
182,192,124275,1,0,0:0:0:0:
402,192,124275,1,0,0:0:0:0:
329,192,124357,1,0,0:0:0:0:
256,192,124357,1,0,0:0:0:0:
109,192,124438,1,0,0:0:0:0:
36,192,124438,1,0,0:0:0:0:
475,192,124438,1,0,0:0:0:0:
402,192,124438,1,0,0:0:0:0:
329,192,124602,1,0,0:0:0:0:
475,192,124765,1,0,0:0:0:0:
256,192,124765,1,0,0:0:0:0:
109,192,124765,1,0,0:0:0:0:
36,192,124765,1,0,0:0:0:0:
329,192,124929,1,0,0:0:0:0:
256,192,125092,1,0,0:0:0:0:
475,192,125092,1,0,0:0:0:0:
109,192,125092,1,0,0:0:0:0:
36,192,125092,1,0,0:0:0:0:
182,192,125256,1,0,0:0:0:0:
256,192,125419,1,0,0:0:0:0:
402,192,125419,1,0,0:0:0:0:
475,192,125419,1,0,0:0:0:0:
36,192,125419,1,0,0:0:0:0:
182,192,125583,1,0,0:0:0:0:
475,192,125746,1,0,0:0:0:0:
402,192,125746,1,0,0:0:0:0:
36,192,125746,1,0,0:0:0:0:
329,192,125746,1,0,0:0:0:0:
256,192,125910,1,0,0:0:0:0:
329,192,126073,1,0,0:0:0:0:
402,192,126073,1,0,0:0:0:0:
475,192,126073,1,0,0:0:0:0:
36,192,126073,1,0,0:0:0:0:
256,192,126237,1,0,0:0:0:0:
475,192,126400,1,0,0:0:0:0:
36,192,126400,1,0,0:0:0:0:
182,192,126400,1,0,0:0:0:0:
109,192,126400,1,0,0:0:0:0:
256,192,126564,1,0,0:0:0:0:
475,192,126727,1,0,0:0:0:0:
182,192,126727,1,0,0:0:0:0:
36,192,126727,1,0,0:0:0:0:
109,192,126727,1,0,0:0:0:0:
256,192,126891,1,0,0:0:0:0:
329,192,127054,1,0,0:0:0:0:
402,192,127054,1,0,0:0:0:0:
182,192,127054,1,0,0:0:0:0:
109,192,127054,1,0,0:0:0:0:
329,192,127218,1,0,0:0:0:0:
36,192,127218,1,0,0:0:0:0:
182,192,127218,1,0,0:0:0:0:
329,192,127381,1,0,0:0:0:0:
182,192,127381,1,0,0:0:0:0:
36,192,127381,1,0,0:0:0:0:
256,192,127545,1,0,0:0:0:0:
475,192,127545,1,0,0:0:0:0:
329,192,127708,1,0,0:0:0:0:
402,192,127708,1,0,0:0:0:0:
109,192,127790,1,0,0:0:0:0:
182,192,127790,1,0,0:0:0:0:
329,192,127872,1,0,0:0:0:0:
256,192,127872,1,0,0:0:0:0:
109,192,127953,1,0,0:0:0:0:
36,192,127953,1,0,0:0:0:0:
402,192,128035,1,0,0:0:0:0:
475,192,128035,1,0,0:0:0:0:
182,192,128117,1,0,0:0:0:0:
109,192,128117,1,0,0:0:0:0:
256,192,128198,1,0,0:0:0:0:
329,192,128198,1,0,0:0:0:0:
402,192,128280,1,0,0:0:0:0:
475,192,128280,1,0,0:0:0:0:
109,192,128362,1,0,0:0:0:0:
36,192,128362,128,0,129588:0:0:0:0:
182,192,128362,128,0,128689:0:0:0:0:
329,192,128525,128,0,128852:0:0:0:0:
182,192,128852,128,0,129588:0:0:0:0:
329,192,129016,128,0,129588:0:0:0:0:
475,192,129343,128,0,129588:0:0:0:0:
36,192,129670,1,0,0:0:0:0:
182,192,129670,1,0,0:0:0:0:
329,192,129670,1,0,0:0:0:0:
475,192,129670,1,0,0:0:0:0:
256,192,129833,1,0,0:0:0:0:
402,192,129997,1,0,0:0:0:0:
109,192,130160,1,0,0:0:0:0:
329,192,130324,1,0,0:0:0:0:
182,192,130487,1,0,0:0:0:0:
402,192,130651,1,0,0:0:0:0:
109,192,130814,1,0,0:0:0:0:
329,192,130978,1,0,0:0:0:0:
36,192,131141,1,0,0:0:0:0:
402,192,131305,1,0,0:0:0:0:
182,192,131468,1,0,0:0:0:0:
475,192,131632,1,0,0:0:0:0:
256,192,131795,1,0,0:0:0:0:
402,192,131959,1,0,0:0:0:0:
109,192,131959,1,0,0:0:0:0:
182,192,132122,1,0,0:0:0:0:
329,192,132286,1,0,0:0:0:0:
36,192,132286,1,0,0:0:0:0:
256,192,132449,1,0,0:0:0:0:
182,192,132613,1,0,0:0:0:0:
402,192,132776,1,0,0:0:0:0:
109,192,132940,1,0,0:0:0:0:
329,192,133103,1,0,0:0:0:0:
475,192,133267,1,0,0:0:0:0:
36,192,133430,1,0,0:0:0:0:
182,192,133594,1,0,0:0:0:0:
475,192,133757,1,0,0:0:0:0:
329,192,133921,1,0,0:0:0:0:
182,192,134084,1,0,0:0:0:0:
109,192,134248,1,0,0:0:0:0:
329,192,134411,1,0,0:0:0:0:
402,192,134575,1,0,0:0:0:0:
182,192,134738,1,0,0:0:0:0:
256,192,134901,1,0,0:0:0:0:
36,192,134901,1,0,0:0:0:0:
329,192,135065,1,0,0:0:0:0:
182,192,135228,1,0,0:0:0:0:
402,192,135228,1,0,0:0:0:0:
256,192,135392,1,0,0:0:0:0:
329,192,135555,1,0,0:0:0:0:
36,192,135555,1,0,0:0:0:0:
182,192,135719,1,0,0:0:0:0:
109,192,135882,1,0,0:0:0:0:
475,192,135882,1,0,0:0:0:0:
329,192,136046,1,0,0:0:0:0:
402,192,136209,1,0,0:0:0:0:
36,192,136209,1,0,0:0:0:0:
182,192,136373,1,0,0:0:0:0:
109,192,136536,1,0,0:0:0:0:
475,192,136536,1,0,0:0:0:0:
329,192,136700,1,0,0:0:0:0:
182,192,136863,1,0,0:0:0:0:
402,192,136863,1,0,0:0:0:0:
256,192,137027,1,0,0:0:0:0:
329,192,137190,1,0,0:0:0:0:
109,192,137190,1,0,0:0:0:0:
182,192,137354,1,0,0:0:0:0:
402,192,137517,1,0,0:0:0:0:
36,192,137517,1,0,0:0:0:0:
256,192,137681,1,0,0:0:0:0:
182,192,137844,1,0,0:0:0:0:
475,192,137844,1,0,0:0:0:0:
329,192,138008,1,0,0:0:0:0:
402,192,138171,1,0,0:0:0:0:
182,192,138335,1,0,0:0:0:0:
109,192,138498,1,0,0:0:0:0:
329,192,138662,1,0,0:0:0:0:
475,192,138825,1,0,0:0:0:0:
109,192,138989,1,0,0:0:0:0:
256,192,139152,1,0,0:0:0:0:
402,192,139316,1,0,0:0:0:0:
36,192,139479,1,0,0:0:0:0:
329,192,139643,1,0,0:0:0:0:
475,192,139806,1,0,0:0:0:0:
36,192,140133,1,0,0:0:0:0:
109,192,140133,1,0,0:0:0:0:
402,192,140133,1,0,0:0:0:0:
475,192,140133,1,0,0:0:0:0:
182,192,140174,1,0,0:0:0:0:
256,192,140215,1,0,0:0:0:0:
329,192,140256,1,0,0:0:0:0:
402,192,140297,1,0,0:0:0:0:
109,192,140337,1,0,0:0:0:0:
182,192,140378,1,0,0:0:0:0:
256,192,140419,1,0,0:0:0:0:
329,192,140460,1,0,0:0:0:0:
475,192,140460,1,0,0:0:0:0:
36,192,140460,1,0,0:0:0:0:
109,192,140501,1,0,0:0:0:0:
182,192,140542,1,0,0:0:0:0:
329,192,140583,1,0,0:0:0:0:
402,192,140624,1,0,0:0:0:0:
475,192,140664,1,0,0:0:0:0:
182,192,140705,1,0,0:0:0:0:
256,192,140746,1,0,0:0:0:0:
329,192,140787,1,0,0:0:0:0:
109,192,140787,1,0,0:0:0:0:
36,192,140787,1,0,0:0:0:0:
256,192,140951,1,0,0:0:0:0:
182,192,141114,1,0,0:0:0:0:
36,192,141114,1,0,0:0:0:0:
402,192,141114,1,0,0:0:0:0:
256,192,141278,1,0,0:0:0:0:
36,192,141441,1,0,0:0:0:0:
402,192,141441,1,0,0:0:0:0:
475,192,141441,1,0,0:0:0:0:
109,192,141441,1,0,0:0:0:0:
329,192,141482,1,0,0:0:0:0:
256,192,141523,1,0,0:0:0:0:
182,192,141564,1,0,0:0:0:0:
109,192,141604,1,0,0:0:0:0:
402,192,141645,1,0,0:0:0:0:
329,192,141686,1,0,0:0:0:0:
256,192,141727,1,0,0:0:0:0:
182,192,141768,1,0,0:0:0:0:
36,192,141768,1,0,0:0:0:0:
475,192,141768,1,0,0:0:0:0:
256,192,141931,1,0,0:0:0:0:
182,192,142095,1,0,0:0:0:0:
329,192,142095,1,0,0:0:0:0:
475,192,142095,1,0,0:0:0:0:
256,192,142258,1,0,0:0:0:0:
329,192,142422,1,0,0:0:0:0:
475,192,142422,1,0,0:0:0:0:
109,192,142422,1,0,0:0:0:0:
182,192,142585,1,0,0:0:0:0:
36,192,142749,1,0,0:0:0:0:
109,192,142749,1,0,0:0:0:0:
402,192,142749,1,0,0:0:0:0:
475,192,142749,1,0,0:0:0:0:
182,192,142790,1,0,0:0:0:0:
256,192,142831,1,0,0:0:0:0:
329,192,142872,1,0,0:0:0:0:
402,192,142912,1,0,0:0:0:0:
109,192,142953,1,0,0:0:0:0:
182,192,142994,1,0,0:0:0:0:
256,192,143035,1,0,0:0:0:0:
329,192,143076,1,0,0:0:0:0:
475,192,143076,1,0,0:0:0:0:
36,192,143076,1,0,0:0:0:0:
109,192,143117,1,0,0:0:0:0:
182,192,143158,1,0,0:0:0:0:
329,192,143198,1,0,0:0:0:0:
402,192,143239,1,0,0:0:0:0:
475,192,143280,1,0,0:0:0:0:
109,192,143321,1,0,0:0:0:0:
182,192,143362,1,0,0:0:0:0:
402,192,143403,1,0,0:0:0:0:
36,192,143403,1,0,0:0:0:0:
256,192,143403,1,0,0:0:0:0:
329,192,143566,1,0,0:0:0:0:
182,192,143730,1,0,0:0:0:0:
475,192,143730,1,0,0:0:0:0:
36,192,143730,1,0,0:0:0:0:
109,192,143893,1,0,0:0:0:0:
256,192,143893,1,0,0:0:0:0:
182,192,144057,1,0,0:0:0:0:
329,192,144057,1,0,0:0:0:0:
475,192,144057,1,0,0:0:0:0:
256,192,144220,1,0,0:0:0:0:
402,192,144220,1,0,0:0:0:0:
109,192,144384,1,0,0:0:0:0:
36,192,144384,1,0,0:0:0:0:
329,192,144384,1,0,0:0:0:0:
182,192,144547,1,0,0:0:0:0:
402,192,144547,1,0,0:0:0:0:
256,192,144711,1,0,0:0:0:0:
475,192,144711,1,0,0:0:0:0:
109,192,144711,1,0,0:0:0:0:
182,192,144874,1,0,0:0:0:0:
329,192,144874,1,0,0:0:0:0:
256,192,145038,1,0,0:0:0:0:
402,192,145038,1,0,0:0:0:0:
36,192,145038,1,0,0:0:0:0:
182,192,145201,1,0,0:0:0:0:
109,192,145365,1,0,0:0:0:0:
402,192,145365,1,0,0:0:0:0:
475,192,145365,1,0,0:0:0:0:
36,192,145365,1,0,0:0:0:0:
329,192,145406,1,0,0:0:0:0:
256,192,145446,1,0,0:0:0:0:
182,192,145487,1,0,0:0:0:0:
109,192,145528,1,0,0:0:0:0:
402,192,145569,1,0,0:0:0:0:
329,192,145610,1,0,0:0:0:0:
256,192,145651,1,0,0:0:0:0:
182,192,145692,1,0,0:0:0:0:
475,192,145692,1,0,0:0:0:0:
36,192,145692,1,0,0:0:0:0:
402,192,145733,1,0,0:0:0:0:
329,192,145773,1,0,0:0:0:0:
182,192,145814,1,0,0:0:0:0:
109,192,145855,1,0,0:0:0:0:
36,192,145896,1,0,0:0:0:0:
329,192,145937,1,0,0:0:0:0:
256,192,145978,1,0,0:0:0:0:
182,192,146019,1,0,0:0:0:0:
109,192,146019,1,0,0:0:0:0:
402,192,146019,1,0,0:0:0:0:
256,192,146182,1,0,0:0:0:0:
182,192,146346,1,0,0:0:0:0:
329,192,146346,1,0,0:0:0:0:
475,192,146346,1,0,0:0:0:0:
256,192,146509,1,0,0:0:0:0:
36,192,146673,1,0,0:0:0:0:
109,192,146673,1,0,0:0:0:0:
402,192,146673,1,0,0:0:0:0:
475,192,146673,1,0,0:0:0:0:
182,192,146713,1,0,0:0:0:0:
256,192,146754,1,0,0:0:0:0:
329,192,146795,1,0,0:0:0:0:
402,192,146836,1,0,0:0:0:0:
109,192,146877,1,0,0:0:0:0:
182,192,146918,1,0,0:0:0:0:
256,192,146959,1,0,0:0:0:0:
329,192,147000,1,0,0:0:0:0:
475,192,147000,1,0,0:0:0:0:
36,192,147000,1,0,0:0:0:0:
182,192,147163,1,0,0:0:0:0:
109,192,147327,1,0,0:0:0:0:
256,192,147327,1,0,0:0:0:0:
475,192,147327,1,0,0:0:0:0:
329,192,147490,1,0,0:0:0:0:
402,192,147490,1,0,0:0:0:0:
256,192,147654,1,0,0:0:0:0:
402,192,147654,1,0,0:0:0:0:
36,192,147654,1,0,0:0:0:0:
182,192,147817,1,0,0:0:0:0:
402,192,147981,1,0,0:0:0:0:
475,192,147981,1,0,0:0:0:0:
36,192,147981,1,0,0:0:0:0:
109,192,147981,1,0,0:0:0:0:
329,192,148021,1,0,0:0:0:0:
256,192,148062,1,0,0:0:0:0:
182,192,148103,1,0,0:0:0:0:
109,192,148144,1,0,0:0:0:0:
402,192,148185,1,0,0:0:0:0:
329,192,148226,1,0,0:0:0:0:
256,192,148267,1,0,0:0:0:0:
182,192,148307,1,0,0:0:0:0:
36,192,148307,1,0,0:0:0:0:
475,192,148307,1,0,0:0:0:0:
402,192,148348,1,0,0:0:0:0:
329,192,148389,1,0,0:0:0:0:
182,192,148430,1,0,0:0:0:0:
109,192,148471,1,0,0:0:0:0:
36,192,148512,1,0,0:0:0:0:
402,192,148553,1,0,0:0:0:0:
329,192,148594,1,0,0:0:0:0:
256,192,148634,1,0,0:0:0:0:
109,192,148634,1,0,0:0:0:0:
475,192,148634,1,0,0:0:0:0:
182,192,148798,1,0,0:0:0:0:
256,192,148961,1,0,0:0:0:0:
402,192,148961,1,0,0:0:0:0:
36,192,148961,1,0,0:0:0:0:
182,192,149125,1,0,0:0:0:0:
329,192,149125,1,0,0:0:0:0:
109,192,149288,1,0,0:0:0:0:
256,192,149288,1,0,0:0:0:0:
475,192,149288,1,0,0:0:0:0:
182,192,149452,1,0,0:0:0:0:
329,192,149452,1,0,0:0:0:0:
36,192,149615,1,0,0:0:0:0:
256,192,149615,1,0,0:0:0:0:
475,192,149615,1,0,0:0:0:0:
109,192,149779,1,0,0:0:0:0:
182,192,149779,1,0,0:0:0:0:
256,192,149942,1,0,0:0:0:0:
402,192,149942,1,0,0:0:0:0:
475,192,149942,1,0,0:0:0:0:
329,192,150106,1,0,0:0:0:0:
109,192,150106,1,0,0:0:0:0:
36,192,150269,1,0,0:0:0:0:
182,192,150269,1,0,0:0:0:0:
475,192,150269,1,0,0:0:0:0:
109,192,150433,1,0,0:0:0:0:
329,192,150433,1,0,0:0:0:0:
475,192,150596,128,0,150923:0:0:0:0:
36,192,150596,1,0,0:0:0:0:
182,192,150596,1,0,0:0:0:0:
256,192,150596,1,0,0:0:0:0:
402,192,150596,1,0,0:0:0:0:
109,192,150760,1,0,0:0:0:0:
329,192,150923,128,0,151250:0:0:0:0:
36,192,150923,1,0,0:0:0:0:
182,192,150923,1,0,0:0:0:0:
256,192,151087,1,0,0:0:0:0:
36,192,151250,128,0,151577:0:0:0:0:
182,192,151250,1,0,0:0:0:0:
475,192,151250,1,0,0:0:0:0:
329,192,151414,1,0,0:0:0:0:
182,192,151577,128,0,151904:0:0:0:0:
402,192,151577,1,0,0:0:0:0:
475,192,151577,1,0,0:0:0:0:
109,192,151577,1,0,0:0:0:0:
256,192,151741,1,0,0:0:0:0:
36,192,151904,128,0,152231:0:0:0:0:
329,192,151904,1,0,0:0:0:0:
475,192,151904,1,0,0:0:0:0:
256,192,152068,1,0,0:0:0:0:
109,192,152231,1,0,0:0:0:0:
329,192,152231,1,0,0:0:0:0:
475,192,152231,1,0,0:0:0:0:
256,192,152395,1,0,0:0:0:0:
182,192,152558,128,0,153212:0:0:0:0:
36,192,152558,1,0,0:0:0:0:
402,192,152558,1,0,0:0:0:0:
256,192,152722,1,0,0:0:0:0:
109,192,152885,1,0,0:0:0:0:
402,192,152885,1,0,0:0:0:0:
475,192,152885,1,0,0:0:0:0:
36,192,152885,1,0,0:0:0:0:
329,192,153049,128,0,153212:0:0:0:0:
475,192,153212,128,0,154193:0:0:0:0:
36,192,153212,1,0,0:0:0:0:
256,192,153212,1,0,0:0:0:0:
182,192,153376,1,0,0:0:0:0:
109,192,153539,1,0,0:0:0:0:
256,192,153539,1,0,0:0:0:0:
402,192,153539,1,0,0:0:0:0:
182,192,153703,1,0,0:0:0:0:
256,192,153866,1,0,0:0:0:0:
402,192,153866,1,0,0:0:0:0:
36,192,153866,1,0,0:0:0:0:
182,192,154030,1,0,0:0:0:0:
329,192,154193,128,0,154520:0:0:0:0:
109,192,154193,1,0,0:0:0:0:
36,192,154193,1,0,0:0:0:0:
402,192,154193,1,0,0:0:0:0:
256,192,154357,1,0,0:0:0:0:
182,192,154520,128,0,155501:0:0:0:0:
36,192,154520,1,0,0:0:0:0:
475,192,154520,1,0,0:0:0:0:
329,192,154684,1,0,0:0:0:0:
256,192,154847,1,0,0:0:0:0:
402,192,154847,1,0,0:0:0:0:
36,192,154847,1,0,0:0:0:0:
329,192,155010,1,0,0:0:0:0:
256,192,155174,1,0,0:0:0:0:
36,192,155174,1,0,0:0:0:0:
109,192,155174,1,0,0:0:0:0:
402,192,155337,1,0,0:0:0:0:
329,192,155501,1,0,0:0:0:0:
475,192,155501,1,0,0:0:0:0:
109,192,155501,1,0,0:0:0:0:
36,192,155501,1,0,0:0:0:0:
182,192,155664,1,0,0:0:0:0:
256,192,155828,128,0,156155:0:0:0:0:
36,192,155828,1,0,0:0:0:0:
402,192,155828,1,0,0:0:0:0:
182,192,155991,1,0,0:0:0:0:
402,192,156155,128,0,156482:0:0:0:0:
109,192,156155,1,0,0:0:0:0:
36,192,156155,1,0,0:0:0:0:
256,192,156318,1,0,0:0:0:0:
329,192,156482,128,0,156809:0:0:0:0:
182,192,156482,1,0,0:0:0:0:
36,192,156482,1,0,0:0:0:0:
402,192,156645,1,0,0:0:0:0:
182,192,156809,128,0,157136:0:0:0:0:
36,192,156809,1,0,0:0:0:0:
109,192,156809,1,0,0:0:0:0:
475,192,156809,1,0,0:0:0:0:
329,192,156972,1,0,0:0:0:0:
109,192,157136,128,0,157463:0:0:0:0:
256,192,157136,1,0,0:0:0:0:
475,192,157136,1,0,0:0:0:0:
329,192,157299,1,0,0:0:0:0:
256,192,157463,1,0,0:0:0:0:
36,192,157463,1,0,0:0:0:0:
402,192,157463,1,0,0:0:0:0:
329,192,157626,1,0,0:0:0:0:
182,192,157790,128,0,158117:0:0:0:0:
36,192,157790,1,0,0:0:0:0:
402,192,157790,1,0,0:0:0:0:
329,192,157953,1,0,0:0:0:0:
256,192,158117,128,0,158444:0:0:0:0:
109,192,158117,1,0,0:0:0:0:
36,192,158117,1,0,0:0:0:0:
402,192,158117,1,0,0:0:0:0:
182,192,158280,1,0,0:0:0:0:
329,192,158444,128,0,158771:0:0:0:0:
109,192,158444,1,0,0:0:0:0:
36,192,158444,1,0,0:0:0:0:
256,192,158607,1,0,0:0:0:0:
36,192,158771,1,0,0:0:0:0:
182,192,158771,1,0,0:0:0:0:
475,192,158771,1,0,0:0:0:0:
329,192,158934,1,0,0:0:0:0:
182,192,159098,128,0,159752:0:0:0:0:
36,192,159098,1,0,0:0:0:0:
475,192,159098,1,0,0:0:0:0:
256,192,159261,1,0,0:0:0:0:
329,192,159343,1,0,0:0:0:0:
402,192,159425,1,0,0:0:0:0:
109,192,159425,1,0,0:0:0:0:
36,192,159425,1,0,0:0:0:0:
475,192,159425,1,0,0:0:0:0:
329,192,159588,1,0,0:0:0:0:
256,192,159752,128,0,160406:0:0:0:0:
36,192,159752,1,0,0:0:0:0:
402,192,159752,1,0,0:0:0:0:
182,192,159915,1,0,0:0:0:0:
109,192,160079,1,0,0:0:0:0:
36,192,160079,1,0,0:0:0:0:
402,192,160079,1,0,0:0:0:0:
182,192,160242,1,0,0:0:0:0:
109,192,160406,1,0,0:0:0:0:
402,192,160406,1,0,0:0:0:0:
182,192,160569,1,0,0:0:0:0:
329,192,160569,1,0,0:0:0:0:
109,192,160651,1,0,0:0:0:0:
402,192,160651,1,0,0:0:0:0:
475,192,160733,1,0,0:0:0:0:
36,192,160733,1,0,0:0:0:0:
256,192,160733,1,0,0:0:0:0:
182,192,160814,1,0,0:0:0:0:
329,192,160814,1,0,0:0:0:0:
109,192,160896,1,0,0:0:0:0:
402,192,160896,1,0,0:0:0:0:
329,192,160978,1,0,0:0:0:0:
182,192,160978,1,0,0:0:0:0:
109,192,161060,1,0,0:0:0:0:
256,192,161060,1,0,0:0:0:0:
402,192,161060,1,0,0:0:0:0:
475,192,161060,128,0,161305:0:0:0:0:
36,192,161060,128,0,161305:0:0:0:0:
36,192,161387,1,0,0:0:0:0:
109,192,161387,1,0,0:0:0:0:
475,192,161387,1,0,0:0:0:0:
402,192,161387,1,0,0:0:0:0:
182,192,161468,1,0,0:0:0:0:
329,192,161468,1,0,0:0:0:0:
109,192,161550,1,0,0:0:0:0:
402,192,161550,1,0,0:0:0:0:
182,192,161632,1,0,0:0:0:0:
329,192,161632,1,0,0:0:0:0:
109,192,161713,1,0,0:0:0:0:
256,192,161713,1,0,0:0:0:0:
402,192,161713,1,0,0:0:0:0:
36,192,161713,128,0,162040:0:0:0:0:
475,192,161713,128,0,162040:0:0:0:0:
109,192,162040,1,0,0:0:0:0:
182,192,162040,1,0,0:0:0:0:
329,192,162122,1,0,0:0:0:0:
402,192,162122,1,0,0:0:0:0:
109,192,162204,1,0,0:0:0:0:
182,192,162204,1,0,0:0:0:0:
329,192,162286,1,0,0:0:0:0:
402,192,162286,1,0,0:0:0:0:
36,192,162367,1,0,0:0:0:0:
109,192,162367,1,0,0:0:0:0:
182,192,162367,1,0,0:0:0:0:
256,192,162367,1,0,0:0:0:0:
402,192,162449,1,0,0:0:0:0:
475,192,162449,1,0,0:0:0:0:
256,192,162531,1,0,0:0:0:0:
329,192,162531,1,0,0:0:0:0:
109,192,162613,1,0,0:0:0:0:
182,192,162613,1,0,0:0:0:0:
329,192,162694,1,0,0:0:0:0:
402,192,162694,1,0,0:0:0:0:
36,192,162776,1,0,0:0:0:0:
109,192,162776,1,0,0:0:0:0:
256,192,162858,1,0,0:0:0:0:
182,192,162858,1,0,0:0:0:0:
402,192,162940,1,0,0:0:0:0:
475,192,162940,1,0,0:0:0:0:
109,192,163021,1,0,0:0:0:0:
182,192,163021,1,0,0:0:0:0:
329,192,163103,1,0,0:0:0:0:
475,192,163103,1,0,0:0:0:0:
182,192,163185,1,0,0:0:0:0:
36,192,163185,1,0,0:0:0:0:
329,192,163267,1,0,0:0:0:0:
402,192,163267,1,0,0:0:0:0:
36,192,163348,1,0,0:0:0:0:
109,192,163348,1,0,0:0:0:0:
256,192,163348,1,0,0:0:0:0:
475,192,163348,1,0,0:0:0:0:
402,192,163430,1,0,0:0:0:0:
329,192,163512,1,0,0:0:0:0:
256,192,163594,1,0,0:0:0:0:
109,192,163675,1,0,0:0:0:0:
36,192,163675,1,0,0:0:0:0:
182,192,163675,1,0,0:0:0:0:
402,192,163675,1,0,0:0:0:0:
475,192,163675,1,0,0:0:0:0:
329,192,163757,1,0,0:0:0:0:
256,192,163839,1,0,0:0:0:0:
36,192,163839,1,0,0:0:0:0:
109,192,163839,1,0,0:0:0:0:
182,192,163921,1,0,0:0:0:0:
109,192,164002,1,0,0:0:0:0:
36,192,164002,1,0,0:0:0:0:
329,192,164002,1,0,0:0:0:0:
475,192,164002,1,0,0:0:0:0:
256,192,164084,1,0,0:0:0:0:
402,192,164166,1,0,0:0:0:0:
109,192,164166,1,0,0:0:0:0:
182,192,164248,1,0,0:0:0:0:
329,192,164248,1,0,0:0:0:0:
109,192,164329,1,0,0:0:0:0:
36,192,164329,1,0,0:0:0:0:
256,192,164329,1,0,0:0:0:0:
402,192,164411,1,0,0:0:0:0:
182,192,164493,1,0,0:0:0:0:
109,192,164493,1,0,0:0:0:0:
329,192,164493,1,0,0:0:0:0:
256,192,164575,1,0,0:0:0:0:
182,192,164656,1,0,0:0:0:0:
36,192,164656,1,0,0:0:0:0:
402,192,164656,1,0,0:0:0:0:
475,192,164656,1,0,0:0:0:0:
329,192,164738,1,0,0:0:0:0:
256,192,164820,1,0,0:0:0:0:
182,192,164901,1,0,0:0:0:0:
109,192,164983,1,0,0:0:0:0:
36,192,164983,1,0,0:0:0:0:
329,192,164983,1,0,0:0:0:0:
475,192,164983,1,0,0:0:0:0:
256,192,165065,1,0,0:0:0:0:
109,192,165147,1,0,0:0:0:0:
182,192,165147,1,0,0:0:0:0:
402,192,165147,1,0,0:0:0:0:
329,192,165228,1,0,0:0:0:0:
256,192,165310,1,0,0:0:0:0:
36,192,165310,1,0,0:0:0:0:
109,192,165310,1,0,0:0:0:0:
475,192,165310,1,0,0:0:0:0:
182,192,165392,1,0,0:0:0:0:
256,192,165474,1,0,0:0:0:0:
402,192,165474,1,0,0:0:0:0:
329,192,165555,1,0,0:0:0:0:
182,192,165555,1,0,0:0:0:0:
109,192,165637,1,0,0:0:0:0:
36,192,165637,1,0,0:0:0:0:
256,192,165637,1,0,0:0:0:0:
402,192,165719,1,0,0:0:0:0:
36,192,165801,1,0,0:0:0:0:
329,192,165801,1,0,0:0:0:0:
256,192,165801,1,0,0:0:0:0:
182,192,165882,1,0,0:0:0:0:
109,192,165964,1,0,0:0:0:0:
36,192,165964,1,0,0:0:0:0:
329,192,165964,1,0,0:0:0:0:
475,192,165964,1,0,0:0:0:0:
182,192,166046,1,0,0:0:0:0:
256,192,166128,1,0,0:0:0:0:
475,192,166128,1,0,0:0:0:0:
402,192,166128,1,0,0:0:0:0:
182,192,166209,1,0,0:0:0:0:
36,192,166291,1,0,0:0:0:0:
109,192,166291,1,0,0:0:0:0:
329,192,166291,1,0,0:0:0:0:
256,192,166373,1,0,0:0:0:0:
182,192,166455,1,0,0:0:0:0:
36,192,166455,1,0,0:0:0:0:
475,192,166455,1,0,0:0:0:0:
329,192,166536,1,0,0:0:0:0:
256,192,166618,1,0,0:0:0:0:
109,192,166618,1,0,0:0:0:0:
36,192,166618,1,0,0:0:0:0:
402,192,166618,1,0,0:0:0:0:
182,192,166700,1,0,0:0:0:0:
329,192,166782,1,0,0:0:0:0:
402,192,166782,1,0,0:0:0:0:
256,192,166863,1,0,0:0:0:0:
109,192,166863,1,0,0:0:0:0:
182,192,166945,1,0,0:0:0:0:
329,192,166945,1,0,0:0:0:0:
402,192,166945,1,0,0:0:0:0:
256,192,167027,1,0,0:0:0:0:
182,192,167109,1,0,0:0:0:0:
36,192,167109,1,0,0:0:0:0:
402,192,167109,1,0,0:0:0:0:
329,192,167190,1,0,0:0:0:0:
256,192,167272,1,0,0:0:0:0:
109,192,167272,1,0,0:0:0:0:
36,192,167272,1,0,0:0:0:0:
475,192,167272,1,0,0:0:0:0:
182,192,167354,1,0,0:0:0:0:
329,192,167436,1,0,0:0:0:0:
256,192,167517,1,0,0:0:0:0:
109,192,167599,1,0,0:0:0:0:
36,192,167599,1,0,0:0:0:0:
402,192,167599,1,0,0:0:0:0:
182,192,167681,1,0,0:0:0:0:
256,192,167763,1,0,0:0:0:0:
402,192,167763,1,0,0:0:0:0:
36,192,167763,1,0,0:0:0:0:
182,192,167844,1,0,0:0:0:0:
402,192,167926,1,0,0:0:0:0:
475,192,167926,1,0,0:0:0:0:
329,192,167926,128,0,168008:0:0:0:0:
36,192,167926,128,0,168008:0:0:0:0:
109,192,168008,128,0,168090:0:0:0:0:
256,192,168008,128,0,168090:0:0:0:0:
182,192,168090,128,0,168171:0:0:0:0:
402,192,168090,128,0,168171:0:0:0:0:
329,192,168171,128,0,168253:0:0:0:0:
109,192,168171,128,0,168253:0:0:0:0:
36,192,168253,128,0,168335:0:0:0:0:
256,192,168253,128,0,168335:0:0:0:0:
182,192,168335,128,0,168416:0:0:0:0:
402,192,168335,128,0,168416:0:0:0:0:
109,192,168416,128,0,168498:0:0:0:0:
329,192,168416,128,0,168498:0:0:0:0:
256,192,168498,128,0,168580:0:0:0:0:
402,192,168498,128,0,168580:0:0:0:0:
36,192,168580,128,0,168662:0:0:0:0:
329,192,168580,128,0,168662:0:0:0:0:
182,192,168662,128,0,168743:0:0:0:0:
256,192,168662,128,0,168743:0:0:0:0:
109,192,168743,128,0,168825:0:0:0:0:
402,192,168743,128,0,168825:0:0:0:0:
182,192,168825,128,0,168907:0:0:0:0:
329,192,168825,128,0,168907:0:0:0:0:
36,192,168907,1,0,0:0:0:0:
109,192,168907,1,0,0:0:0:0:
256,192,168907,1,0,0:0:0:0:
402,192,168907,1,0,0:0:0:0:
475,192,168907,128,0,169561:0:0:0:0:
182,192,168989,1,0,0:0:0:0:
256,192,169070,1,0,0:0:0:0:
402,192,169070,1,0,0:0:0:0:
182,192,169152,1,0,0:0:0:0:
109,192,169234,1,0,0:0:0:0:
36,192,169234,1,0,0:0:0:0:
329,192,169234,1,0,0:0:0:0:
256,192,169316,1,0,0:0:0:0:
182,192,169397,1,0,0:0:0:0:
402,192,169397,1,0,0:0:0:0:
329,192,169479,1,0,0:0:0:0:
256,192,169479,1,0,0:0:0:0:
36,192,169561,128,0,169724:0:0:0:0:
109,192,169561,1,0,0:0:0:0:
182,192,169561,1,0,0:0:0:0:
329,192,169643,1,0,0:0:0:0:
182,192,169724,128,0,169888:0:0:0:0:
256,192,169724,1,0,0:0:0:0:
402,192,169724,1,0,0:0:0:0:
109,192,169806,1,0,0:0:0:0:
329,192,169888,128,0,170051:0:0:0:0:
36,192,169888,1,0,0:0:0:0:
475,192,169888,1,0,0:0:0:0:
256,192,169970,1,0,0:0:0:0:
182,192,170051,128,0,170215:0:0:0:0:
475,192,170051,1,0,0:0:0:0:
329,192,170133,1,0,0:0:0:0:
402,192,170133,1,0,0:0:0:0:
36,192,170215,128,0,170378:0:0:0:0:
256,192,170215,1,0,0:0:0:0:
109,192,170215,1,0,0:0:0:0:
402,192,170297,1,0,0:0:0:0:
182,192,170378,128,0,170542:0:0:0:0:
329,192,170378,1,0,0:0:0:0:
256,192,170460,1,0,0:0:0:0:
475,192,170542,128,0,170705:0:0:0:0:
109,192,170542,1,0,0:0:0:0:
36,192,170542,1,0,0:0:0:0:
256,192,170624,1,0,0:0:0:0:
329,192,170705,128,0,170869:0:0:0:0:
109,192,170705,1,0,0:0:0:0:
182,192,170787,1,0,0:0:0:0:
256,192,170787,1,0,0:0:0:0:
109,192,170869,1,0,0:0:0:0:
36,192,170869,1,0,0:0:0:0:
402,192,170869,1,0,0:0:0:0:
256,192,170951,1,0,0:0:0:0:
182,192,171032,1,0,0:0:0:0:
329,192,171032,1,0,0:0:0:0:
475,192,171032,1,0,0:0:0:0:
256,192,171114,1,0,0:0:0:0:
182,192,171196,1,0,0:0:0:0:
36,192,171196,1,0,0:0:0:0:
402,192,171196,1,0,0:0:0:0:
475,192,171196,1,0,0:0:0:0:
329,192,171278,1,0,0:0:0:0:
256,192,171359,1,0,0:0:0:0:
182,192,171441,1,0,0:0:0:0:
36,192,171523,128,0,171604:0:0:0:0:
109,192,171564,128,0,171645:0:0:0:0:
182,192,171604,128,0,171686:0:0:0:0:
329,192,171645,128,0,171727:0:0:0:0:
402,192,171686,128,0,171768:0:0:0:0:
475,192,171727,128,0,171768:0:0:0:0:
109,192,171768,128,0,171850:0:0:0:0:
182,192,171809,128,0,171850:0:0:0:0:
402,192,171850,1,0,0:0:0:0:
475,192,171850,1,0,0:0:0:0:
256,192,171850,1,0,0:0:0:0:
36,192,171891,128,0,172013:0:0:0:0:
109,192,171931,128,0,172013:0:0:0:0:
182,192,171972,128,0,172013:0:0:0:0:
475,192,172013,128,0,172095:0:0:0:0:
402,192,172054,128,0,172136:0:0:0:0:
329,192,172095,128,0,172177:0:0:0:0:
256,192,172136,128,0,172177:0:0:0:0:
182,192,172177,128,0,172258:0:0:0:0:
475,192,172177,128,0,172258:0:0:0:0:
402,192,172258,128,0,172340:0:0:0:0:
109,192,172258,128,0,172340:0:0:0:0:
329,192,172340,128,0,172422:0:0:0:0:
36,192,172340,128,0,172422:0:0:0:0:
256,192,172422,128,0,172504:0:0:0:0:
475,192,172422,128,0,172504:0:0:0:0:
402,192,172504,128,0,172585:0:0:0:0:
182,192,172504,128,0,172585:0:0:0:0:
329,192,172585,128,0,172667:0:0:0:0:
109,192,172585,128,0,172667:0:0:0:0:
36,192,172667,128,0,174139:0:0:0:0:
475,192,172667,128,0,172912:0:0:0:0:
256,192,172667,128,0,172912:0:0:0:0:
402,192,172667,128,0,172912:0:0:0:0:
182,192,172994,1,0,0:0:0:0:
256,192,172994,1,0,0:0:0:0:
402,192,172994,1,0,0:0:0:0:
475,192,172994,1,0,0:0:0:0:
182,192,173158,1,0,0:0:0:0:
256,192,173158,1,0,0:0:0:0:
402,192,173158,1,0,0:0:0:0:
475,192,173158,1,0,0:0:0:0:
182,192,173321,128,0,174139:0:0:0:0:
256,192,173321,128,0,174139:0:0:0:0:
402,192,173321,128,0,173566:0:0:0:0:
475,192,173321,128,0,173566:0:0:0:0:
402,192,173648,128,0,173730:0:0:0:0:
475,192,173648,128,0,173730:0:0:0:0:
402,192,173812,128,0,173893:0:0:0:0:
475,192,173812,128,0,173893:0:0:0:0:
402,192,173975,128,0,174057:0:0:0:0:
475,192,173975,128,0,174057:0:0:0:0:
402,192,174139,1,0,0:0:0:0:
475,192,174139,1,0,0:0:0:0:
402,192,174629,128,0,174956:0:0:0:0:
329,192,174956,128,0,175119:0:0:0:0:
109,192,175119,128,0,175283:0:0:0:0:
182,192,175283,128,0,175446:0:0:0:0:
329,192,175446,128,0,175773:0:0:0:0:
109,192,175446,1,0,0:0:0:0:
256,192,175446,1,0,0:0:0:0:
475,192,175446,1,0,0:0:0:0:
36,192,175446,128,0,176264:0:0:0:0:
475,192,175773,128,0,175937:0:0:0:0:
329,192,175937,128,0,176264:0:0:0:0:
182,192,176264,128,0,176427:0:0:0:0:
36,192,176427,128,0,177081:0:0:0:0:
182,192,176591,128,0,177081:0:0:0:0:
475,192,176754,128,0,177408:0:0:0:0:
329,192,176754,1,0,0:0:0:0:
182,192,177245,128,0,177408:0:0:0:0:
36,192,177408,128,0,177735:0:0:0:0:
256,192,177408,128,0,178062:0:0:0:0:
182,192,177572,128,0,177735:0:0:0:0:
329,192,177735,128,0,177899:0:0:0:0:
475,192,177899,128,0,178062:0:0:0:0:
329,192,178062,128,0,178389:0:0:0:0:
182,192,178062,1,0,0:0:0:0:
36,192,178062,128,0,178880:0:0:0:0:
475,192,178389,128,0,178553:0:0:0:0:
329,192,178553,128,0,178880:0:0:0:0:
182,192,178880,128,0,179207:0:0:0:0:
36,192,179043,128,0,179207:0:0:0:0:
109,192,179207,128,0,179697:0:0:0:0:
256,192,179207,1,0,0:0:0:0:
329,192,179288,1,0,0:0:0:0:
475,192,179370,128,0,181986:0:0:0:0:
402,192,179370,1,0,0:0:0:0:
329,192,179861,128,0,180351:0:0:0:0:
182,192,180188,128,0,180678:0:0:0:0:
36,192,180351,128,0,181986:0:0:0:0:
329,192,180515,128,0,180678:0:0:0:0:
256,192,180678,128,0,181986:0:0:0:0:
182,192,181986,1,0,0:0:0:0:
109,192,181986,1,0,0:0:0:0:
329,192,181986,1,0,0:0:0:0:
402,192,181986,1,0,0:0:0:0:
182,192,182149,5,0,0:0:0:0:
109,192,182149,1,0,0:0:0:0:
402,192,182149,1,0,0:0:0:0:
329,192,182149,1,0,0:0:0:0:
256,192,182476,1,0,0:0:0:0:
182,192,182476,1,0,0:0:0:0:
109,192,182476,1,0,0:0:0:0:
329,192,182476,1,0,0:0:0:0:
402,192,182476,1,0,0:0:0:0:
475,192,183294,5,0,0:0:0:0:
329,192,183294,1,0,0:0:0:0:
36,192,183294,1,0,0:0:0:0:
402,192,183294,1,0,0:0:0:0:
256,192,183294,1,0,0:0:0:0:
182,192,183294,1,0,0:0:0:0:
109,192,183376,1,0,0:0:0:0:
182,192,183457,1,0,0:0:0:0:
402,192,183457,1,0,0:0:0:0:
475,192,183457,1,0,0:0:0:0:
256,192,183539,1,0,0:0:0:0:
329,192,183621,1,0,0:0:0:0:
402,192,183621,1,0,0:0:0:0:
109,192,183621,1,0,0:0:0:0:
36,192,183621,1,0,0:0:0:0:
475,192,183621,1,0,0:0:0:0:
256,192,183703,1,0,0:0:0:0:
182,192,183784,1,0,0:0:0:0:
402,192,183784,1,0,0:0:0:0:
475,192,183784,1,0,0:0:0:0:
329,192,183866,1,0,0:0:0:0:
256,192,183948,1,0,0:0:0:0:
109,192,183948,1,0,0:0:0:0:
36,192,183948,1,0,0:0:0:0:
475,192,183948,1,0,0:0:0:0:
182,192,184030,1,0,0:0:0:0:
109,192,184111,1,0,0:0:0:0:
402,192,184111,1,0,0:0:0:0:
475,192,184111,1,0,0:0:0:0:
329,192,184193,1,0,0:0:0:0:
182,192,184275,1,0,0:0:0:0:
36,192,184275,1,0,0:0:0:0:
402,192,184275,1,0,0:0:0:0:
475,192,184275,1,0,0:0:0:0:
109,192,184275,1,0,0:0:0:0:
256,192,184357,1,0,0:0:0:0:
329,192,184438,1,0,0:0:0:0:
109,192,184438,1,0,0:0:0:0:
402,192,184438,1,0,0:0:0:0:
182,192,184520,1,0,0:0:0:0:
256,192,184602,1,0,0:0:0:0:
475,192,184602,1,0,0:0:0:0:
36,192,184602,1,0,0:0:0:0:
402,192,184602,1,0,0:0:0:0:
182,192,184684,1,0,0:0:0:0:
109,192,184765,1,0,0:0:0:0:
475,192,184765,1,0,0:0:0:0:
256,192,184765,1,0,0:0:0:0:
402,192,184847,1,0,0:0:0:0:
329,192,184929,1,0,0:0:0:0:
36,192,184929,1,0,0:0:0:0:
256,192,184929,1,0,0:0:0:0:
182,192,184929,1,0,0:0:0:0:
109,192,184929,1,0,0:0:0:0:
402,192,185010,1,0,0:0:0:0:
475,192,185092,1,0,0:0:0:0:
109,192,185092,1,0,0:0:0:0:
256,192,185092,1,0,0:0:0:0:
329,192,185174,1,0,0:0:0:0:
402,192,185256,1,0,0:0:0:0:
182,192,185256,1,0,0:0:0:0:
36,192,185256,1,0,0:0:0:0:
475,192,185256,1,0,0:0:0:0:
256,192,185337,1,0,0:0:0:0:
329,192,185419,1,0,0:0:0:0:
109,192,185419,1,0,0:0:0:0:
475,192,185419,1,0,0:0:0:0:
256,192,185501,1,0,0:0:0:0:
182,192,185583,1,0,0:0:0:0:
402,192,185583,1,0,0:0:0:0:
36,192,185583,1,0,0:0:0:0:
475,192,185583,1,0,0:0:0:0:
109,192,185583,1,0,0:0:0:0:
329,192,185664,1,0,0:0:0:0:
256,192,185746,1,0,0:0:0:0:
109,192,185746,1,0,0:0:0:0:
475,192,185746,1,0,0:0:0:0:
182,192,185828,1,0,0:0:0:0:
109,192,185910,1,0,0:0:0:0:
36,192,185910,1,0,0:0:0:0:
402,192,185910,1,0,0:0:0:0:
475,192,185910,1,0,0:0:0:0:
256,192,185991,1,0,0:0:0:0:
329,192,186073,1,0,0:0:0:0:
109,192,186073,1,0,0:0:0:0:
475,192,186073,1,0,0:0:0:0:
182,192,186155,1,0,0:0:0:0:
256,192,186237,1,0,0:0:0:0:
36,192,186237,1,0,0:0:0:0:
402,192,186237,1,0,0:0:0:0:
475,192,186237,1,0,0:0:0:0:
329,192,186237,1,0,0:0:0:0:
109,192,186318,1,0,0:0:0:0:
182,192,186400,1,0,0:0:0:0:
402,192,186400,1,0,0:0:0:0:
256,192,186400,1,0,0:0:0:0:
329,192,186482,1,0,0:0:0:0:
256,192,186564,1,0,0:0:0:0:
36,192,186564,1,0,0:0:0:0:
475,192,186564,1,0,0:0:0:0:
109,192,186564,1,0,0:0:0:0:
402,192,186645,1,0,0:0:0:0:
329,192,186727,1,0,0:0:0:0:
109,192,186727,1,0,0:0:0:0:
256,192,186809,1,0,0:0:0:0:
182,192,186891,1,0,0:0:0:0:
36,192,186891,1,0,0:0:0:0:
402,192,186891,1,0,0:0:0:0:
475,192,186891,1,0,0:0:0:0:
109,192,186891,1,0,0:0:0:0:
329,192,186972,1,0,0:0:0:0:
402,192,187054,1,0,0:0:0:0:
109,192,187054,1,0,0:0:0:0:
256,192,187054,1,0,0:0:0:0:
182,192,187136,1,0,0:0:0:0:
256,192,187218,1,0,0:0:0:0:
402,192,187218,1,0,0:0:0:0:
36,192,187218,1,0,0:0:0:0:
475,192,187218,1,0,0:0:0:0:
109,192,187299,1,0,0:0:0:0:
182,192,187381,1,0,0:0:0:0:
475,192,187381,1,0,0:0:0:0:
329,192,187463,1,0,0:0:0:0:
402,192,187545,1,0,0:0:0:0:
256,192,187545,1,0,0:0:0:0:
36,192,187545,1,0,0:0:0:0:
475,192,187545,1,0,0:0:0:0:
109,192,187545,1,0,0:0:0:0:
182,192,187626,1,0,0:0:0:0:
109,192,187708,1,0,0:0:0:0:
329,192,187708,1,0,0:0:0:0:
475,192,187708,1,0,0:0:0:0:
256,192,187790,1,0,0:0:0:0:
36,192,187872,1,0,0:0:0:0:
475,192,187872,1,0,0:0:0:0:
402,192,187872,1,0,0:0:0:0:
182,192,187872,1,0,0:0:0:0:
109,192,187872,1,0,0:0:0:0:
329,192,187953,1,0,0:0:0:0:
402,192,188035,1,0,0:0:0:0:
109,192,188035,1,0,0:0:0:0:
475,192,188035,1,0,0:0:0:0:
182,192,188117,1,0,0:0:0:0:
256,192,188198,1,0,0:0:0:0:
36,192,188198,1,0,0:0:0:0:
329,192,188198,1,0,0:0:0:0:
475,192,188198,1,0,0:0:0:0:
402,192,188198,1,0,0:0:0:0:
109,192,188280,1,0,0:0:0:0:
182,192,188362,1,0,0:0:0:0:
402,192,188362,1,0,0:0:0:0:
329,192,188362,1,0,0:0:0:0:
256,192,188444,1,0,0:0:0:0:
329,192,188525,1,0,0:0:0:0:
36,192,188525,1,0,0:0:0:0:
109,192,188525,1,0,0:0:0:0:
475,192,188525,1,0,0:0:0:0:
256,192,188607,1,0,0:0:0:0:
475,192,188689,1,0,0:0:0:0:
182,192,188689,1,0,0:0:0:0:
402,192,188689,1,0,0:0:0:0:
329,192,188771,1,0,0:0:0:0:
256,192,188852,1,0,0:0:0:0:
36,192,188852,1,0,0:0:0:0:
475,192,188852,1,0,0:0:0:0:
402,192,188852,1,0,0:0:0:0:
182,192,188934,1,0,0:0:0:0:
109,192,189016,1,0,0:0:0:0:
329,192,189016,1,0,0:0:0:0:
402,192,189016,1,0,0:0:0:0:
256,192,189098,1,0,0:0:0:0:
329,192,189179,1,0,0:0:0:0:
402,192,189179,1,0,0:0:0:0:
36,192,189179,1,0,0:0:0:0:
475,192,189179,1,0,0:0:0:0:
109,192,189261,1,0,0:0:0:0:
182,192,189343,1,0,0:0:0:0:
475,192,189343,1,0,0:0:0:0:
256,192,189343,1,0,0:0:0:0:
329,192,189425,1,0,0:0:0:0:
402,192,189506,1,0,0:0:0:0:
36,192,189506,1,0,0:0:0:0:
109,192,189506,1,0,0:0:0:0:
475,192,189506,1,0,0:0:0:0:
256,192,189506,1,0,0:0:0:0:
182,192,189588,1,0,0:0:0:0:
256,192,189670,1,0,0:0:0:0:
402,192,189670,1,0,0:0:0:0:
36,192,189670,1,0,0:0:0:0:
109,192,189752,1,0,0:0:0:0:
36,192,189833,1,0,0:0:0:0:
475,192,189833,1,0,0:0:0:0:
402,192,189833,1,0,0:0:0:0:
182,192,189833,1,0,0:0:0:0:
329,192,189915,1,0,0:0:0:0:
256,192,189997,1,0,0:0:0:0:
109,192,189997,1,0,0:0:0:0:
475,192,189997,1,0,0:0:0:0:
182,192,190079,1,0,0:0:0:0:
109,192,190160,1,0,0:0:0:0:
36,192,190160,1,0,0:0:0:0:
402,192,190160,1,0,0:0:0:0:
475,192,190160,1,0,0:0:0:0:
256,192,190160,1,0,0:0:0:0:
329,192,190242,1,0,0:0:0:0:
402,192,190324,1,0,0:0:0:0:
109,192,190324,1,0,0:0:0:0:
256,192,190324,1,0,0:0:0:0:
182,192,190406,1,0,0:0:0:0:
256,192,190487,1,0,0:0:0:0:
36,192,190487,1,0,0:0:0:0:
402,192,190487,1,0,0:0:0:0:
475,192,190487,1,0,0:0:0:0:
109,192,190569,1,0,0:0:0:0:
182,192,190651,1,0,0:0:0:0:
402,192,190651,1,0,0:0:0:0:
475,192,190651,1,0,0:0:0:0:
256,192,190733,1,0,0:0:0:0:
329,192,190814,1,0,0:0:0:0:
109,192,190814,1,0,0:0:0:0:
36,192,190814,1,0,0:0:0:0:
402,192,190814,1,0,0:0:0:0:
475,192,190814,1,0,0:0:0:0:
256,192,190896,1,0,0:0:0:0:
182,192,190978,1,0,0:0:0:0:
109,192,190978,1,0,0:0:0:0:
475,192,190978,1,0,0:0:0:0:
402,192,191060,1,0,0:0:0:0:
329,192,191060,1,0,0:0:0:0:
182,192,191141,1,0,0:0:0:0:
36,192,191141,1,0,0:0:0:0:
256,192,191141,1,0,0:0:0:0:
475,192,191141,1,0,0:0:0:0:
256,192,191305,1,0,0:0:0:0:
402,192,191305,1,0,0:0:0:0:
182,192,191305,1,0,0:0:0:0:
109,192,191305,1,0,0:0:0:0:
329,192,191468,1,0,0:0:0:0:
109,192,191468,1,0,0:0:0:0:
36,192,191468,1,0,0:0:0:0:
475,192,191468,1,0,0:0:0:0:
256,192,191468,1,0,0:0:0:0:
402,192,191632,1,0,0:0:0:0:
329,192,191632,1,0,0:0:0:0:
182,192,191632,1,0,0:0:0:0:
109,192,191632,1,0,0:0:0:0:
109,192,191795,1,0,0:0:0:0:
36,192,191795,1,0,0:0:0:0:
402,192,191795,1,0,0:0:0:0:
475,192,191795,1,0,0:0:0:0:
329,192,191795,1,0,0:0:0:0:
182,192,191959,1,0,0:0:0:0:
109,192,191959,1,0,0:0:0:0:
475,192,191959,1,0,0:0:0:0:
329,192,191959,1,0,0:0:0:0:
329,192,192122,1,0,0:0:0:0:
36,192,192122,1,0,0:0:0:0:
475,192,192122,1,0,0:0:0:0:
182,192,192122,1,0,0:0:0:0:
256,192,192122,1,0,0:0:0:0:
182,192,192286,1,0,0:0:0:0:
475,192,192286,1,0,0:0:0:0:
36,192,192286,1,0,0:0:0:0:
256,192,192367,1,0,0:0:0:0:
329,192,192367,1,0,0:0:0:0:
109,192,192449,1,0,0:0:0:0:
36,192,192449,1,0,0:0:0:0:
475,192,192449,1,0,0:0:0:0:
402,192,192449,1,0,0:0:0:0:
182,192,192531,1,0,0:0:0:0:
329,192,192613,1,0,0:0:0:0:
256,192,192613,1,0,0:0:0:0:
475,192,192613,1,0,0:0:0:0:
182,192,192694,1,0,0:0:0:0:
109,192,192694,1,0,0:0:0:0:
36,192,192776,1,0,0:0:0:0:
329,192,192776,1,0,0:0:0:0:
402,192,192776,1,0,0:0:0:0:
256,192,192858,1,0,0:0:0:0:
109,192,192858,1,0,0:0:0:0:
182,192,192940,1,0,0:0:0:0:
329,192,192940,1,0,0:0:0:0:
475,192,192940,1,0,0:0:0:0:
256,192,193021,1,0,0:0:0:0:
329,192,193103,1,0,0:0:0:0:
109,192,193103,1,0,0:0:0:0:
36,192,193103,1,0,0:0:0:0:
182,192,193185,1,0,0:0:0:0:
402,192,193185,1,0,0:0:0:0:
475,192,193267,1,0,0:0:0:0:
36,192,193267,1,0,0:0:0:0:
256,192,193267,1,0,0:0:0:0:
182,192,193348,1,0,0:0:0:0:
329,192,193348,1,0,0:0:0:0:
36,192,193430,1,0,0:0:0:0:
402,192,193430,1,0,0:0:0:0:
475,192,193430,1,0,0:0:0:0:
329,192,193512,1,0,0:0:0:0:
109,192,193512,1,0,0:0:0:0:
256,192,193594,1,0,0:0:0:0:
182,192,193594,1,0,0:0:0:0:
402,192,193594,1,0,0:0:0:0:
329,192,193675,1,0,0:0:0:0:
36,192,193675,1,0,0:0:0:0:
402,192,193757,1,0,0:0:0:0:
109,192,193757,1,0,0:0:0:0:
475,192,193757,1,0,0:0:0:0:
182,192,193757,1,0,0:0:0:0:
256,192,193839,1,0,0:0:0:0:
329,192,193839,1,0,0:0:0:0:
109,192,193921,1,0,0:0:0:0:
475,192,193921,1,0,0:0:0:0:
36,192,193921,1,0,0:0:0:0:
182,192,194002,1,0,0:0:0:0:
256,192,194002,1,0,0:0:0:0:
36,192,194084,1,0,0:0:0:0:
475,192,194084,1,0,0:0:0:0:
329,192,194084,1,0,0:0:0:0:
109,192,194166,1,0,0:0:0:0:
256,192,194166,1,0,0:0:0:0:
182,192,194248,1,0,0:0:0:0:
402,192,194248,1,0,0:0:0:0:
475,192,194248,1,0,0:0:0:0:
329,192,194329,1,0,0:0:0:0:
109,192,194329,1,0,0:0:0:0:
256,192,194411,1,0,0:0:0:0:
36,192,194411,1,0,0:0:0:0:
475,192,194411,1,0,0:0:0:0:
402,192,194493,1,0,0:0:0:0:
182,192,194493,1,0,0:0:0:0:
256,192,194575,1,0,0:0:0:0:
109,192,194575,1,0,0:0:0:0:
329,192,194656,1,0,0:0:0:0:
402,192,194656,1,0,0:0:0:0:
475,192,194738,1,0,0:0:0:0:
109,192,194738,1,0,0:0:0:0:
36,192,194738,1,0,0:0:0:0:
182,192,194820,1,0,0:0:0:0:
256,192,194820,1,0,0:0:0:0:
329,192,194901,1,0,0:0:0:0:
402,192,194901,1,0,0:0:0:0:
36,192,194901,1,0,0:0:0:0:
109,192,194983,1,0,0:0:0:0:
256,192,194983,1,0,0:0:0:0:
182,192,195065,128,0,195147:0:0:0:0:
402,192,195065,128,0,195147:0:0:0:0:
475,192,195065,128,0,195147:0:0:0:0:
109,192,195147,128,0,195228:0:0:0:0:
329,192,195147,128,0,195228:0:0:0:0:
256,192,195228,128,0,195310:0:0:0:0:
36,192,195228,128,0,195310:0:0:0:0:
475,192,195228,128,0,195310:0:0:0:0:
182,192,195310,128,0,195392:0:0:0:0:
402,192,195310,128,0,195392:0:0:0:0:
109,192,195392,128,0,195474:0:0:0:0:
329,192,195392,128,0,195474:0:0:0:0:
36,192,195392,128,0,195474:0:0:0:0:
256,192,195474,128,0,195555:0:0:0:0:
475,192,195474,128,0,195555:0:0:0:0:
36,192,195555,128,0,195637:0:0:0:0:
182,192,195555,128,0,195637:0:0:0:0:
329,192,195555,128,0,195637:0:0:0:0:
256,192,195637,128,0,195719:0:0:0:0:
402,192,195637,128,0,195719:0:0:0:0:
36,192,195719,128,0,195801:0:0:0:0:
109,192,195719,128,0,195801:0:0:0:0:
475,192,195719,128,0,195801:0:0:0:0:
182,192,195801,128,0,195882:0:0:0:0:
256,192,195801,128,0,195882:0:0:0:0:
329,192,195882,128,0,195964:0:0:0:0:
402,192,195882,128,0,195964:0:0:0:0:
109,192,195882,128,0,195964:0:0:0:0:
182,192,195964,128,0,196046:0:0:0:0:
256,192,195964,128,0,196046:0:0:0:0:
36,192,196046,128,0,196128:0:0:0:0:
402,192,196046,128,0,196128:0:0:0:0:
475,192,196046,128,0,196128:0:0:0:0:
109,192,196128,128,0,196209:0:0:0:0:
182,192,196128,128,0,196209:0:0:0:0:
256,192,196209,128,0,196291:0:0:0:0:
329,192,196209,128,0,196291:0:0:0:0:
402,192,196209,128,0,196291:0:0:0:0:
109,192,196291,128,0,196373:0:0:0:0:
182,192,196291,128,0,196373:0:0:0:0:
475,192,196373,1,0,0:0:0:0:
402,192,196373,1,0,0:0:0:0:
329,192,196373,1,0,0:0:0:0:
36,192,196373,1,0,0:0:0:0:
182,192,196455,1,0,0:0:0:0:
256,192,196455,1,0,0:0:0:0:
402,192,196536,1,0,0:0:0:0:
36,192,196536,1,0,0:0:0:0:
109,192,196618,1,0,0:0:0:0:
256,192,196618,1,0,0:0:0:0:
182,192,196700,1,0,0:0:0:0:
402,192,196700,1,0,0:0:0:0:
475,192,196700,1,0,0:0:0:0:
256,192,196782,1,0,0:0:0:0:
329,192,196782,1,0,0:0:0:0:
402,192,196863,1,0,0:0:0:0:
109,192,196863,1,0,0:0:0:0:
36,192,196863,1,0,0:0:0:0:
329,192,196945,1,0,0:0:0:0:
182,192,196945,1,0,0:0:0:0:
256,192,197027,1,0,0:0:0:0:
475,192,197027,1,0,0:0:0:0:
36,192,197027,1,0,0:0:0:0:
402,192,197109,1,0,0:0:0:0:
182,192,197109,1,0,0:0:0:0:
329,192,197190,1,0,0:0:0:0:
109,192,197190,1,0,0:0:0:0:
475,192,197190,1,0,0:0:0:0:
256,192,197272,1,0,0:0:0:0:
182,192,197272,1,0,0:0:0:0:
109,192,197354,1,0,0:0:0:0:
36,192,197354,1,0,0:0:0:0:
402,192,197354,1,0,0:0:0:0:
329,192,197436,1,0,0:0:0:0:
256,192,197436,1,0,0:0:0:0:
402,192,197517,1,0,0:0:0:0:
109,192,197517,1,0,0:0:0:0:
475,192,197517,1,0,0:0:0:0:
182,192,197599,1,0,0:0:0:0:
256,192,197599,1,0,0:0:0:0:
36,192,197681,128,0,197763:0:0:0:0:
329,192,197681,128,0,197763:0:0:0:0:
402,192,197681,128,0,197763:0:0:0:0:
109,192,197763,128,0,197844:0:0:0:0:
256,192,197763,128,0,197844:0:0:0:0:
182,192,197844,128,0,197926:0:0:0:0:
402,192,197844,128,0,197926:0:0:0:0:
475,192,197844,128,0,197926:0:0:0:0:
256,192,197926,128,0,198008:0:0:0:0:
329,192,197926,128,0,198008:0:0:0:0:
36,192,198008,128,0,198090:0:0:0:0:
109,192,198008,128,0,198090:0:0:0:0:
402,192,198008,128,0,198090:0:0:0:0:
329,192,198090,128,0,198171:0:0:0:0:
182,192,198090,128,0,198171:0:0:0:0:
109,192,198171,128,0,198253:0:0:0:0:
256,192,198171,128,0,198253:0:0:0:0:
475,192,198171,128,0,198253:0:0:0:0:
182,192,198253,128,0,198335:0:0:0:0:
402,192,198253,128,0,198335:0:0:0:0:
36,192,198335,128,0,198416:0:0:0:0:
109,192,198335,128,0,198416:0:0:0:0:
256,192,198335,128,0,198416:0:0:0:0:
329,192,198416,128,0,198498:0:0:0:0:
402,192,198416,128,0,198498:0:0:0:0:
475,192,198416,128,0,198498:0:0:0:0:
36,192,198498,128,0,198580:0:0:0:0:
256,192,198498,128,0,198580:0:0:0:0:
109,192,198580,128,0,198662:0:0:0:0:
182,192,198662,128,0,198743:0:0:0:0:
329,192,198662,128,0,198743:0:0:0:0:
402,192,198662,128,0,198743:0:0:0:0:
475,192,198662,128,0,198743:0:0:0:0:
256,192,198743,128,0,198825:0:0:0:0:
182,192,198825,128,0,198907:0:0:0:0:
402,192,198825,128,0,198907:0:0:0:0:
329,192,198907,128,0,198989:0:0:0:0:
256,192,198989,1,0,0:0:0:0:
36,192,198989,1,0,0:0:0:0:
109,192,198989,1,0,0:0:0:0:
475,192,198989,1,0,0:0:0:0:
182,192,199070,1,0,0:0:0:0:
256,192,199152,1,0,0:0:0:0:
402,192,199152,1,0,0:0:0:0:
329,192,199152,1,0,0:0:0:0:
36,192,199152,1,0,0:0:0:0:
182,192,199234,1,0,0:0:0:0:
109,192,199316,1,0,0:0:0:0:
329,192,199316,1,0,0:0:0:0:
475,192,199316,1,0,0:0:0:0:
402,192,199316,1,0,0:0:0:0:
256,192,199397,1,0,0:0:0:0:
182,192,199479,1,0,0:0:0:0:
36,192,199479,1,0,0:0:0:0:
109,192,199479,1,0,0:0:0:0:
475,192,199479,1,0,0:0:0:0:
402,192,199561,1,0,0:0:0:0:
329,192,199643,1,0,0:0:0:0:
36,192,199643,1,0,0:0:0:0:
475,192,199643,1,0,0:0:0:0:
256,192,199643,1,0,0:0:0:0:
109,192,199724,1,0,0:0:0:0:
182,192,199806,1,0,0:0:0:0:
329,192,199806,128,0,199888:0:0:0:0:
402,192,199806,128,0,199888:0:0:0:0:
475,192,199806,128,0,199888:0:0:0:0:
256,192,199888,1,0,0:0:0:0:
329,192,199970,1,0,0:0:0:0:
36,192,199970,1,0,0:0:0:0:
402,192,199970,1,0,0:0:0:0:
109,192,200051,1,0,0:0:0:0:
256,192,200051,1,0,0:0:0:0:
182,192,200133,1,0,0:0:0:0:
402,192,200133,1,0,0:0:0:0:
475,192,200133,1,0,0:0:0:0:
329,192,200215,1,0,0:0:0:0:
256,192,200215,1,0,0:0:0:0:
182,192,200297,1,0,0:0:0:0:
109,192,200297,1,0,0:0:0:0:
36,192,200297,1,0,0:0:0:0:
402,192,200297,1,0,0:0:0:0:
329,192,200378,1,0,0:0:0:0:
256,192,200460,1,0,0:0:0:0:
36,192,200460,1,0,0:0:0:0:
475,192,200460,1,0,0:0:0:0:
402,192,200460,1,0,0:0:0:0:
109,192,200542,1,0,0:0:0:0:
182,192,200624,1,0,0:0:0:0:
402,192,200624,1,0,0:0:0:0:
475,192,200624,1,0,0:0:0:0:
36,192,200624,1,0,0:0:0:0:
256,192,200705,1,0,0:0:0:0:
329,192,200787,1,0,0:0:0:0:
36,192,200787,1,0,0:0:0:0:
475,192,200787,1,0,0:0:0:0:
109,192,200787,1,0,0:0:0:0:
256,192,200869,1,0,0:0:0:0:
182,192,200951,1,0,0:0:0:0:
402,192,200951,1,0,0:0:0:0:
475,192,200951,1,0,0:0:0:0:
109,192,200951,1,0,0:0:0:0:
329,192,201032,1,0,0:0:0:0:
256,192,201032,1,0,0:0:0:0:
475,192,201114,1,0,0:0:0:0:
36,192,201114,128,0,201196:0:0:0:0:
182,192,201114,128,0,201196:0:0:0:0:
109,192,201114,128,0,201196:0:0:0:0:
402,192,201196,1,0,0:0:0:0:
256,192,201196,1,0,0:0:0:0:
109,192,201278,1,0,0:0:0:0:
36,192,201278,1,0,0:0:0:0:
329,192,201278,1,0,0:0:0:0:
475,192,201278,1,0,0:0:0:0:
182,192,201359,1,0,0:0:0:0:
256,192,201441,1,0,0:0:0:0:
402,192,201441,1,0,0:0:0:0:
36,192,201441,1,0,0:0:0:0:
329,192,201523,1,0,0:0:0:0:
256,192,201604,1,0,0:0:0:0:
402,192,201604,1,0,0:0:0:0:
182,192,201604,1,0,0:0:0:0:
475,192,201604,1,0,0:0:0:0:
109,192,201604,1,0,0:0:0:0:
36,192,201604,1,0,0:0:0:0:
329,192,201768,1,0,0:0:0:0:
475,192,201931,1,0,0:0:0:0:
402,192,201931,1,0,0:0:0:0:
36,192,201931,1,0,0:0:0:0:
182,192,201931,1,0,0:0:0:0:
256,192,201931,1,0,0:0:0:0:
109,192,201931,1,0,0:0:0:0:
256,192,202095,1,0,0:0:0:0:
402,192,202258,1,0,0:0:0:0:
475,192,202258,1,0,0:0:0:0:
182,192,202258,1,0,0:0:0:0:
109,192,202258,1,0,0:0:0:0:
36,192,202258,1,0,0:0:0:0:
329,192,202258,1,0,0:0:0:0:
256,192,202422,1,0,0:0:0:0:
182,192,202585,1,0,0:0:0:0:
109,192,202585,1,0,0:0:0:0:
36,192,202585,1,0,0:0:0:0:
329,192,202585,1,0,0:0:0:0:
402,192,202585,1,0,0:0:0:0:
475,192,202585,1,0,0:0:0:0:
256,192,202749,1,0,0:0:0:0:
256,192,202912,1,0,0:0:0:0:
36,192,202912,1,0,0:0:0:0:
109,192,202912,1,0,0:0:0:0:
329,192,202912,1,0,0:0:0:0:
402,192,202912,1,0,0:0:0:0:
475,192,202912,1,0,0:0:0:0:
182,192,203076,1,0,0:0:0:0:
109,192,203239,1,0,0:0:0:0:
36,192,203239,1,0,0:0:0:0:
256,192,203239,1,0,0:0:0:0:
329,192,203239,1,0,0:0:0:0:
402,192,203239,1,0,0:0:0:0:
475,192,203239,1,0,0:0:0:0:
182,192,203403,1,0,0:0:0:0:
109,192,203566,1,0,0:0:0:0:
36,192,203566,1,0,0:0:0:0:
182,192,203566,1,0,0:0:0:0:
329,192,203566,1,0,0:0:0:0:
256,192,203566,1,0,0:0:0:0:
402,192,203566,1,0,0:0:0:0:
475,192,203730,1,0,0:0:0:0:
402,192,203893,1,0,0:0:0:0:
329,192,203893,1,0,0:0:0:0:
256,192,203893,1,0,0:0:0:0:
36,192,203893,1,0,0:0:0:0:
109,192,203893,1,0,0:0:0:0:
182,192,203893,1,0,0:0:0:0:
475,192,204057,1,0,0:0:0:0:
475,192,204220,1,0,0:0:0:0:
402,192,204220,1,0,0:0:0:0:
109,192,204220,1,0,0:0:0:0:
36,192,204220,1,0,0:0:0:0:
256,192,204220,1,0,0:0:0:0:
182,192,204384,1,0,0:0:0:0:
329,192,204384,1,0,0:0:0:0:
256,192,204384,1,0,0:0:0:0:
36,192,204547,1,0,0:0:0:0:
475,192,204547,1,0,0:0:0:0:
256,192,204547,1,0,0:0:0:0:
329,192,204711,1,0,0:0:0:0:
182,192,204711,1,0,0:0:0:0:
256,192,204711,1,0,0:0:0:0:
182,192,204874,1,0,0:0:0:0:
109,192,204874,1,0,0:0:0:0:
402,192,204874,1,0,0:0:0:0:
329,192,204956,1,0,0:0:0:0:
256,192,204956,1,0,0:0:0:0:
182,192,205038,1,0,0:0:0:0:
109,192,205038,1,0,0:0:0:0:
329,192,205119,1,0,0:0:0:0:
402,192,205119,1,0,0:0:0:0:
109,192,205201,1,0,0:0:0:0:
36,192,205201,1,0,0:0:0:0:
256,192,205201,1,0,0:0:0:0:
402,192,205283,1,0,0:0:0:0:
475,192,205283,1,0,0:0:0:0:
256,192,205365,1,0,0:0:0:0:
182,192,205365,1,0,0:0:0:0:
402,192,205446,1,0,0:0:0:0:
475,192,205446,1,0,0:0:0:0:
256,192,205528,1,0,0:0:0:0:
329,192,205528,1,0,0:0:0:0:
109,192,205528,1,0,0:0:0:0:
36,192,205528,1,0,0:0:0:0:
182,192,205692,128,0,206836:0:0:0:0:
402,192,206019,128,0,206182:0:0:0:0:
329,192,206182,128,0,206836:0:0:0:0:
36,192,206509,128,0,206836:0:0:0:0:
256,192,206836,128,0,207490:0:0:0:0:
402,192,206836,1,0,0:0:0:0:
475,192,206836,1,0,0:0:0:0:
182,192,206918,1,0,0:0:0:0:
109,192,206918,1,0,0:0:0:0:
402,192,207000,1,0,0:0:0:0:
475,192,207000,1,0,0:0:0:0:
109,192,207081,1,0,0:0:0:0:
36,192,207081,1,0,0:0:0:0:
182,192,207163,1,0,0:0:0:0:
402,192,207163,1,0,0:0:0:0:
475,192,207163,1,0,0:0:0:0:
329,192,207163,1,0,0:0:0:0:
109,192,207327,1,0,0:0:0:0:
329,192,207327,1,0,0:0:0:0:
182,192,207327,1,0,0:0:0:0:
182,192,207490,1,0,0:0:0:0:
36,192,207490,1,0,0:0:0:0:
402,192,207490,1,0,0:0:0:0:
475,192,207490,1,0,0:0:0:0:
329,192,207572,1,0,0:0:0:0:
109,192,207572,1,0,0:0:0:0:
182,192,207654,1,0,0:0:0:0:
402,192,207654,1,0,0:0:0:0:
475,192,207654,1,0,0:0:0:0:
329,192,207735,1,0,0:0:0:0:
256,192,207735,1,0,0:0:0:0:
182,192,207817,1,0,0:0:0:0:
36,192,207817,1,0,0:0:0:0:
109,192,207817,1,0,0:0:0:0:
475,192,207899,1,0,0:0:0:0:
402,192,207899,1,0,0:0:0:0:
329,192,207981,1,0,0:0:0:0:
256,192,207981,1,0,0:0:0:0:
36,192,207981,1,0,0:0:0:0:
182,192,208062,1,0,0:0:0:0:
109,192,208062,1,0,0:0:0:0:
256,192,208144,1,0,0:0:0:0:
329,192,208144,1,0,0:0:0:0:
402,192,208144,1,0,0:0:0:0:
475,192,208144,1,0,0:0:0:0:
182,192,208226,1,0,0:0:0:0:
109,192,208307,1,0,0:0:0:0:
402,192,208307,1,0,0:0:0:0:
475,192,208307,1,0,0:0:0:0:
329,192,208389,1,0,0:0:0:0:
256,192,208471,1,0,0:0:0:0:
36,192,208471,1,0,0:0:0:0:
475,192,208471,1,0,0:0:0:0:
402,192,208471,1,0,0:0:0:0:
109,192,208471,1,0,0:0:0:0:
182,192,208553,1,0,0:0:0:0:
256,192,208634,1,0,0:0:0:0:
36,192,208634,1,0,0:0:0:0:
402,192,208634,1,0,0:0:0:0:
109,192,208716,1,0,0:0:0:0:
329,192,208716,1,0,0:0:0:0:
475,192,208716,1,0,0:0:0:0:
182,192,208798,1,0,0:0:0:0:
402,192,208798,1,0,0:0:0:0:
256,192,208798,1,0,0:0:0:0:
329,192,208880,1,0,0:0:0:0:
402,192,208961,1,0,0:0:0:0:
109,192,208961,1,0,0:0:0:0:
475,192,208961,1,0,0:0:0:0:
256,192,209043,1,0,0:0:0:0:
182,192,209125,1,0,0:0:0:0:
402,192,209125,1,0,0:0:0:0:
475,192,209125,1,0,0:0:0:0:
36,192,209125,1,0,0:0:0:0:
329,192,209207,1,0,0:0:0:0:
256,192,209288,1,0,0:0:0:0:
36,192,209288,1,0,0:0:0:0:
402,192,209288,1,0,0:0:0:0:
475,192,209288,1,0,0:0:0:0:
109,192,209370,1,0,0:0:0:0:
182,192,209452,1,0,0:0:0:0:
402,192,209452,1,0,0:0:0:0:
256,192,209534,1,0,0:0:0:0:
329,192,209615,1,0,0:0:0:0:
36,192,209615,1,0,0:0:0:0:
402,192,209615,1,0,0:0:0:0:
109,192,209697,1,0,0:0:0:0:
182,192,209779,1,0,0:0:0:0:
475,192,209779,1,0,0:0:0:0:
402,192,209779,1,0,0:0:0:0:
36,192,209779,1,0,0:0:0:0:
329,192,209861,1,0,0:0:0:0:
256,192,209942,1,0,0:0:0:0:
109,192,209942,1,0,0:0:0:0:
475,192,209942,1,0,0:0:0:0:
402,192,210024,1,0,0:0:0:0:
182,192,210024,1,0,0:0:0:0:
329,192,210024,1,0,0:0:0:0:
256,192,210106,1,0,0:0:0:0:
109,192,210106,1,0,0:0:0:0:
36,192,210106,1,0,0:0:0:0:
329,192,210188,1,0,0:0:0:0:
109,192,210269,1,0,0:0:0:0:
402,192,210269,1,0,0:0:0:0:
475,192,210269,1,0,0:0:0:0:
182,192,210351,1,0,0:0:0:0:
256,192,210433,1,0,0:0:0:0:
329,192,210433,1,0,0:0:0:0:
36,192,210433,1,0,0:0:0:0:
475,192,210433,1,0,0:0:0:0:
182,192,210515,1,0,0:0:0:0:
109,192,210596,1,0,0:0:0:0:
402,192,210596,1,0,0:0:0:0:
329,192,210678,1,0,0:0:0:0:
256,192,210760,1,0,0:0:0:0:
36,192,210760,1,0,0:0:0:0:
109,192,210760,1,0,0:0:0:0:
475,192,210760,1,0,0:0:0:0:
402,192,210842,1,0,0:0:0:0:
329,192,210923,1,0,0:0:0:0:
109,192,210923,1,0,0:0:0:0:
36,192,210923,1,0,0:0:0:0:
256,192,211005,1,0,0:0:0:0:
182,192,211087,1,0,0:0:0:0:
36,192,211087,1,0,0:0:0:0:
475,192,211087,1,0,0:0:0:0:
402,192,211087,1,0,0:0:0:0:
329,192,211169,1,0,0:0:0:0:
109,192,211250,1,0,0:0:0:0:
402,192,211250,1,0,0:0:0:0:
475,192,211250,1,0,0:0:0:0:
182,192,211332,1,0,0:0:0:0:
329,192,211332,1,0,0:0:0:0:
256,192,211332,1,0,0:0:0:0:
36,192,211414,1,0,0:0:0:0:
402,192,211414,1,0,0:0:0:0:
475,192,211414,1,0,0:0:0:0:
109,192,211495,1,0,0:0:0:0:
182,192,211577,1,0,0:0:0:0:
475,192,211577,1,0,0:0:0:0:
402,192,211577,1,0,0:0:0:0:
256,192,211659,1,0,0:0:0:0:
329,192,211741,1,0,0:0:0:0:
36,192,211741,1,0,0:0:0:0:
109,192,211741,1,0,0:0:0:0:
475,192,211741,1,0,0:0:0:0:
182,192,211822,1,0,0:0:0:0:
402,192,211904,1,0,0:0:0:0:
256,192,211904,1,0,0:0:0:0:
475,192,211904,1,0,0:0:0:0:
36,192,211904,1,0,0:0:0:0:
182,192,211986,1,0,0:0:0:0:
109,192,212068,1,0,0:0:0:0:
475,192,212068,1,0,0:0:0:0:
329,192,212149,1,0,0:0:0:0:
256,192,212231,5,0,0:0:0:0:
36,192,212231,1,0,0:0:0:0:
475,192,212231,1,0,0:0:0:0:
182,192,212313,1,0,0:0:0:0:
109,192,212395,1,0,0:0:0:0:
402,192,212395,1,0,0:0:0:0:
475,192,212395,1,0,0:0:0:0:
329,192,212395,1,0,0:0:0:0:
256,192,212476,1,0,0:0:0:0:
402,192,212558,1,0,0:0:0:0:
36,192,212558,1,0,0:0:0:0:
475,192,212558,1,0,0:0:0:0:
109,192,212640,1,0,0:0:0:0:
329,192,212640,1,0,0:0:0:0:
182,192,212640,1,0,0:0:0:0:
256,192,212722,1,0,0:0:0:0:
402,192,212722,1,0,0:0:0:0:
475,192,212722,1,0,0:0:0:0:
329,192,212803,1,0,0:0:0:0:
36,192,212803,1,0,0:0:0:0:
109,192,212885,1,0,0:0:0:0:
402,192,212885,1,0,0:0:0:0:
475,192,212885,1,0,0:0:0:0:
256,192,212967,1,0,0:0:0:0:
182,192,212967,1,0,0:0:0:0:
475,192,213049,1,0,0:0:0:0:
36,192,213049,1,0,0:0:0:0:
329,192,213049,1,0,0:0:0:0:
109,192,213130,1,0,0:0:0:0:
402,192,213130,1,0,0:0:0:0:
182,192,213212,1,0,0:0:0:0:
475,192,213212,1,0,0:0:0:0:
36,192,213294,1,0,0:0:0:0:
256,192,213294,1,0,0:0:0:0:
402,192,213376,1,0,0:0:0:0:
329,192,213376,1,0,0:0:0:0:
36,192,213457,1,0,0:0:0:0:
109,192,213457,1,0,0:0:0:0:
182,192,213457,1,0,0:0:0:0:
329,192,213539,1,0,0:0:0:0:
402,192,213539,1,0,0:0:0:0:
475,192,213539,1,0,0:0:0:0:
182,192,213621,1,0,0:0:0:0:
109,192,213621,1,0,0:0:0:0:
256,192,213621,1,0,0:0:0:0:
36,192,213703,1,0,0:0:0:0:
329,192,213703,1,0,0:0:0:0:
402,192,213703,1,0,0:0:0:0:
475,192,213703,1,0,0:0:0:0:
256,192,213784,1,0,0:0:0:0:
36,192,213866,1,0,0:0:0:0:
182,192,213866,1,0,0:0:0:0:
329,192,213948,1,0,0:0:0:0:
182,192,214030,1,0,0:0:0:0:
109,192,214030,1,0,0:0:0:0:
36,192,214030,1,0,0:0:0:0:
402,192,214111,1,0,0:0:0:0:
475,192,214111,1,0,0:0:0:0:
329,192,214111,1,0,0:0:0:0:
182,192,214193,1,0,0:0:0:0:
109,192,214193,1,0,0:0:0:0:
36,192,214193,1,0,0:0:0:0:
256,192,214275,1,0,0:0:0:0:
329,192,214275,1,0,0:0:0:0:
402,192,214275,1,0,0:0:0:0:
475,192,214357,1,0,0:0:0:0:
182,192,214357,1,0,0:0:0:0:
109,192,214357,1,0,0:0:0:0:
36,192,214357,1,0,0:0:0:0:
402,192,214438,1,0,0:0:0:0:
329,192,214520,1,0,0:0:0:0:
109,192,214520,1,0,0:0:0:0:
36,192,214520,1,0,0:0:0:0:
475,192,214520,1,0,0:0:0:0:
256,192,214602,1,0,0:0:0:0:
109,192,214684,1,0,0:0:0:0:
36,192,214684,1,0,0:0:0:0:
402,192,214684,1,0,0:0:0:0:
182,192,214765,1,0,0:0:0:0:
256,192,214847,1,0,0:0:0:0:
402,192,214847,1,0,0:0:0:0:
36,192,214847,1,0,0:0:0:0:
329,192,214929,1,0,0:0:0:0:
402,192,215010,1,0,0:0:0:0:
475,192,215010,1,0,0:0:0:0:
182,192,215010,1,0,0:0:0:0:
36,192,215010,1,0,0:0:0:0:
256,192,215092,1,0,0:0:0:0:
182,192,215174,1,0,0:0:0:0:
475,192,215174,1,0,0:0:0:0:
109,192,215174,1,0,0:0:0:0:
402,192,215256,1,0,0:0:0:0:
256,192,215256,1,0,0:0:0:0:
329,192,215337,1,0,0:0:0:0:
36,192,215337,1,0,0:0:0:0:
109,192,215337,1,0,0:0:0:0:
475,192,215337,1,0,0:0:0:0:
182,192,215419,1,0,0:0:0:0:
256,192,215419,1,0,0:0:0:0:
402,192,215419,1,0,0:0:0:0:
329,192,215501,1,0,0:0:0:0:
109,192,215501,1,0,0:0:0:0:
36,192,215501,1,0,0:0:0:0:
256,192,215583,1,0,0:0:0:0:
475,192,215583,1,0,0:0:0:0:
402,192,215583,1,0,0:0:0:0:
329,192,215664,1,0,0:0:0:0:
182,192,215664,1,0,0:0:0:0:
36,192,215664,1,0,0:0:0:0:
109,192,215664,1,0,0:0:0:0:
256,192,215746,1,0,0:0:0:0:
329,192,215828,1,0,0:0:0:0:
402,192,215828,1,0,0:0:0:0:
36,192,215828,1,0,0:0:0:0:
109,192,215910,1,0,0:0:0:0:
182,192,215991,1,0,0:0:0:0:
256,192,215991,1,0,0:0:0:0:
36,192,215991,1,0,0:0:0:0:
329,192,216073,1,0,0:0:0:0:
402,192,216073,1,0,0:0:0:0:
475,192,216073,1,0,0:0:0:0:
182,192,216155,1,0,0:0:0:0:
109,192,216155,1,0,0:0:0:0:
36,192,216155,1,0,0:0:0:0:
475,192,216237,1,0,0:0:0:0:
402,192,216237,1,0,0:0:0:0:
329,192,216237,1,0,0:0:0:0:
256,192,216318,1,0,0:0:0:0:
182,192,216318,1,0,0:0:0:0:
109,192,216318,1,0,0:0:0:0:
36,192,216318,1,0,0:0:0:0:
402,192,216400,1,0,0:0:0:0:
329,192,216482,1,0,0:0:0:0:
256,192,216482,1,0,0:0:0:0:
109,192,216564,1,0,0:0:0:0:
36,192,216564,1,0,0:0:0:0:
475,192,216645,1,0,0:0:0:0:
256,192,216645,1,0,0:0:0:0:
329,192,216645,1,0,0:0:0:0:
109,192,216727,1,0,0:0:0:0:
182,192,216727,1,0,0:0:0:0:
36,192,216727,1,0,0:0:0:0:
329,192,216809,1,0,0:0:0:0:
402,192,216809,1,0,0:0:0:0:
475,192,216809,1,0,0:0:0:0:
182,192,216891,1,0,0:0:0:0:
109,192,216891,1,0,0:0:0:0:
36,192,216891,1,0,0:0:0:0:
256,192,216972,1,0,0:0:0:0:
329,192,216972,1,0,0:0:0:0:
402,192,216972,1,0,0:0:0:0:
475,192,216972,1,0,0:0:0:0:
182,192,217054,1,0,0:0:0:0:
109,192,217136,1,0,0:0:0:0:
402,192,217136,1,0,0:0:0:0:
475,192,217136,1,0,0:0:0:0:
329,192,217136,1,0,0:0:0:0:
256,192,217218,1,0,0:0:0:0:
182,192,217299,1,0,0:0:0:0:
36,192,217299,1,0,0:0:0:0:
475,192,217299,1,0,0:0:0:0:
402,192,217381,1,0,0:0:0:0:
329,192,217463,1,0,0:0:0:0:
109,192,217463,1,0,0:0:0:0:
256,192,217463,1,0,0:0:0:0:
182,192,217545,1,0,0:0:0:0:
256,192,217626,1,0,0:0:0:0:
36,192,217626,1,0,0:0:0:0:
402,192,217626,1,0,0:0:0:0:
475,192,217626,1,0,0:0:0:0:
109,192,217708,1,0,0:0:0:0:
182,192,217790,1,0,0:0:0:0:
475,192,217790,1,0,0:0:0:0:
329,192,217790,1,0,0:0:0:0:
256,192,217872,1,0,0:0:0:0:
329,192,217953,1,0,0:0:0:0:
36,192,217953,1,0,0:0:0:0:
475,192,217953,1,0,0:0:0:0:
256,192,218035,1,0,0:0:0:0:
109,192,218035,1,0,0:0:0:0:
182,192,218035,1,0,0:0:0:0:
329,192,218117,1,0,0:0:0:0:
402,192,218117,1,0,0:0:0:0:
475,192,218117,1,0,0:0:0:0:
182,192,218198,1,0,0:0:0:0:
256,192,218198,1,0,0:0:0:0:
36,192,218280,1,0,0:0:0:0:
475,192,218280,1,0,0:0:0:0:
402,192,218280,1,0,0:0:0:0:
256,192,218362,1,0,0:0:0:0:
109,192,218362,1,0,0:0:0:0:
182,192,218444,1,0,0:0:0:0:
329,192,218444,1,0,0:0:0:0:
475,192,218444,1,0,0:0:0:0:
256,192,218525,1,0,0:0:0:0:
402,192,218525,1,0,0:0:0:0:
475,192,218607,1,0,0:0:0:0:
329,192,218607,1,0,0:0:0:0:
109,192,218607,1,0,0:0:0:0:
36,192,218607,1,0,0:0:0:0:
182,192,218607,1,0,0:0:0:0:
256,192,218771,1,0,0:0:0:0:
182,192,218934,1,0,0:0:0:0:
109,192,218934,1,0,0:0:0:0:
36,192,218934,1,0,0:0:0:0:
256,192,218934,1,0,0:0:0:0:
329,192,218934,1,0,0:0:0:0:
182,192,219098,1,0,0:0:0:0:
256,192,219098,1,0,0:0:0:0:
475,192,219098,1,0,0:0:0:0:
109,192,219098,1,0,0:0:0:0:
402,192,219098,1,0,0:0:0:0:
329,192,219098,1,0,0:0:0:0:
109,192,219425,1,0,0:0:0:0:
329,192,219425,1,0,0:0:0:0:
36,192,219425,1,0,0:0:0:0:
256,192,219425,1,0,0:0:0:0:
475,192,219425,1,0,0:0:0:0:
402,192,219506,1,0,0:0:0:0:
182,192,219506,1,0,0:0:0:0:
329,192,219588,1,0,0:0:0:0:
109,192,219588,1,0,0:0:0:0:
475,192,219588,1,0,0:0:0:0:
256,192,219670,1,0,0:0:0:0:
36,192,219670,1,0,0:0:0:0:
182,192,219752,1,0,0:0:0:0:
109,192,219752,1,0,0:0:0:0:
402,192,219752,1,0,0:0:0:0:
475,192,219752,1,0,0:0:0:0:
329,192,219752,1,0,0:0:0:0:
329,192,220079,1,0,0:0:0:0:
475,192,220079,1,0,0:0:0:0:
36,192,220079,1,0,0:0:0:0:
402,192,220079,1,0,0:0:0:0:
109,192,220160,1,0,0:0:0:0:
182,192,220160,1,0,0:0:0:0:
402,192,220242,1,0,0:0:0:0:
329,192,220242,1,0,0:0:0:0:
256,192,220324,1,0,0:0:0:0:
182,192,220324,1,0,0:0:0:0:
109,192,220406,1,0,0:0:0:0:
36,192,220406,1,0,0:0:0:0:
475,192,220406,1,0,0:0:0:0:
402,192,220487,1,0,0:0:0:0:
182,192,220487,1,0,0:0:0:0:
256,192,220569,1,0,0:0:0:0:
475,192,220569,1,0,0:0:0:0:
36,192,220569,1,0,0:0:0:0:
109,192,220733,1,0,0:0:0:0:
182,192,220733,1,0,0:0:0:0:
329,192,220733,1,0,0:0:0:0:
402,192,220733,1,0,0:0:0:0:
36,192,220733,1,0,0:0:0:0:
182,192,220896,1,0,0:0:0:0:
256,192,220896,1,0,0:0:0:0:
402,192,220896,1,0,0:0:0:0:
475,192,220896,1,0,0:0:0:0:
109,192,220896,1,0,0:0:0:0:
182,192,221060,1,0,0:0:0:0:
329,192,221060,1,0,0:0:0:0:
475,192,221060,1,0,0:0:0:0:
36,192,221060,1,0,0:0:0:0:
256,192,221060,1,0,0:0:0:0:
36,192,221550,128,0,230378:0:0:0:0:
475,192,221550,128,0,230378:0:0:0:0:
329,192,221550,128,0,230378:0:0:0:0:
182,192,221550,128,0,230378:0:0:0:0:
402,192,221550,128,0,222204:0:0:0:0:
109,192,221550,1,0,0:0:0:0:
256,192,222204,128,0,222858:0:0:0:0:
109,192,222858,128,0,223512:0:0:0:0:
256,192,223512,128,0,224166:0:0:0:0:
402,192,224166,128,0,224820:0:0:0:0:
256,192,224820,128,0,225474:0:0:0:0:
109,192,225474,128,0,226128:0:0:0:0:
256,192,226128,128,0,230378:0:0:0:0:
