osu file format v14

[General]
AudioFilename: audio.mp3
AudioLeadIn: 0
PreviewTime: 158013
Countdown: 0
SampleSet: Soft
StackLeniency: 0.4
Mode: 0
LetterboxInBreaks: 0
WidescreenStoryboard: 0

[Editor]
DistanceSpacing: 0.74
BeatDivisor: 4
GridSize: 32
TimelineZoom: 5.2

[Metadata]
Title:Brainwash
TitleUnicode:Brainwash
Artist:Aoi Eir
ArtistUnicode:藍井エイル
Creator:Nevertary
Version:Angelic Sparkle
Source:
Tags:IGNITE japanese pop j-pop jpop
BeatmapID:2615907
BeatmapSetID:1258447

[Difficulty]
HPDrainRate:6
CircleSize:4
OverallDifficulty:9
ApproachRate:9.3
SliderMultiplier:1.7
SliderTickRate:1

[Events]
//Background and Video events
0,0,"BG.jpg",0,0
//Break Periods
2,136808,153458
//Storyboard Layer 0 (Background)
//Storyboard Layer 1 (Fail)
//Storyboard Layer 2 (Pass)
//Storyboard Layer 3 (Foreground)
//Storyboard Layer 4 (Overlay)
//Storyboard Sound Samples

[TimingPoints]
788,314.13612565445,4,2,1,55,1,0
3301,-83.3333333333333,4,2,1,55,0,0
5421,-83.3333333333333,4,2,1,5,0,0
5500,-62.5,4,2,1,60,0,0
5735,-62.5,4,2,1,5,0,0
5814,-83.3333333333333,4,2,1,70,0,0
6049,-83.3333333333333,4,2,1,5,0,0
6128,-83.3333333333333,4,2,1,75,0,0
8562,-83.3333333333333,4,2,1,5,0,0
8641,-83.3333333333333,4,2,1,75,0,0
15866,-133.333333333333,4,2,1,60,0,0
25683,-133.333333333333,4,2,1,5,0,0
25761,-133.333333333333,4,2,1,60,0,0
25840,-133.333333333333,4,2,1,5,0,0
25918,-111.111111111111,4,2,1,65,0,0
35971,-100,4,2,1,70,0,0
40997,-83.3333333333333,4,2,1,70,0,0
41075,-83.3333333333333,4,2,1,5,0,0
41154,-83.3333333333333,4,2,1,70,0,0
41704,-83.3333333333333,4,2,1,5,0,0
41782,-83.3333333333333,4,2,1,70,0,0
42018,-83.3333333333333,4,2,1,5,0,0
42096,-83.3333333333333,4,2,1,70,0,0
42332,-83.3333333333333,4,2,1,5,0,0
42411,-83.3333333333333,4,2,1,70,0,0
42725,-100,4,2,1,70,0,0
42960,-100,4,2,1,5,0,0
43039,-100,4,2,1,70,0,0
43510,-83.3333333333333,4,2,1,70,0,0
43589,-83.3333333333333,4,2,1,5,0,0
43667,-83.3333333333333,4,2,1,70,0,0
44217,-83.3333333333333,4,2,1,5,0,0
44295,-83.3333333333333,4,2,1,70,0,0
44531,-83.3333333333333,4,2,1,5,0,0
44609,-83.3333333333333,4,2,1,70,0,0
44845,-83.3333333333333,4,2,1,5,0,0
44924,-83.3333333333333,4,2,1,70,0,0
45159,-83.3333333333333,4,2,1,5,0,0
45238,-100,4,2,1,70,0,0
45709,-76.9230769230769,4,2,1,70,0,0
45945,-76.9230769230769,4,2,1,5,0,0
46023,-133.333333333333,4,2,1,60,0,0
51049,-83.3333333333333,4,2,1,70,0,0
51128,-83.3333333333333,4,2,1,5,0,0
51206,-83.3333333333333,4,2,1,70,0,0
51442,-83.3333333333333,4,2,1,5,0,0
51520,-83.3333333333333,4,2,1,70,0,0
51756,-83.3333333333333,4,2,1,5,0,0
51835,-83.3333333333333,4,2,1,70,0,0
52070,-83.3333333333333,4,2,1,5,0,0
52149,-166.666666666667,4,2,1,70,0,0
52384,-166.666666666667,4,2,1,5,0,0
52463,-83.3333333333333,4,2,1,70,0,0
52541,-83.3333333333333,4,2,1,5,0,0
52620,-83.3333333333333,4,2,1,70,0,0
53405,-71.4285714285714,4,2,1,80,0,1
56311,-71.4285714285714,4,2,1,5,0,1
56390,-71.4285714285714,4,2,1,80,0,1
61337,-71.4285714285714,4,2,1,5,0,1
61416,-71.4285714285714,4,2,1,80,0,1
63065,-71.4285714285714,4,2,1,5,0,1
63144,-71.4285714285714,4,2,1,80,0,1
66363,-71.4285714285714,4,2,1,5,0,1
66442,-71.4285714285714,4,2,1,80,0,1
67463,-71.4285714285714,4,2,1,5,0,1
67541,-71.4285714285714,4,2,1,80,0,1
68091,-71.4285714285714,4,2,1,5,0,1
68170,-71.4285714285714,4,2,1,80,0,1
68877,-71.4285714285714,4,2,1,5,0,1
68955,-71.4285714285714,4,2,1,80,0,1
69976,-71.4285714285714,4,2,1,5,0,1
70055,-71.4285714285714,4,2,1,80,0,1
71154,-166.666666666667,4,2,1,60,0,1
72411,-100,4,2,1,70,0,1
72489,-100,4,2,1,5,0,1
72568,-100,4,2,1,70,0,1
72882,-250,4,2,1,70,0,1
73117,-250,4,2,1,5,0,1
73196,-66.6666666666667,4,2,1,70,0,1
73667,-133.333333333333,4,2,1,60,0,0
83719,-76.9230769230769,4,2,1,70,0,0
83955,-76.9230769230769,4,2,1,5,0,0
84034,-76.9230769230769,4,2,1,70,0,0
84269,-76.9230769230769,4,2,1,5,0,0
84348,-76.9230769230769,4,2,1,70,0,0
84583,-76.9230769230769,4,2,1,5,0,0
84662,-76.9230769230769,4,2,1,70,0,0
84897,-76.9230769230769,4,2,1,5,0,0
84976,-76.9230769230769,4,2,1,70,0,0
85212,-76.9230769230769,4,2,1,5,0,0
85290,-76.9230769230769,4,2,1,70,0,0
85526,-76.9230769230769,4,2,1,5,0,0
85604,-76.9230769230769,4,2,1,70,0,0
86233,-111.111111111111,4,2,1,65,0,0
93222,-111.111111111111,4,2,1,5,0,0
93301,-111.111111111111,4,2,1,65,0,0
93615,-76.9230769230769,4,2,1,75,0,0
95185,-76.9230769230769,4,2,1,75,0,0
95264,-76.9230769230769,4,2,1,5,0,0
95342,-76.9230769230769,4,2,1,100,0,0
95421,-76.9230769230769,4,2,1,5,0,0
95500,-76.9230769230769,4,2,1,75,0,0
95735,-76.9230769230769,4,2,1,5,0,0
95814,-76.9230769230769,4,2,1,75,0,0
95892,-76.9230769230769,4,2,1,5,0,0
95971,-76.9230769230769,4,2,1,75,0,0
96049,-76.9230769230769,4,2,1,5,0,0
96128,-76.9230769230769,4,2,1,75,0,0
96363,-76.9230769230769,4,2,1,5,0,0
96442,-76.9230769230769,4,2,1,75,0,0
96756,-76.9230769230769,4,2,1,75,0,0
96992,-76.9230769230769,4,2,1,5,0,0
97070,-76.9230769230769,4,2,1,75,0,0
97149,-76.9230769230769,4,2,1,5,0,0
97227,-76.9230769230769,4,2,1,75,0,0
97306,-76.9230769230769,4,2,1,5,0,0
97384,-76.9230769230769,4,2,1,75,0,0
97463,-76.9230769230769,4,2,1,5,0,0
97541,-76.9230769230769,4,2,1,75,0,0
97934,-76.9230769230769,4,2,1,5,0,0
98013,-76.9230769230769,4,2,1,75,0,0
98248,-76.9230769230769,4,2,1,5,0,0
98327,-76.9230769230769,4,2,1,75,0,0
98405,-76.9230769230769,4,2,1,5,0,0
98484,-76.9230769230769,4,2,1,75,0,0
98562,-76.9230769230769,4,2,1,5,0,0
98641,-76.9230769230769,4,2,1,75,0,0
99505,-76.9230769230769,4,2,1,5,0,0
99583,-76.9230769230769,4,2,1,75,0,0
99662,-76.9230769230769,4,2,1,5,0,0
99740,-76.9230769230769,4,2,1,75,0,0
99819,-76.9230769230769,4,2,1,5,0,0
99897,-76.9230769230769,4,2,1,75,0,0
100290,-76.9230769230769,4,2,1,5,0,0
100369,-76.9230769230769,4,2,1,75,0,0
100447,-76.9230769230769,4,2,1,5,0,0
100526,-76.9230769230769,4,2,1,75,0,0
100761,-76.9230769230769,4,2,1,5,0,0
100840,-76.9230769230769,4,2,1,75,0,0
100918,-76.9230769230769,4,2,1,5,0,0
100997,-76.9230769230769,4,2,1,75,0,0
101075,-76.9230769230769,4,2,1,5,0,0
101154,-76.9230769230769,4,2,1,75,0,0
101625,-66.6666666666667,4,2,1,75,0,0
101861,-66.6666666666667,4,2,1,5,0,0
101939,-66.6666666666667,4,2,1,75,0,0
102175,-66.6666666666667,4,2,1,5,0,0
102253,-66.6666666666667,4,2,1,75,0,0
102489,-66.6666666666667,4,2,1,5,0,0
102568,-66.6666666666667,4,2,1,75,0,0
102803,-66.6666666666667,4,2,1,5,0,0
102882,-66.6666666666667,4,2,1,75,0,0
102960,-66.6666666666667,4,2,1,5,0,0
103039,-66.6666666666667,4,2,1,75,0,0
103117,-66.6666666666667,4,2,1,5,0,0
103353,-500,4,2,1,75,0,0
103589,-500,4,2,1,5,0,0
103667,-76.9230769230769,4,2,1,75,0,0
104217,-76.9230769230769,4,2,1,5,0,0
104295,-76.9230769230769,4,2,1,75,0,0
104531,-76.9230769230769,4,2,1,5,0,0
104609,-76.9230769230769,4,2,1,75,0,0
104688,-76.9230769230769,4,2,1,5,0,0
104767,-76.9230769230769,4,2,1,75,0,0
104845,-76.9230769230769,4,2,1,5,0,0
104924,-76.9230769230769,4,2,1,75,0,0
105316,-76.9230769230769,4,2,1,5,0,0
105395,-76.9230769230769,4,2,1,75,0,0
105473,-76.9230769230769,4,2,1,5,0,0
105552,-76.9230769230769,4,2,1,75,0,0
107044,-76.9230769230769,4,2,1,5,0,0
107123,-76.9230769230769,4,2,1,75,0,0
107201,-76.9230769230769,4,2,1,5,0,0
107280,-76.9230769230769,4,2,1,75,0,0
107358,-76.9230769230769,4,2,1,5,0,0
107437,-76.9230769230769,4,2,1,75,0,0
108301,-76.9230769230769,4,2,1,5,0,0
108379,-76.9230769230769,4,2,1,75,0,0
108536,-58.8235294117647,4,2,1,75,0,0
108772,-58.8235294117647,4,2,1,5,0,0
108850,-76.9230769230769,4,2,1,75,0,0
108929,-76.9230769230769,4,2,1,5,0,0
109007,-76.9230769230769,4,2,1,75,0,0
109086,-76.9230769230769,4,2,1,5,0,0
109164,-76.9230769230769,4,2,1,75,0,0
109243,-76.9230769230769,4,2,1,5,0,0
109322,-76.9230769230769,4,2,1,75,0,0
109557,-76.9230769230769,4,2,1,5,0,0
109636,-76.9230769230769,4,2,1,75,0,0
109714,-76.9230769230769,4,2,1,5,0,0
109793,-76.9230769230769,4,2,1,75,0,0
109871,-76.9230769230769,4,2,1,5,0,0
109950,-76.9230769230769,4,2,1,75,0,0
110028,-76.9230769230769,4,2,1,5,0,0
110107,-76.9230769230769,4,2,1,75,0,0
110185,-76.9230769230769,4,2,1,5,0,0
110264,-76.9230769230769,4,2,1,75,0,0
110342,-76.9230769230769,4,2,1,5,0,0
110421,-76.9230769230769,4,2,1,75,0,0
110500,-76.9230769230769,4,2,1,5,0,0
110578,-76.9230769230769,4,2,1,75,0,0
110814,-76.9230769230769,4,2,1,5,0,0
110892,-76.9230769230769,4,2,1,75,0,0
110971,-76.9230769230769,4,2,1,5,0,0
111049,-76.9230769230769,4,2,1,75,0,0
112149,-76.9230769230769,4,2,1,5,0,0
112227,-76.9230769230769,4,2,1,75,0,0
112384,-76.9230769230769,4,2,1,5,0,0
112463,-76.9230769230769,4,2,1,75,0,0
112541,-76.9230769230769,4,2,1,5,0,0
112620,-76.9230769230769,4,2,1,75,0,0
113877,-100,4,2,1,70,0,0
118903,-83.3333333333333,4,2,1,70,0,0
118981,-83.3333333333333,4,2,1,5,0,0
119060,-83.3333333333333,4,2,1,70,0,0
119609,-83.3333333333333,4,2,1,5,0,0
119688,-83.3333333333333,4,2,1,70,0,0
119924,-83.3333333333333,4,2,1,5,0,0
120002,-83.3333333333333,4,2,1,70,0,0
120238,-83.3333333333333,4,2,1,5,0,0
120316,-83.3333333333333,4,2,1,70,0,0
120630,-100,4,2,1,70,0,0
120866,-100,4,2,1,5,0,0
120945,-100,4,2,1,70,0,0
121416,-83.3333333333333,4,2,1,70,0,0
121494,-83.3333333333333,4,2,1,5,0,0
121573,-83.3333333333333,4,2,1,70,0,0
122123,-83.3333333333333,4,2,1,5,0,0
122201,-83.3333333333333,4,2,1,70,0,0
122437,-83.3333333333333,4,2,1,5,0,0
122515,-83.3333333333333,4,2,1,70,0,0
122751,-83.3333333333333,4,2,1,5,0,0
122829,-83.3333333333333,4,2,1,70,0,0
123065,-83.3333333333333,4,2,1,5,0,0
123144,-100,4,2,1,70,0,0
123615,-76.9230769230769,4,2,1,70,0,0
123850,-76.9230769230769,4,2,1,5,0,0
123929,-133.333333333333,4,2,1,60,0,0
128955,-100,4,2,1,70,0,0
133981,-83.3333333333333,4,2,1,70,0,0
134060,-83.3333333333333,4,2,1,5,0,0
134138,-83.3333333333333,4,2,1,70,0,0
134374,-83.3333333333333,4,2,1,5,0,0
134452,-83.3333333333333,4,2,1,70,0,0
134688,-83.3333333333333,4,2,1,5,0,0
134767,-83.3333333333333,4,2,1,70,0,0
135081,-166.666666666667,4,2,1,70,0,0
135316,-166.666666666667,4,2,1,5,0,0
135395,-83.3333333333334,4,2,1,70,0,0
135473,-83.3333333333334,4,2,1,5,0,0
135552,-83.3333333333334,4,2,1,60,0,0
154086,-125,4,2,1,55,0,0
155264,-125,4,2,1,5,0,0
155342,-100,4,2,1,55,0,0
156599,-100,4,2,1,5,0,0
156678,-100,4,2,1,20,0,0
156756,-100,4,2,1,30,0,0
156913,-100,4,2,1,40,0,0
157070,-100,4,2,1,50,0,0
157227,-100,4,2,1,60,0,0
157384,-100,4,2,1,70,0,0
157541,-100,4,2,1,80,0,0
157698,-100,4,2,1,90,0,0
157856,-100,4,2,1,5,0,0
158955,-71.4285714285714,4,2,1,80,0,1
161861,-71.4285714285714,4,2,1,5,0,1
161939,-71.4285714285714,4,2,1,80,0,1
166887,-71.4285714285714,4,2,1,5,0,1
166966,-71.4285714285714,4,2,1,80,0,1
168615,-71.4285714285714,4,2,1,5,0,1
168693,-71.4285714285714,4,2,1,80,0,1
171913,-71.4285714285714,4,2,1,5,0,1
171992,-71.4285714285714,4,2,1,80,0,1
173013,-71.4285714285714,4,2,1,5,0,1
173091,-71.4285714285714,4,2,1,80,0,1
173641,-71.4285714285714,4,2,1,5,0,1
173719,-71.4285714285714,4,2,1,80,0,1
174426,-71.4285714285714,4,2,1,5,0,1
174505,-71.4285714285714,4,2,1,80,0,1
175683,-71.4285714285714,4,2,1,5,0,1
175761,-71.4285714285714,4,2,1,80,0,1
177411,-71.4285714285714,4,2,1,5,0,1
177489,-71.4285714285714,4,2,1,80,0,1
178039,-71.4285714285714,4,2,1,5,0,1
178117,-71.4285714285714,4,2,1,80,0,1
178667,-71.4285714285714,4,2,1,5,0,1
178746,-71.4285714285714,4,2,1,80,0,1
180473,-71.4285714285714,4,2,1,80,0,0
183065,-71.4285714285714,4,2,1,5,0,0
183144,-71.4285714285714,4,2,1,80,0,0
184243,-83.3333333333333,4,2,1,75,0,0
184479,-83.3333333333333,4,2,1,5,0,0
184557,-83.3333333333333,4,2,1,75,0,0
186835,-83.3333333333333,4,2,1,5,0,0
186913,-83.3333333333333,4,2,1,75,0,0
187149,-83.3333333333333,4,2,1,5,0,0
187227,-83.3333333333333,4,2,1,75,0,0
187463,-83.3333333333333,4,2,1,5,0,0
187541,-83.3333333333333,4,2,1,75,0,0
187777,-83.3333333333333,4,2,1,5,0,0
187856,-83.3333333333333,4,2,1,75,0,0
188091,-83.3333333333333,4,2,1,5,0,0
188170,-83.3333333333333,4,2,1,75,0,0
188405,-83.3333333333333,4,2,1,5,0,0
188484,-83.3333333333333,4,2,1,75,0,0
188719,-83.3333333333333,4,2,1,5,0,0
188798,-83.3333333333333,4,2,1,75,0,0
189191,-83.3333333333333,4,2,1,60,0,0
192960,-83.3333333333333,4,2,1,5,0,0
193039,-285.714285714286,4,2,1,50,0,0
193667,-285.714285714286,4,2,1,5,0,0

[Colours]
Combo1 : 211,211,211
Combo2 : 20,50,171
Combo3 : 99,55,215
Combo4 : 138,196,242
Combo5 : 141,136,240
Combo6 : 92,92,92

[HitObjects]
256,192,788,12,8,2986,0:0:0:0:
396,349,3301,54,0,B|428:387|497:360|487:294|416:275|375:324|299:362|299:362|305:367|305:367|339:236|339:236|330:236|330:236|334:236|334:236|376:99|376:99|371:99|371:99|387:127|438:142|438:142|270:185|270:185|263:180|263:180|175:204|175:204|214:162|220:96|220:96|216:-32|365:23|308:129|221:96|221:96|142:75,1,1376.9999579773,2|0,0:0|0:0,0:0:0:0:
71,52,5500,70,0,B|40:49|18:35|18:35|38:102|38:102|50:111|50:111|67:176,1,204,2|0,3:0|0:0,0:0:0:0:
70,339,5814,54,0,B|96:299|103:268|103:268|130:289|176:302,1,152.999995330811,6|0,1:2|0:0,0:0:0:0:
262,307,6128,2,0,B|238:323|238:323|149:293,1,101.999996887207,8|0,0:0|0:0,0:0:0:0:
329,182,6442,1,0,1:0:0:0:
349,305,6599,2,0,L|357:358,1,50.9999984436036,2|2,1:2|0:0,0:0:0:0:
328,174,6756,1,10,0:0:0:0:
510,241,6913,6,0,P|457:230|403:230,1,101.999996887207,2|0,1:2|0:0,0:0:0:0:
163,305,7227,2,0,L|155:358,1,50.9999984436036,2|2,1:2|0:0,0:0:0:0:
184,174,7384,1,10,0:0:0:0:
59,359,7541,2,0,B|32:346|32:346|19:264,1,101.999996887207,10|0,0:0|0:0,0:0:0:0:
77,91,7856,2,0,L|69:38,1,50.9999984436036,2|2,1:2|0:0,0:0:0:0:
98,222,8013,1,10,0:0:0:0:
5,172,8170,1,2,0:0:0:0:
237,100,8327,70,0,B|271:117|271:117|295:262,1,152.999995330811,4|0,1:2|0:0,0:0:0:0:
329,315,8641,2,0,B|302:302|302:302|289:220,1,101.999996887207,8|0,0:0|0:0,0:0:0:0:
364,115,8955,1,0,1:0:0:0:
382,206,9112,1,2,1:2:0:0:
442,60,9269,1,10,0:0:0:0:
237,100,9426,6,0,P|184:89|130:89,1,101.999996887207,2|0,1:2|0:0,0:0:0:0:
0,228,9740,1,2,1:2:0:0:
187,195,9897,1,10,0:0:0:0:
34,16,10055,2,0,B|13:37|13:37|28:118,1,101.999996887207,10|0,0:0|0:0,0:0:0:0:
71,295,10369,1,2,1:2:0:0:
131,119,10526,1,10,0:0:0:0:
280,278,10683,69,8,0:0:0:0:
284,289,10761,1,8,0:0:0:0:
288,298,10840,2,0,P|341:287|395:287,1,101.999996887207,6|0,1:2|0:0,0:0:0:0:
452,102,11154,1,10,0:0:0:0:
512,226,11311,1,0,0:0:0:0:
328,163,11468,1,2,1:2:0:0:
389,287,11625,1,2,1:2:0:0:
452,102,11782,1,10,0:0:0:0:
235,203,11939,6,0,L|109:182,1,101.999996887207,2|0,1:2|0:0,0:0:0:0:
40,235,12253,1,2,1:2:0:0:
181,94,12411,1,10,0:0:0:0:
150,291,12568,1,10,0:0:0:0:
59,113,12725,1,2,1:2:0:0:
235,203,12882,1,2,1:2:0:0:
40,235,13039,1,10,0:0:0:0:
284,104,13196,70,0,L|410:83,1,101.999996887207,2|0,0:0|1:0,0:0:0:0:
290,294,13510,1,2,0:0:0:0:
442,172,13667,1,10,0:0:0:0:
473,365,13824,1,2,0:0:0:0:
330,190,13981,1,2,1:2:0:0:
361,381,14138,1,2,1:2:0:0:
512,259,14295,1,10,0:0:0:0:
193,276,14452,6,0,L|67:255,1,101.999996887207,6|0,1:2|0:0,0:0:0:0:
24,83,14767,1,2,1:2:0:0:
24,83,14845,1,0,1:0:0:0:
24,83,14924,1,10,0:0:0:0:
248,184,15081,1,2,1:2:0:0:
46,342,15238,1,8,0:0:0:0:
75,167,15395,69,8,3:0:0:0:
152,202,15552,1,2,3:0:0:0:
84,251,15709,1,2,3:0:0:0:
256,343,15866,53,6,1:2:0:0:
256,333,16180,1,0,1:0:0:0:
256,324,16494,1,2,1:2:0:0:
256,315,16808,1,0,1:0:0:0:
256,305,17122,1,2,1:2:0:0:
256,296,17436,1,0,1:0:0:0:
190,143,17751,5,2,1:2:0:0:
216,222,17908,1,8,3:0:0:0:
324,143,18065,1,2,1:2:0:0:
298,222,18222,1,2,3:0:0:0:
256,86,18379,69,6,1:2:0:0:
256,77,18693,1,0,1:0:0:0:
256,67,19007,1,2,1:2:0:0:
256,58,19321,1,0,1:0:0:0:
256,49,19635,1,2,1:2:0:0:
256,39,19949,1,0,1:0:0:0:
190,143,20264,6,0,P|181:102|181:56,1,63.7500024318696,2|0,1:2|0:0,0:0:0:0:
118,211,20578,2,0,P|109:170|109:124,1,63.7500024318696,2|0,1:2|0:0,0:0:0:0:
362,192,20892,69,6,1:2:0:0:
371,192,21206,1,0,1:0:0:0:
381,192,21520,1,2,1:2:0:0:
390,192,21834,1,0,1:0:0:0:
399,192,22148,1,2,1:2:0:0:
409,192,22462,1,0,1:0:0:0:
324,143,22777,5,2,1:2:0:0:
216,222,22934,2,0,L|231:309,1,63.7500024318696,8|2,0:0|3:2,0:0:0:0:
298,222,23248,1,8,3:0:0:0:
138,192,23405,69,6,1:2:0:0:
129,192,23719,1,0,1:0:0:0:
374,192,24034,5,2,1:2:0:0:
383,192,24348,1,0,1:0:0:0:
256,74,24662,69,6,1:2:0:0:
184,256,24819,1,8,0:0:0:0:
147,275,24897,1,8,0:0:0:0:
105,273,24976,1,10,0:0:0:0:
69,251,25055,1,8,0:0:0:0:
35,243,25133,1,8,3:0:0:0:
17,245,25212,1,2,3:0:0:0:
3,254,25290,1,2,1:2:0:0:
120,72,25604,70,0,L|113:30,1,31.8750012159348,8|0,3:0|0:0,0:0:0:0:
115,80,25761,2,0,L|108:38,1,31.8750012159348
133,199,25918,70,0,L|152:308,1,76.4999976654053,6|0,1:2|1:0,0:0:0:0:
162,360,26233,1,8,0:0:0:0:
301,288,26390,1,8,3:0:0:0:
301,288,26468,1,8,3:0:0:0:
301,288,26547,2,0,L|192:307,1,76.4999976654053,0|0,1:0|1:0,0:0:0:0:
372,240,26861,2,0,L|391:349,1,76.4999976654053,10|8,0:0|3:0,0:0:0:0:
280,97,27175,5,0,1:0:0:0:
320,173,27332,1,0,1:0:0:0:
415,75,27489,1,8,0:0:0:0:
406,162,27647,1,2,3:0:0:0:
406,162,27725,1,2,3:0:0:0:
406,162,27803,1,0,1:0:0:0:
340,39,27960,1,0,1:0:0:0:
238,168,28117,2,0,P|200:176|149:161,1,76.4999976654053,10|2,0:0|3:0,0:0:0:0:
54,356,28431,70,0,L|73:247,1,76.4999976654053,2|0,1:2|1:0,0:0:0:0:
83,195,28746,1,8,0:0:0:0:
223,264,28903,1,8,3:0:0:0:
223,264,28981,1,8,3:0:0:0:
223,264,29060,2,0,L|114:245,1,76.4999976654053,0|0,1:0|1:0,0:0:0:0:
13,142,29374,2,0,L|-6:251,1,76.4999976654053,10|8,0:0|3:0,0:0:0:0:
129,89,29688,5,0,1:0:0:0:
162,169,29845,1,0,1:0:0:0:
246,47,30002,1,8,0:0:0:0:
279,132,30159,1,2,3:0:0:0:
279,132,30238,1,2,3:0:0:0:
279,132,30316,1,0,1:0:0:0:
358,7,30473,1,0,1:0:0:0:
436,132,30630,2,0,P|474:140|525:125,1,76.4999976654053,10|2,0:0|3:0,0:0:0:0:
381,342,30945,70,0,L|362:233,1,76.4999976654053,2|0,1:2|1:0,0:0:0:0:
279,132,31259,2,0,L|260:241,1,76.4999976654053,8|8,0:0|3:0,0:0:0:0:
264,241,31494,1,8,3:0:0:0:
264,241,31573,1,0,1:0:0:0:
351,185,31730,1,2,1:2:0:0:
193,163,31887,1,8,0:0:0:0:
378,26,32044,6,0,L|359:135,1,76.4999976654053,2|0,3:2|1:0,0:0:0:0:
450,81,32358,1,0,1:0:0:0:
291,51,32515,2,0,L|182:32,1,76.4999976654053,10|2,0:0|3:0,0:0:0:0:
155,88,32751,1,2,3:0:0:0:
155,88,32829,2,0,L|46:69,1,76.4999976654053,2|0,1:2|1:0,0:0:0:0:
89,244,33144,1,10,0:0:0:0:
104,160,33301,1,2,3:2:0:0:
149,322,33458,70,0,P|81:278|11:306,1,152.999995330811,2|8,1:2|0:0,0:0:0:0:
117,84,33929,1,8,3:0:0:0:
117,84,34007,1,8,3:0:0:0:
117,84,34086,2,0,L|104:160,1,76.4999976654053,2|0,1:2|1:0,0:0:0:0:
256,61,34400,1,8,0:0:0:0:
256,148,34557,1,8,3:0:0:0:
406,41,34714,6,0,B|415:101|415:101|396:134|396:134|405:189,1,152.999995330811,2|8,1:2|0:0,0:0:0:0:
248,378,35185,1,0,1:0:0:0:
347,324,35342,1,2,0:0:0:0:
164,281,35500,1,0,1:0:0:0:
321,243,35657,1,8,3:0:0:0:
90,177,35814,1,8,3:0:0:0:
260,35,35971,69,4,1:2:0:0:
164,281,36128,1,0,1:0:0:0:
382,67,36599,5,8,0:0:0:0:
168,110,36756,1,0,1:0:0:0:
390,65,36913,1,10,0:0:0:0:
98,45,37070,70,0,B|109:110|109:110|144:133|144:133|154:196,1,170,6|0,1:2|1:0,0:0:0:0:
14,374,37541,1,8,0:0:0:0:
68,189,37698,1,8,3:0:0:0:
68,189,37777,1,2,3:0:0:0:
68,189,37856,1,8,0:0:0:0:
197,327,38013,5,8,3:0:0:0:
139,266,38170,1,8,3:0:0:0:
116,347,38327,1,2,3:0:0:0:
327,290,38484,70,0,L|425:268,1,85,6|0,1:2|1:0,0:0:0:0:
221,88,38798,1,10,0:0:0:0:
432,124,38955,1,2,1:2:0:0:
432,124,39034,1,0,1:0:0:0:
432,124,39112,1,8,0:0:0:0:
280,361,39269,1,2,1:2:0:0:
316,150,39426,1,8,0:0:0:0:
492,319,39583,6,0,P|399:291|316:291,1,170,6|0,1:2|1:0,0:0:0:0:
123,383,40055,1,8,0:0:0:0:
204,195,40212,1,2,1:2:0:0:
280,361,40369,1,10,0:0:0:0:
259,123,40526,69,8,0:0:0:0:
218,109,40604,1,8,0:0:0:0:
176,112,40683,1,10,0:0:0:0:
138,130,40761,1,8,0:0:0:0:
98,146,40840,1,8,0:0:0:0:
56,150,40918,1,8,0:0:0:0:
15,139,40997,6,0,L|33:214,1,50.9999984436036,6|0,1:2|0:0,0:0:0:0:
1,133,41154,2,0,L|33:259,1,101.999996887207,2|8,1:2|0:0,0:0:0:0:
216,313,41468,70,0,B|301:275|288:366|386:320,1,152.999995330811,2|0,1:2|0:0,0:0:0:0:
216,303,41782,2,0,B|301:265|288:356|386:310,1,152.999995330811,2|0,1:2|0:0,0:0:0:0:
216,293,42096,2,0,B|301:255|288:346|386:300,1,152.999995330811,2|0,1:2|0:0,0:0:0:0:
435,283,42411,5,2,1:2:0:0:
289,205,42568,1,8,0:0:0:0:
409,27,42725,70,0,L|392:165,1,127.5,6|0,1:2|0:0,0:0:0:0:
389,189,43039,1,8,0:0:0:0:
489,115,43196,1,8,3:0:0:0:
489,115,43353,1,2,3:0:0:0:
289,205,43510,6,0,L|214:187,1,50.9999984436036,6|0,1:2|0:0,0:0:0:0:
295,219,43667,2,0,L|169:187,1,101.999996887207,2|8,1:2|0:0,0:0:0:0:
73,78,43981,70,0,B|101:111|101:111|72:226,1,152.999995330811,2|0,1:2|0:0,0:0:0:0:
84,75,44295,2,0,B|112:108|112:108|83:223,1,152.999995330811,2|0,1:2|0:0,0:0:0:0:
94,72,44609,2,0,B|122:105|122:105|93:220,1,152.999995330811,2|0,1:2|0:0,0:0:0:0:
105,69,44923,2,0,B|133:102|133:102|104:217,1,152.999995330811,2|0,1:2|0:0,0:0:0:0:
70,367,45238,6,0,P|61:319|76:275,1,85,10|0,0:0|1:0,0:0:0:0:
106,208,45552,1,2,1:2:0:0:
238,331,45709,70,0,B|287:286|364:299|364:299|354:321|363:346,1,165.749992412568,12|0,0:0|0:0,0:0:0:0:
403,372,46023,22,0,P|373:350|356:321,1,63.7500024318696,4|0,1:2|0:0,0:0:0:0:
499,297,46337,2,0,P|463:303|430:294,1,63.7500024318696,2|0,0:0|0:0,0:0:0:0:
512,177,46651,2,0,P|490:206|461:223,1,63.7500024318696,0|0,0:0|0:0,0:0:0:0:
437,142,46966,1,2,0:0:0:0:
335,221,47123,5,0,1:0:0:0:
335,221,47280,2,0,L|266:205,1,63.7500024318696,0|0,1:0|0:0,0:0:0:0:
265,289,47594,2,0,L|196:273,1,63.7500024318696,2|0,0:0|0:0,0:0:0:0:
49,222,47908,2,0,L|118:206,1,63.7500024318696,0|0,0:0|0:0,0:0:0:0:
193,188,48222,1,2,0:0:0:0:
137,63,48379,69,0,1:0:0:0:
137,63,48536,2,0,P|131:99|140:132,1,63.7500024318696,0|0,1:0|0:0,0:0:0:0:
257,48,48850,2,0,P|227:69|210:98,1,63.7500024318696,2|0,0:0|0:0,0:0:0:0:
352,120,49164,2,0,P|316:114|283:123,1,63.7500024318696,0|0,0:0|0:0,0:0:0:0:
320,198,49479,1,2,0:0:0:0:
425,69,49636,5,0,1:0:0:0:
425,69,49793,2,0,L|441:138,1,63.7500024318696,0|0,1:0|0:0,0:0:0:0:
479,277,50107,2,0,P|434:255|351:288,1,127.500004863739,2|0,0:0|0:0,0:0:0:0:
204,319,50578,2,0,L|197:287,2,31.8750012159348,0|0|2,0:0|0:0|0:0,0:0:0:0:
147,73,51049,54,0,L|129:149,1,50.9999984436036,10|0,1:2|0:0,0:0:0:0:
91,309,51206,70,0,B|128:256|201:262|201:262|192:284|205:315,1,152.999995330811,10|0,1:2|0:0,0:0:0:0:
380,356,51520,2,0,B|315:350|284:284|284:284|307:281|328:254,1,152.999995330811,10|0,1:2|0:0,0:0:0:0:
276,83,51835,2,0,B|303:141|261:201|261:201|247:182|213:178,1,152.999995330811,10|0,1:2|0:0,0:0:0:0:
91,309,52149,38,0,B|102:284|102:284|89:228,1,76.4999976654053,10|0,1:2|0:0,0:0:0:0:
75,107,52463,54,0,B|65:128|65:128|75:174,1,50.9999984436036,10|0,1:2|0:0,0:0:0:0:
284,285,52620,1,10,1:2:0:0:
284,285,53405,38,0,B|302:229|302:229|505:180,1,237.999992736817,6|0,1:2|1:0,0:0:0:0:
223,33,53877,2,0,L|255:165,1,118.999996368408,10|0,0:0|0:0,0:0:0:0:
309,382,54191,1,2,1:2:0:0:
346,118,54348,1,2,1:2:0:0:
436,290,54505,1,8,0:0:0:0:
191,234,54662,6,0,B|150:215|106:223|94:255|84:287|43:302|-15:275|-15:230|31:221,1,237.999992736817,6|0,1:2|1:0,0:0:0:0:
204,138,55133,2,0,P|262:168|287:232,1,118.999996368408,10|0,0:0|0:0,0:0:0:0:
106,140,55447,1,2,1:2:0:0:
275,62,55604,1,0,1:0:0:0:
95,45,55761,2,0,P|36:75|11:139,1,118.999996368408,10|0,0:0|0:0,0:0:0:0:
165,350,56075,70,0,B|196:173,1,178.499994552612,6|0,1:2|0:0,0:0:0:0:
204,138,56390,1,10,0:0:0:0:
404,326,56547,2,0,L|287:306,1,118.999996368408,2|0,0:0|1:0,0:0:0:0:
77,267,56861,1,2,1:2:0:0:
298,207,57018,1,8,0:0:0:0:
27,58,57175,6,0,B|45:136|45:136|24:170|24:170|60:194|60:194|78:273,1,237.999992736817,6|0,1:2|1:0,0:0:0:0:
118,25,57646,2,0,L|150:162,1,118.999996368408,10|0,0:0|0:0,0:0:0:0:
321,342,57960,1,2,1:2:0:0:
76,266,58117,1,2,1:2:0:0:
267,207,58274,1,8,0:0:0:0:
67,382,58431,70,0,B|45:360|25:353|25:353|62:292|133:279|193:314,1,237.999992736817,6|0,1:2|1:0,0:0:0:0:
374,384,58903,2,0,P|315:353|290:289,1,118.999996368408,10|0,0:0|0:0,0:0:0:0:
430,162,59217,2,0,P|488:192|513:256,1,118.999996368408,2|0,1:2|1:0,0:0:0:0:
340,117,59531,1,10,0:0:0:0:
187,311,59688,6,0,B|116:325|86:373|86:373|75:317|20:278,1,237.999992736817,6|0,1:2|1:0,0:0:0:0:
140,111,60159,2,0,L|117:245,1,118.999996368408,10|0,0:0|0:0,0:0:0:0:
70,41,60473,1,2,1:2:0:0:
232,65,60630,1,0,1:0:0:0:
2,248,60787,2,0,L|136:225,1,118.999996368408,10|0,0:0|0:0,0:0:0:0:
405,380,61102,70,0,P|365:318|265:319,1,178.499994552612,6|0,1:2|0:0,0:0:0:0:
204,366,61416,2,0,B|226:338|226:338|209:239,1,118.999996368408,8|0,0:0|0:0,0:0:0:0:
174,66,61730,1,0,1:0:0:0:
298,207,61887,1,2,1:2:0:0:
67,130,62044,1,10,0:0:0:0:
317,81,62201,6,0,B|485:49|485:49|441:107,1,237.999992736817,6|0,1:2|1:0,0:0:0:0:
330,353,62672,1,10,0:0:0:0:
475,199,62829,1,0,1:0:0:0:
243,306,62986,2,0,L|230:374,1,59.4999981842042,10|0,0:0|0:0,0:0:0:0:
317,81,63144,69,10,0:0:0:0:
326,124,63222,1,8,0:0:0:0:
335,168,63301,1,8,0:0:0:0:
344,211,63379,1,8,0:0:0:0:
353,255,63458,6,0,B|296:225|242:249|237:298|185:322|129:290,1,237.999992736817,6|0,1:2|1:0,0:0:0:0:
80,75,63929,2,0,P|138:105|163:169,1,118.999996368408,10|0,0:0|0:0,0:0:0:0:
247,379,64243,1,2,1:2:0:0:
326,124,64400,1,2,1:2:0:0:
391,309,64557,1,8,0:0:0:0:
76,273,64714,70,0,B|256:235|256:235|310:286,1,237.999992736817,6|0,1:2|1:0,0:0:0:0:
109,165,65185,2,0,L|236:139,1,118.999996368408,10|0,0:0|0:0,0:0:0:0:
76,273,65500,1,2,1:2:0:0:
17,108,65657,1,0,1:0:0:0:
201,257,65814,2,0,L|225:141,1,118.999996368408,10|0,0:0|0:0,0:0:0:0:
0,380,66128,6,0,P|59:319|151:343,1,178.499994552612,6|0,1:2|0:0,0:0:0:0:
168,361,66442,1,10,0:0:0:0:
17,108,66599,2,0,B|-5:136|-5:136|12:235,1,118.999996368408,2|0,0:0|1:0,0:0:0:0:
262,131,66913,1,2,1:2:0:0:
100,166,67070,1,8,0:0:0:0:
306,38,67227,70,0,B|351:59|351:59|376:197,1,178.499994552612,6|0,1:2|0:0,0:0:0:0:
378,219,67541,1,2,1:2:0:0:
456,74,67698,1,8,0:0:0:0:
446,367,67856,6,0,B|401:346|401:346|376:208,1,178.499994552612,6|0,1:2|0:0,0:0:0:0:
373,185,68170,1,2,1:2:0:0:
294,334,68327,1,8,0:0:0:0:
262,131,68484,1,2,0:0:0:0:
41,293,68641,70,0,P|123:262|234:262,1,178.499994552612,4|0,1:2|0:0,0:0:0:0:
294,334,68955,2,0,P|236:304|211:240,1,118.999996368408,8|0,0:0|0:0,0:0:0:0:
234,31,69269,1,0,1:0:0:0:
262,131,69426,1,0,1:0:0:0:
449,78,69583,2,0,L|333:54,1,118.999996368408,10|0,0:0|0:0,0:0:0:0:
103,164,69897,6,0,L|170:150,1,59.4999981842042,6|0,1:2|0:0,0:0:0:0:
381,205,70055,1,8,0:0:0:0:
387,214,70133,1,8,0:0:0:0:
392,222,70212,2,0,L|459:208,3,59.4999981842042,10|8|8|8,1:2|0:0|0:0|0:0,0:0:0:0:
323,313,70526,69,10,1:2:0:0:
317,322,70604,1,8,0:0:0:0:
312,330,70683,2,0,L|245:316,1,59.4999981842042,8|8,0:0|0:0,0:0:0:0:
163,211,70840,1,10,1:2:0:0:
121,200,70918,1,8,0:0:0:0:
79,207,70997,1,8,0:0:0:0:
43,228,71075,1,8,0:0:0:0:
18,262,71154,22,0,P|18:208|2:157,1,101.999996887207,6|2,1:2|0:0,0:0:0:0:
0,34,71625,2,0,P|47:90|140:72,1,152.999995330811,2|0,0:0|0:0,0:0:0:0:
413,84,72411,6,0,L|421:137,1,42.5,4|0,1:2|0:0,0:0:0:0:
447,264,72568,1,2,3:0:0:0:
447,264,72646,1,8,3:0:0:0:
447,264,72725,1,8,0:0:0:0:
247,185,72882,70,0,B|222:195|222:195|247:204,1,51,0|0,1:0|0:0,0:0:0:0:
274,100,73196,6,0,B|233:81|189:89|178:122|167:153|118:170|68:141|72:86|113:83,1,255.000009727478,4|8,1:2|0:0,0:0:0:0:
142,234,73667,5,2,1:2:0:0:
142,244,73981,1,0,1:0:0:0:
142,253,74295,1,2,1:2:0:0:
142,262,74609,1,0,1:0:0:0:
142,272,74923,1,2,1:2:0:0:
142,281,75237,1,0,1:0:0:0:
142,291,75552,1,2,1:2:0:0:
142,300,75866,1,2,1:2:0:0:
184,372,76180,5,2,1:2:0:0:
267,372,76494,1,0,1:0:0:0:
308,300,76808,1,2,1:2:0:0:
267,228,77122,1,0,1:0:0:0:
308,154,77437,1,2,1:2:0:0:
395,154,77751,1,0,1:0:0:0:
439,228,78065,1,2,1:2:0:0:
393,300,78379,1,2,1:2:0:0:
354,228,78536,1,0,0:0:0:0:
308,154,78693,69,2,1:2:0:0:
308,300,79007,1,0,1:0:0:0:
223,154,79322,1,2,1:2:0:0:
354,228,79636,1,0,1:0:0:0:
185,228,79950,1,2,1:2:0:0:
308,154,80264,1,0,1:0:0:0:
224,300,80578,1,2,1:2:0:0:
223,154,80892,1,2,1:2:0:0:
393,300,81206,5,2,1:2:0:0:
267,83,81520,1,0,1:0:0:0:
267,372,81835,1,2,1:2:0:0:
141,154,82149,1,0,1:0:0:0:
393,154,82463,69,2,1:2:0:0:
393,154,82620,1,0,1:0:0:0:
267,228,82777,2,0,L|251:303,1,63.7500024318696,10|0,0:0|1:0,0:0:0:0:
141,154,83091,1,10,0:0:0:0:
86,263,83248,5,8,0:0:0:0:
88,274,83327,1,8,0:0:0:0:
91,285,83405,2,0,L|86:326,3,31.8750012159348,8|8|2|2,3:0|3:0|3:0|3:0,0:0:0:0:
59,182,83719,54,0,P|47:120|92:163,1,165.749992412568,2|0,1:2|0:0,0:0:0:0:
52,174,84034,70,0,P|40:112|85:155,1,165.749992412568,2|0,1:2|0:0,0:0:0:0:
47,166,84348,6,0,P|35:104|80:147,1,165.749992412568,2|0,1:2|0:0,0:0:0:0:
42,158,84663,70,0,P|30:96|75:139,1,165.749992412568,2|0,1:2|0:0,0:0:0:0:
37,149,84976,6,0,P|25:87|70:130,1,165.749992412568,2|0,1:2|0:0,0:0:0:0:
31,141,85291,70,0,P|19:79|64:122,1,165.749992412568,0|0,1:2|0:0,0:0:0:0:
85,208,85604,5,2,1:2:0:0:
192,96,85761,1,8,0:0:0:0:
194,86,85840,1,8,0:0:0:0:
196,76,85918,1,10,0:0:0:0:
287,187,86075,69,8,0:0:0:0:
289,197,86154,1,8,0:0:0:0:
291,207,86233,2,0,L|310:316,1,76.4999976654053,6|0,1:2|1:0,0:0:0:0:
375,219,86547,1,8,0:0:0:0:
220,254,86704,1,8,3:0:0:0:
220,254,86783,1,8,3:0:0:0:
220,254,86861,2,0,L|111:273,1,76.4999976654053,0|0,1:0|1:0,0:0:0:0:
281,366,87175,2,0,L|390:347,1,76.4999976654053,10|8,0:0|3:0,0:0:0:0:
375,219,87489,5,0,1:0:0:0:
415,295,87646,1,0,1:0:0:0:
510,197,87803,1,8,0:0:0:0:
501,284,87961,1,2,3:0:0:0:
501,284,88039,1,2,3:0:0:0:
501,284,88117,1,0,1:0:0:0:
436,160,88274,1,0,1:0:0:0:
330,294,88431,2,0,P|292:302|241:287,1,76.4999976654053,10|2,0:0|3:0,0:0:0:0:
70,208,88746,70,0,L|179:189,1,76.4999976654053,2|0,1:2|1:0,0:0:0:0:
307,109,89060,2,0,L|198:90,1,76.4999976654053,8|8,0:0|3:0,0:0:0:0:
205,92,89295,1,8,3:0:0:0:
205,92,89374,1,0,1:0:0:0:
256,20,89531,1,2,1:2:0:0:
228,178,89688,1,10,0:0:0:0:
392,109,89845,6,0,L|501:90,1,76.4999976654053,8|0,3:0|1:0,0:0:0:0:
415,26,90159,1,0,1:0:0:0:
441,179,90316,2,0,L|460:288,1,76.4999976654053,10|2,0:0|3:0,0:0:0:0:
398,309,90552,1,2,3:0:0:0:
398,309,90630,2,0,L|417:418,1,76.4999976654053,2|0,1:2|1:0,0:0:0:0:
256,261,90945,2,0,P|218:253|167:268,1,76.4999976654053,10|2,0:0|3:0,0:0:0:0:
35,355,91259,70,0,B|66:327|66:327|186:347,1,152.999995330811,2|8,1:2|0:0,0:0:0:0:
85,172,91730,1,8,3:0:0:0:
85,172,91808,1,8,3:0:0:0:
85,172,91887,2,0,L|104:281,1,76.4999976654053,2|0,1:2|1:0,0:0:0:0:
256,176,92201,1,8,0:0:0:0:
256,261,92358,1,2,3:2:0:0:
427,172,92515,2,0,L|408:281,1,76.4999976654053,2|0,1:2|1:0,0:0:0:0:
175,79,92829,5,8,0:0:0:0:
256,261,92986,1,0,1:0:0:0:
337,79,93144,2,0,L|391:69,1,38.2499988327027,10|0,0:0|0:0,0:0:0:0:
444,295,93301,69,8,0:0:0:0:
396,286,93379,1,8,0:0:0:0:
349,277,93458,1,8,0:0:0:0:
302,269,93536,1,8,0:0:0:0:
256,261,93615,54,0,B|171:245|171:245|133:275|133:275|43:258,1,220.999989883423,6|0,1:2|1:0,0:0:0:0:
124,41,94086,2,0,P|140:94|124:146,1,110.499994941712,8|0,0:0|1:0,0:0:0:0:
109,171,94322,1,8,0:0:0:0:
109,171,94400,1,2,1:2:0:0:
27,27,94557,1,0,1:0:0:0:
234,109,94714,2,0,L|351:86,1,110.499994941712,8|0,0:0|0:0,0:0:0:0:
366,326,95028,5,2,1:2:0:0:
372,333,95107,1,2,0:0:0:0:
378,339,95185,2,0,P|377:311|368:286,1,55.2499974708558,2|0,1:2|0:0,0:0:0:0:
215,243,95342,2,0,P|215:270|224:295,1,55.2499974708558,10|0,0:0|0:0,0:0:0:0:
449,208,95500,1,2,1:2:0:0:
449,208,95578,1,8,0:0:0:0:
449,208,95657,2,0,L|507:197,1,55.2499974708558,2|0,1:2|0:0,0:0:0:0:
319,96,95814,2,0,L|377:85,1,55.2499974708558,2|0,1:2|0:0,0:0:0:0:
215,243,95971,2,0,L|273:232,1,55.2499974708558,10|0,0:0|0:0,0:0:0:0:
12,43,96128,70,0,B|40:60|40:60|62:196,1,165.749992412568,6|0,1:2|0:0,0:0:0:0:
59,272,96442,2,0,L|40:155,1,110.499994941712,2|8,1:2|0:0,0:0:0:0:
154,347,96756,1,2,1:2:0:0:
154,347,96835,1,8,0:0:0:0:
154,347,96913,2,0,L|143:289,1,55.2499974708558,0|0,1:0|0:0,0:0:0:0:
299,233,97070,2,0,L|288:291,1,55.2499974708558,2|0,1:2|0:0,0:0:0:0:
358,361,97227,2,0,L|369:303,1,55.2499974708558,10|0,0:0|0:0,0:0:0:0:
396,169,97384,2,0,L|385:227,1,55.2499974708558,2|0,0:0|0:0,0:0:0:0:
465,379,97541,6,0,P|413:362|358:361,1,110.499994941712,2|0,1:2|1:0,0:0:0:0:
299,233,97856,2,0,L|288:291,1,55.2499974708558,10|0,0:0|0:0,0:0:0:0:
154,347,98013,1,2,1:2:0:0:
154,347,98091,1,8,0:0:0:0:
154,347,98170,2,0,P|130:332|103:328,1,55.2499974708558,2|0,1:2|0:0,0:0:0:0:
0,259,98327,2,0,P|23:244|50:240,1,55.2499974708558,2|0,1:2|0:0,0:0:0:0:
211,172,98484,2,0,P|187:157|160:153,1,55.2499974708558,10|0,0:0|0:0,0:0:0:0:
0,39,98641,70,0,B|39:75|39:75|226:38,1,220.999989883423,6|0,1:2|1:0,0:0:0:0:
319,193,99112,2,0,L|211:172,1,110.499994941712,10|0,0:0|1:0,0:0:0:0:
136,206,99348,1,8,0:0:0:0:
136,206,99426,2,0,L|125:148,1,55.2499974708558,2|0,1:2|0:0,0:0:0:0:
309,247,99583,2,0,L|320:189,1,55.2499974708558,2|0,1:2|0:0,0:0:0:0:
100,337,99740,2,0,L|89:279,1,55.2499974708558,10|0,0:0|0:0,0:0:0:0:
343,381,99897,6,0,B|371:364|371:364|386:286,1,110.499994941712,2|0,0:0|1:0,0:0:0:0:
485,165,100212,2,0,P|486:192|477:221,1,55.2499974708558,2|0,1:2|0:0,0:0:0:0:
326,138,100369,2,0,P|318:164|319:191,1,55.2499974708558,10|0,0:0|0:0,0:0:0:0:
423,64,100526,1,2,1:2:0:0:
423,64,100604,1,8,0:0:0:0:
423,64,100683,2,0,L|412:118,1,55.2499974708558,2|0,1:2|0:0,0:0:0:0:
385,287,100840,2,0,L|397:223,1,55.2499974708558,2|0,1:2|0:0,0:0:0:0:
242,118,100997,2,0,L|232:172,1,55.2499974708558,10|0,0:0|0:0,0:0:0:0:
47,349,101154,6,0,P|75:285|220:300,1,220.999989883423,6|0,1:2|1:0,0:0:0:0:
457,227,101625,6,0,B|417:278|390:278|390:278|385:287|385:287|383:278|383:278|355:273|328:208,1,191.250007295609,10|0,0:0|0:0,0:0:0:0:
333,197,101939,2,0,B|357:255|385:260|385:260|387:269|387:269|392:260|392:260|419:260|459:209,1,191.250007295609,2|0,1:2|0:0,0:0:0:0:
460,192,102253,2,0,B|420:243|393:243|393:243|388:252|388:252|386:243|386:243|358:238|331:173,1,191.250007295609,2|0,1:2|0:0,0:0:0:0:
336,162,102567,2,0,B|360:220|388:225|388:225|390:234|390:234|395:225|395:225|422:225|462:174,1,191.250007295609,2|0,1:2|0:0,0:0:0:0:
407,50,102882,70,0,P|413:89|403:122,1,63.7500024318696,2|0,1:2|0:0,0:0:0:0:
315,279,103039,2,0,P|309:318|319:351,1,63.7500024318696,2|0,1:2|0:0,0:0:0:0:
149,137,103353,22,0,L|122:133,1,25.5,8|0,3:0|0:0,0:0:0:0:
26,182,103667,22,0,B|68:142|131:162|128:210|190:230|233:192,1,220.999989883423,6|2,1:2|1:2,0:0:0:0:
404,77,104138,2,0,L|346:88,1,55.2499974708558,10|0,0:0|0:0,0:0:0:0:
239,107,104295,1,2,1:2:0:0:
239,107,104374,1,8,0:0:0:0:
239,107,104452,2,0,L|181:118,1,55.2499974708558,2|0,1:2|0:0,0:0:0:0:
322,226,104609,2,0,L|333:168,1,55.2499974708558,2|0,1:2|0:0,0:0:0:0:
195,63,104767,2,0,L|184:117,1,55.2499974708558,10|0,0:0|0:0,0:0:0:0:
27,253,104924,6,0,B|44:225|44:225|122:210,1,110.499994941712,2|0,0:0|1:0,0:0:0:0:
248,183,105238,2,0,P|237:215|238:243,1,55.2499974708558,2|0,1:2|0:0,0:0:0:0:
275,356,105395,2,0,P|286:324|285:296,1,55.2499974708558,10|0,0:0|0:0,0:0:0:0:
461,176,105552,1,2,1:2:0:0:
461,176,105630,1,8,0:0:0:0:
461,176,105709,1,0,1:0:0:0:
375,368,105866,2,0,L|495:345,1,110.499994941712,2|8,1:2|0:0,0:0:0:0:
248,183,106180,70,0,B|84:152|84:152|39:204,1,220.999989883423,6|0,1:2|1:0,0:0:0:0:
287,383,106651,2,0,L|266:273,1,110.499994941712,10|0,0:0|1:0,0:0:0:0:
334,213,106887,1,8,0:0:0:0:
334,213,106966,2,0,L|346:276,1,55.2499974708558,2|0,1:2|0:0,0:0:0:0:
163,166,107123,2,0,L|175:229,1,55.2499974708558,2|0,1:2|0:0,0:0:0:0:
295,34,107280,2,0,L|307:97,1,55.2499974708558,10|0,0:0|0:0,0:0:0:0:
10,21,107437,6,0,B|22:90|22:90|1:123|1:123|36:148|36:148|53:227,1,220.999989883423,6|2,1:2|1:2,0:0:0:0:
10,363,107829,1,2,0:0:0:0:
17,371,107908,2,0,P|43:322|91:296,1,110.499994941712,10|2,0:0|1:2,0:0:0:0:
125,130,108144,1,10,0:0:0:0:
127,141,108222,2,0,L|139:204,1,55.2499974708558,2|0,1:2|0:0,0:0:0:0:
346,176,108379,69,2,1:2:0:0:
342,186,108458,1,2,0:0:0:0:
339,196,108536,2,0,B|288:209|249:184|249:184|214:208|214:208|176:183|123:198,1,216.750004134178,10|0,0:0|0:0,0:0:0:0:
22,173,108850,6,0,L|10:110,1,55.2499974708558,6|0,1:2|0:0,0:0:0:0:
38,255,109007,2,0,L|26:192,1,55.2499974708558,2|0,1:2|0:0,0:0:0:0:
53,334,109164,2,0,L|41:271,1,55.2499974708558,10|0,0:0|0:0,0:0:0:0:
137,195,109322,69,2,1:2:0:0:
137,195,109400,1,8,0:0:0:0:
137,195,109479,2,0,L|125:132,1,55.2499974708558,0|0,1:0|0:0,0:0:0:0:
153,277,109636,2,0,L|141:214,1,55.2499974708558,2|0,1:2|0:0,0:0:0:0:
290,116,109793,6,0,P|315:105|347:107,1,55.2499974708558,10|0,0:0|0:0,0:0:0:0:
285,105,109950,2,0,P|310:94|342:96,1,55.2499974708558,0|0,0:0|0:0,0:0:0:0:
369,262,110107,70,0,P|343:272|311:270,1,55.2499974708558,2|0,1:2|0:0,0:0:0:0:
374,273,110264,2,0,P|348:283|316:281,1,55.2499974708558,0|0,1:0|0:0,0:0:0:0:
398,176,110421,6,0,L|463:169,1,55.2499974708558,10|0,0:0|0:0,0:0:0:0:
232,248,110578,1,0,1:0:0:0:
232,248,110657,1,8,0:0:0:0:
232,248,110735,2,0,P|237:278|232:308,1,55.2499974708558,2|0,1:2|0:0,0:0:0:0:
73,184,110892,2,0,P|68:211|71:238,1,55.2499974708558,2|0,1:2|0:0,0:0:0:0:
224,46,111049,2,0,B|244:71|244:71|233:148,1,110.499994941712,10|0,0:0|0:0,0:0:0:0:
32,348,111363,70,0,P|85:326|141:326,1,110.499994941712,6|0,1:2|0:0,0:0:0:0:
337,271,111678,2,0,P|282:269|231:248,1,110.499994941712,8|0,0:0|1:0,0:0:0:0:
154,216,111913,1,8,0:0:0:0:
154,216,111992,2,0,L|133:351,1,110.499994941712,2|0,1:2|1:0,0:0:0:0:
215,357,112227,2,0,L|231:248,1,110.499994941712,2|0,0:0|0:0,0:0:0:0:
252,111,112463,2,0,L|242:178,1,55.2499974708558,2|0,0:0|0:0,0:0:0:0:
323,377,112620,5,6,1:2:0:0:
460,265,112777,1,8,0:0:0:0:
462,275,112856,1,8,0:0:0:0:
464,285,112934,1,2,1:2:0:0:
329,190,113091,1,8,0:0:0:0:
327,200,113170,1,8,0:0:0:0:
325,210,113248,1,2,1:2:0:0:
492,70,113405,69,8,3:0:0:0:
451,142,113562,1,2,3:2:0:0:
410,70,113719,1,2,3:0:0:0:
208,285,113877,21,6,1:2:0:0:
269,33,114034,1,0,1:0:0:0:
319,286,114505,5,8,0:0:0:0:
105,243,114662,1,0,1:0:0:0:
327,288,114819,1,10,0:0:0:0:
66,163,114976,70,0,B|29:171|29:171|7:273|7:273|35:299,1,170,6|0,1:2|1:0,0:0:0:0:
243,371,115447,1,8,0:0:0:0:
308,173,115604,1,8,3:0:0:0:
308,173,115683,1,2,3:0:0:0:
308,173,115762,1,8,0:0:0:0:
385,349,115918,5,8,3:0:0:0:
327,288,116075,1,8,3:0:0:0:
409,269,116233,1,2,3:0:0:0:
161,360,116390,70,0,L|58:346,1,85,6|0,1:2|1:0,0:0:0:0:
21,67,116704,1,10,0:0:0:0:
155,255,116861,1,2,1:2:0:0:
155,255,116940,1,0,1:0:0:0:
155,255,117018,1,8,0:0:0:0:
199,67,117175,1,2,1:2:0:0:
61,251,117332,1,8,0:0:0:0:
308,173,117489,6,0,B|437:153|437:153|403:195,1,170,6|0,1:2|1:0,0:0:0:0:
247,261,117960,1,8,0:0:0:0:
292,74,118117,1,2,1:2:0:0:
410,275,118274,1,10,0:0:0:0:
269,165,118431,69,8,0:0:0:0:
228,151,118509,1,8,0:0:0:0:
186,154,118588,1,10,0:0:0:0:
148,172,118666,1,8,0:0:0:0:
108,188,118745,1,8,0:0:0:0:
66,192,118823,1,8,0:0:0:0:
25,181,118903,6,0,L|43:256,1,50.9999984436036,6|0,1:2|0:0,0:0:0:0:
11,175,119060,2,0,L|43:301,1,101.999996887207,2|8,1:2|0:0,0:0:0:0:
212,339,119374,70,0,B|270:332|270:332|299:351|299:351|370:344,1,152.999995330811,2|0,1:2|0:0,0:0:0:0:
214,328,119688,2,0,B|272:321|272:321|301:340|301:340|372:333,1,152.999995330811,2|0,1:2|0:0,0:0:0:0:
216,318,120002,2,0,B|274:311|274:311|303:330|303:330|374:323,1,152.999995330811,2|0,1:2|0:0,0:0:0:0:
441,312,120316,5,2,1:2:0:0:
323,201,120473,1,8,0:0:0:0:
130,326,120630,70,0,B|99:311|99:311|88:218,1,127.5,6|0,1:2|0:0,0:0:0:0:
84,177,120945,1,8,0:0:0:0:
15,305,121102,1,8,3:0:0:0:
15,305,121259,1,2,3:0:0:0:
230,212,121416,6,0,L|305:194,1,50.9999984436036,6|0,1:2|0:0,0:0:0:0:
224,226,121573,2,0,L|350:194,1,101.999996887207,2|8,1:2|0:0,0:0:0:0:
462,87,121887,70,0,B|424:142|445:206|445:206|460:217|480:217,1,152.999995330811,2|0,1:2|0:0,0:0:0:0:
451,87,122201,2,0,B|413:142|434:206|434:206|449:217|469:217,1,152.999995330811,2|0,1:2|0:0,0:0:0:0:
441,88,122515,2,0,B|403:143|424:207|424:207|439:218|459:218,1,152.999995330811,2|0,1:2|0:0,0:0:0:0:
430,88,122829,2,0,B|392:143|413:207|413:207|428:218|448:218,1,152.999995330811,2|0,1:2|0:0,0:0:0:0:
438,299,123144,6,0,P|428:259|439:216,1,85,10|0,0:0|1:0,0:0:0:0:
495,151,123458,1,2,1:2:0:0:
321,259,123615,70,0,B|190:240|190:240|204:252|212:272,1,165.749992412568,12|0,0:0|0:0,0:0:0:0:
199,329,123929,22,0,L|209:265,1,63.7500024318696,4|0,1:2|0:0,0:0:0:0:
114,352,124243,2,0,L|124:288,1,63.7500024318696,2|0,0:0|0:0,0:0:0:0:
29,373,124557,2,0,L|39:309,1,63.7500024318696,0|0,0:0|0:0,0:0:0:0:
53,228,124871,1,2,0:0:0:0:
208,266,125028,5,0,1:0:0:0:
208,266,125185,2,0,P|242:272|271:265,1,63.7500024318696,0|0,1:0|0:0,0:0:0:0:
302,339,125500,2,0,P|330:319|345:293,1,63.7500024318696,2|0,0:0|0:0,0:0:0:0:
423,174,125814,2,0,P|394:193|379:219,1,63.7500024318696,0|0,0:0|0:0,0:0:0:0:
432,289,126128,1,2,0:0:0:0:
270,265,126285,69,0,1:0:0:0:
270,265,126442,2,0,L|206:255,1,63.7500024318696,0|0,1:0|0:0,0:0:0:0:
237,179,126756,2,0,L|173:169,1,63.7500024318696,2|0,0:0|0:0,0:0:0:0:
62,267,127070,2,0,L|126:257,1,63.7500024318696,0|0,0:0|0:0,0:0:0:0:
174,169,127384,1,2,0:0:0:0:
108,54,127541,5,0,1:0:0:0:
108,54,127698,2,0,P|102:88|109:117,1,63.7500024318696,0|0,1:0|0:0,0:0:0:0:
227,35,128013,2,0,P|198:54|183:80,1,63.7500024318696,2|0,0:0|0:0,0:0:0:0:
267,174,128327,2,0,P|295:154|310:128,1,63.7500024318696,0|0,0:0|0:0,0:0:0:0:
328,98,128562,1,0,0:0:0:0:
328,98,128641,1,6,0:0:0:0:
256,352,128955,53,4,1:2:0:0:
256,352,129269,1,8,0:0:0:0:
192,288,129426,1,10,0:0:0:0:
320,256,129583,1,10,0:0:0:0:
160,160,129740,1,8,0:0:0:0:
352,128,129897,1,8,0:0:0:0:
128,32,130055,1,8,0:0:0:0:
0,256,130212,69,4,1:2:0:0:
0,256,130526,1,8,0:0:0:0:
64,160,130683,1,8,0:0:0:0:
160,256,130840,1,8,0:0:0:0:
224,96,130997,1,8,0:0:0:0:
352,256,131154,1,10,0:0:0:0:
384,32,131311,1,10,0:0:0:0:
512,256,131468,5,6,1:2:0:0:
512,256,131782,1,10,0:0:0:0:
448,160,131939,1,10,0:0:0:0:
352,256,132096,1,8,0:0:0:0:
288,96,132253,1,8,0:0:0:0:
192,256,132411,1,10,0:0:0:0:
128,32,132568,1,10,0:0:0:0:
0,256,132725,69,6,1:2:0:0:
139,154,132882,1,8,0:0:0:0:
139,154,132960,1,8,0:0:0:0:
139,154,133039,2,0,L|181:147,3,42.5,10|8|10|8,1:2|0:0|0:0|0:0,0:0:0:0:
343,46,133353,5,8,1:2:0:0:
302,57,133431,1,8,0:0:0:0:
280,93,133510,1,8,0:0:0:0:
272,134,133588,1,8,0:0:0:0:
287,174,133667,1,8,1:2:0:0:
310,209,133745,1,8,0:0:0:0:
327,249,133824,1,8,0:0:0:0:
337,292,133902,1,8,0:0:0:0:
338,337,133981,70,0,P|329:369|308:397,1,50.9999984436036,2|0,1:2|0:0,0:0:0:0:
205,249,134138,6,0,B|160:202|89:219|89:219|101:240|93:272,1,152.999995330811,2|2,1:2|0:0,0:0:0:0:
23,322,134452,2,0,B|67:275|138:292|138:292|126:313|134:345,1,152.999995330811,2|2,1:2|0:0,0:0:0:0:
186,380,134767,69,10,1:2:0:0:
278,206,134924,1,8,1:2:0:0:
448,379,135081,22,0,B|437:354|437:354|450:298,1,76.4999976654053,6|0,1:2|0:0,0:0:0:0:
483,178,135395,70,0,L|468:237,1,50.9999984436036,10|0,0:0|0:0,0:0:0:0:
351,277,135552,69,2,1:2:0:0:
278,206,135709,1,2,3:0:0:0:
278,206,135787,1,2,3:0:0:0:
278,206,135866,1,8,3:0:0:0:
205,267,136023,1,8,3:0:0:0:
137,209,136180,1,2,3:0:0:0:
71,262,136337,1,2,3:0:0:0:
71,262,136416,1,2,3:0:0:0:
71,262,136494,1,2,3:0:0:0:
128,209,154086,6,0,B|96:249|12:231|-14:181|-4:128|52:87|97:80|122:102|166:122|186:164|208:191|238:202|270:200|314:196|349:183|369:150,1,510,2|0,1:2|0:0,0:0:0:0:
416,123,155342,70,0,B|431:88|430:65|396:47|369:50|337:37|337:37|388:344|388:344|348:318|294:332|257:299|259:242|262:220|298:203|322:225,1,680,2|0,0:0|0:0,0:0:0:0:
256,192,156678,12,0,157856,0:0:0:0:
109,166,158955,54,0,B|288:125|288:125|253:183,1,237.999992736817,6|0,1:2|1:0,0:0:0:0:
160,363,159426,2,0,L|191:231,1,118.999996368408,10|0,0:0|0:0,0:0:0:0:
238,37,159740,1,2,1:2:0:0:
291,276,159897,1,2,1:2:0:0:
377,100,160055,1,8,0:0:0:0:
409,363,160212,6,0,B|423:341|446:332|446:332|430:281|374:249|338:252|300:269|291:276,1,237.999992736817,6|0,1:2|1:0,0:0:0:0:
78,375,160683,2,0,P|136:345|161:281,1,118.999996368408,10|0,0:0|0:0,0:0:0:0:
64,115,160997,1,2,1:2:0:0:
65,279,161154,1,0,1:0:0:0:
157,104,161311,2,0,P|127:45|63:20,1,118.999996368408,10|0,0:0|0:0,0:0:0:0:
159,298,161625,70,0,B|228:285|228:285|254:252|254:252|334:237,1,178.499994552612,6|0,1:2|0:0,0:0:0:0:
354,235,161939,1,10,0:0:0:0:
342,15,162096,2,0,L|320:142,1,118.999996368408,2|0,0:0|1:0,0:0:0:0:
281,369,162411,1,2,1:2:0:0:
457,223,162568,1,8,0:0:0:0:
219,158,162725,6,0,B|37:117|37:117|-9:163,1,237.999992736817,6|0,1:2|1:0,0:0:0:0:
181,258,163196,2,0,L|46:228,1,118.999996368408,10|0,0:0|0:0,0:0:0:0:
178,369,163510,1,2,1:2:0:0:
326,149,163667,1,2,1:2:0:0:
413,337,163824,1,8,0:0:0:0:
183,130,163981,70,0,B|7:91|7:91|52:151,1,237.999992736817,6|0,1:2|1:0,0:0:0:0:
268,59,164452,2,0,P|213:80|183:130,1,118.999996368408,10|0,0:0|0:0,0:0:0:0:
321,285,164767,2,0,P|380:258|408:195,1,118.999996368408,2|0,1:2|1:0,0:0:0:0:
376,77,165081,1,10,0:0:0:0:
219,266,165238,6,0,B|162:236|108:260|103:309|51:333|-5:301,1,237.999992736817,6|0,1:2|1:0,0:0:0:0:
211,155,165709,2,0,B|233:183|233:183|219:266,1,118.999996368408,10|0,0:0|0:0,0:0:0:0:
114,136,166023,1,2,1:2:0:0:
291,94,166180,1,0,1:0:0:0:
41,83,166337,2,0,B|19:111|19:111|33:193,1,118.999996368408,10|0,0:0|0:0,0:0:0:0:
176,380,166651,70,0,B|353:347,1,178.499994552612,6|0,1:2|0:0,0:0:0:0:
429,332,166966,2,0,L|305:309,1,118.999996368408,8|0,0:0|0:0,0:0:0:0:
152,281,167280,1,0,1:0:0:0:
328,216,167437,1,2,1:2:0:0:
113,124,167594,1,10,0:0:0:0:
362,4,167751,6,0,B|349:83|349:83|372:115|372:115|338:141|338:141|326:222,1,237.999992736817,6|0,1:2|1:0,0:0:0:0:
257,37,168222,1,10,0:0:0:0:
458,67,168379,1,0,1:0:0:0:
249,36,168536,2,0,L|162:22,1,59.4999981842042,10|0,0:0|0:0,0:0:0:0:
13,228,168693,69,10,0:0:0:0:
18,184,168771,1,8,0:0:0:0:
23,139,168850,1,8,0:0:0:0:
28,96,168928,1,8,0:0:0:0:
32,53,169007,6,0,B|54:107|54:107|250:137,1,237.999992736817,6|0,1:2|1:0,0:0:0:0:
91,344,169479,2,0,L|110:217,1,118.999996368408,10|0,0:0|0:0,0:0:0:0:
141,18,169793,1,2,1:2:0:0:
213,238,169950,1,2,1:2:0:0:
292,66,170107,1,8,0:0:0:0:
500,283,170264,70,0,P|458:219|311:266,1,237.999992736817,6|0,1:2|1:0,0:0:0:0:
438,57,170735,2,0,L|420:174,1,118.999996368408,10|0,0:0|0:0,0:0:0:0:
394,367,171049,1,2,1:2:0:0:
419,183,171206,1,0,1:0:0:0:
177,333,171363,2,0,L|294:350,1,118.999996368408,10|0,0:0|0:0,0:0:0:0:
50,150,171678,6,0,B|70:198|70:198|209:218,1,178.499994552612,6|0,1:2|0:0,0:0:0:0:
223,221,171992,1,10,0:0:0:0:
0,384,172149,2,0,B|30:364|30:364|44:269,1,118.999996368408,2|0,0:0|1:0,0:0:0:0:
69,55,172463,1,2,1:2:0:0:
129,243,172620,1,8,0:0:0:0:
371,118,172777,70,0,P|293:82|183:82,1,178.499994552612,6|0,1:2|0:0,0:0:0:0:
168,84,173091,1,2,1:2:0:0:
326,213,173248,1,8,0:0:0:0:
146,348,173405,6,0,P|224:312|334:312,1,178.499994552612,4|0,1:2|0:0,0:0:0:0:
349,314,173719,1,2,1:2:0:0:
201,185,173877,1,8,0:0:0:0:
371,118,174034,1,2,0:0:0:0:
125,250,174191,70,0,B|77:230|77:230|57:91,1,178.499994552612,4|0,1:2|0:0,0:0:0:0:
21,35,174505,2,0,L|39:157,1,118.999996368408,8|0,0:0|0:0,0:0:0:0:
71,352,174819,1,0,1:0:0:0:
125,250,174976,1,0,1:0:0:0:
266,352,175133,2,0,P|328:372|391:344,1,118.999996368408,10|0,0:0|0:0,0:0:0:0:
512,204,175447,6,0,P|426:203|326:157,1,178.499994552612,2|0,1:2|0:0,0:0:0:0:
277,125,175761,2,0,P|334:136|383:175,1,118.999996368408,10|0,0:0|0:0,0:0:0:0:
266,352,176075,1,2,1:2:0:0:
213,250,176233,1,0,1:0:0:0:
20,369,176390,2,0,L|2:251,1,118.999996368408,10|0,0:0|0:0,0:0:0:0:
180,88,176704,69,6,1:2:0:0:
108,250,176861,1,0,1:0:0:0:
44,46,177018,1,10,0:0:0:0:
213,250,177175,6,0,B|308:218|286:312|395:276,1,178.499994552612,6|0,1:2|0:0,0:0:0:0:
415,274,177489,1,2,1:2:0:0:
254,148,177646,1,8,0:0:0:0:
495,29,177803,70,0,B|400:-3|422:91|313:55,1,178.499994552612,6|0,1:2|0:0,0:0:0:0:
293,53,178117,1,2,1:2:0:0:
458,182,178274,1,8,0:0:0:0:
213,250,178431,6,0,B|308:218|286:312|395:276,1,178.499994552612,6|0,1:2|0:0,0:0:0:0:
415,274,178745,1,0,1:0:0:0:
202,153,178903,2,0,P|143:183|118:247,1,118.999996368408,10|0,0:0|0:0,0:0:0:0:
388,377,179217,69,10,0:0:0:0:
142,327,179374,1,0,1:0:0:0:
320,224,179531,1,0,1:0:0:0:
51,75,179688,5,10,0:0:0:0:
297,125,179845,1,0,1:0:0:0:
119,228,180002,1,0,1:0:0:0:
388,377,180159,69,10,0:0:0:0:
142,327,180316,1,0,1:0:0:0:
406,174,180473,1,14,0:0:0:0:
250,88,182986,6,0,L|315:79,1,59.4999981842042,4|0,1:2|0:0,0:0:0:0:
121,162,183144,1,8,0:0:0:0:
117,172,183222,1,8,0:0:0:0:
113,182,183301,2,0,L|48:173,3,59.4999981842042,8|8|8|8,1:2|0:0|0:0|0:0,0:0:0:0:
172,304,183615,69,8,1:2:0:0:
191,263,183693,1,8,0:0:0:0:
221,232,183772,1,8,0:0:0:0:
261,213,183850,1,8,0:0:0:0:
302,207,183929,1,8,1:2:0:0:
344,211,184007,1,8,0:0:0:0:
385,223,184086,1,8,0:0:0:0:
420,247,184164,1,8,0:0:0:0:
448,280,184243,6,0,B|424:257|424:257|445:124,1,152.999995330811,6|0,1:2|0:0,0:0:0:0:
433,46,184557,2,0,B|454:66|454:66|441:148,1,101.999996887207,8|0,0:0|0:0,0:0:0:0:
296,304,184871,1,0,1:0:0:0:
271,132,185028,2,0,L|262:75,1,50.9999984436036,2|2,1:2|0:0,0:0:0:0:
298,311,185185,1,10,0:0:0:0:
116,209,185342,70,0,P|63:198|9:198,1,101.999996887207,2|0,1:2|0:0,0:0:0:0:
153,308,185657,2,0,L|144:365,1,50.9999984436036,2|2,1:2|0:0,0:0:0:0:
177,133,185814,1,10,0:0:0:0:
374,254,185971,2,0,B|396:274|396:274|384:356,1,101.999996887207,10|0,0:0|1:0,0:0:0:0:
459,154,186285,2,0,L|450:97,1,50.9999984436036,2|2,1:2|0:0,0:0:0:0:
483,329,186442,1,10,0:0:0:0:
251,233,186599,6,0,B|191:194|126:212|126:212|148:247,1,152.999995330811,2|0,1:2|0:0,0:0:0:0:
135,343,186913,2,0,B|174:283|156:218|156:218|121:240,1,152.999995330811,2|0,1:2|0:0,0:0:0:0:
25,227,187227,2,0,B|85:266|150:248|150:248|128:213,1,152.999995330811,2|0,1:2|0:0,0:0:0:0:
139,116,187541,2,0,B|100:176|118:241|118:241|153:219,1,152.999995330811,2|0,1:2|0:0,0:0:0:0:
236,317,187856,70,0,B|257:277|257:277|379:264,1,152.999995330811,2|0,1:2|0:0,0:0:0:0:
473,351,188170,2,0,B|427:352|427:352|355:253,1,152.999995330811,2|0,1:2|0:0,0:0:0:0:
384,129,188484,2,0,B|408:167|408:167|358:279,1,152.999995330811,2|0,1:2|0:0,0:0:0:0:
317,351,188798,5,10,0:0:0:0:
168,202,188955,1,8,3:0:0:0:
481,119,189112,1,6,1:2:0:0:
256,192,189191,12,0,192960,0:0:0:0:
243,166,193039,6,0,P|251:208|265:162,1,118.999996368408,2|0,0:0|0:0,0:0:0:0:
