osu file format v14

[General]
AudioFilename: audio.mp3
AudioLeadIn: 0
PreviewTime: -1
Countdown: 0
SampleSet: Normal
StackLeniency: 0.7
Mode: 3
LetterboxInBreaks: 0
SpecialStyle: 0
WidescreenStoryboard: 0

[Editor]
DistanceSpacing: 0.4
BeatDivisor: 4
GridSize: 4
TimelineZoom: 1.7

[Metadata]
Title:Permafrost
TitleUnicode:Permafrost
Artist:Aoi
ArtistUnicode:Aoi
Creator:xouross
Version:184K
Source:
Tags:
BeatmapID:1419976
BeatmapSetID:671608

[Difficulty]
HPDrainRate:7
CircleSize:4
OverallDifficulty:8
ApproachRate:5
SliderMultiplier:1.4
SliderTickRate:1

[Events]
//Background and Video events
0,0,"Garden of Artwork.jpg",0,0
//Break Periods
//Storyboard Layer 0 (Background)
//Storyboard Layer 1 (Fail)
//Storyboard Layer 2 (Pass)
//Storyboard Layer 3 (Foreground)
//Storyboard Sound Samples

[TimingPoints]
0,277.777777777778,4,1,0,100,1,0
18888,-100,4,1,0,100,0,1
36666,-100,4,1,0,100,0,0
110000,-100,4,1,0,100,0,1
145555,-100,4,1,0,100,0,0

[HitObjects]
64,192,1111,5,0,0:0:0:0:
192,192,1250,1,0,0:0:0:0:
320,192,1388,1,0,0:0:0:0:
192,192,1527,1,0,0:0:0:0:
448,192,1666,1,0,0:0:0:0:
320,192,1805,1,0,0:0:0:0:
192,192,1944,1,0,0:0:0:0:
64,192,2083,1,0,0:0:0:0:
320,192,2222,1,0,0:0:0:0:
448,192,2361,1,0,0:0:0:0:
64,192,2500,1,0,0:0:0:0:
192,192,2638,1,0,0:0:0:0:
320,192,2777,1,0,0:0:0:0:
448,192,2916,1,0,0:0:0:0:
320,192,3055,1,0,0:0:0:0:
448,192,3194,1,0,0:0:0:0:
192,192,3333,1,0,0:0:0:0:
320,192,3472,1,0,0:0:0:0:
448,192,3611,1,0,0:0:0:0:
192,192,3750,1,0,0:0:0:0:
320,192,3888,1,0,0:0:0:0:
64,192,4027,1,0,0:0:0:0:
448,192,4166,1,0,0:0:0:0:
320,192,4305,1,0,0:0:0:0:
192,192,4444,1,0,0:0:0:0:
448,192,4583,1,0,0:0:0:0:
320,192,4722,1,0,0:0:0:0:
192,192,4861,1,0,0:0:0:0:
64,192,5000,1,0,0:0:0:0:
192,192,5138,1,0,0:0:0:0:
320,192,5277,1,0,0:0:0:0:
192,192,5416,1,0,0:0:0:0:
448,192,5555,1,0,0:0:0:0:
64,192,5555,1,0,0:0:0:0:
192,192,5694,1,0,0:0:0:0:
320,192,5833,1,0,0:0:0:0:
448,192,5972,1,0,0:0:0:0:
192,192,6111,1,0,0:0:0:0:
448,192,6250,1,0,0:0:0:0:
320,192,6388,1,0,0:0:0:0:
448,192,6527,1,0,0:0:0:0:
320,192,6666,1,0,0:0:0:0:
192,192,6805,1,0,0:0:0:0:
320,192,6944,1,0,0:0:0:0:
448,192,7083,1,0,0:0:0:0:
320,192,7222,1,0,0:0:0:0:
448,192,7361,1,0,0:0:0:0:
192,192,7500,1,0,0:0:0:0:
448,192,7638,1,0,0:0:0:0:
64,192,7777,1,0,0:0:0:0:
192,192,7916,1,0,0:0:0:0:
320,192,8055,1,0,0:0:0:0:
192,192,8194,1,0,0:0:0:0:
448,192,8333,1,0,0:0:0:0:
320,192,8472,1,0,0:0:0:0:
192,192,8611,1,0,0:0:0:0:
320,192,8750,1,0,0:0:0:0:
448,192,8888,1,0,0:0:0:0:
320,192,9027,1,0,0:0:0:0:
448,192,9166,1,0,0:0:0:0:
64,192,9166,128,0,10000:0:0:0:0:
192,192,9305,1,0,0:0:0:0:
448,192,9444,1,0,0:0:0:0:
320,192,9583,1,0,0:0:0:0:
192,192,9722,1,0,0:0:0:0:
320,192,9861,1,0,0:0:0:0:
448,192,10000,1,0,0:0:0:0:
192,192,10000,1,0,0:0:0:0:
192,192,10277,1,0,0:0:0:0:
320,192,10416,1,0,0:0:0:0:
448,192,10416,1,0,0:0:0:0:
192,192,10555,1,0,0:0:0:0:
64,192,10555,1,0,0:0:0:0:
320,192,10833,1,0,0:0:0:0:
320,192,11111,1,0,0:0:0:0:
64,192,11388,1,0,0:0:0:0:
192,192,11388,1,0,0:0:0:0:
448,192,11666,1,0,0:0:0:0:
320,192,11666,1,0,0:0:0:0:
192,192,11944,1,0,0:0:0:0:
64,192,12222,1,0,0:0:0:0:
320,192,12222,1,0,0:0:0:0:
64,192,12500,1,0,0:0:0:0:
192,192,12638,1,0,0:0:0:0:
320,192,12638,1,0,0:0:0:0:
448,192,12777,1,0,0:0:0:0:
320,192,12777,1,0,0:0:0:0:
320,192,13055,1,0,0:0:0:0:
320,192,13333,1,0,0:0:0:0:
448,192,13611,1,0,0:0:0:0:
192,192,13750,1,0,0:0:0:0:
320,192,13750,1,0,0:0:0:0:
192,192,13888,1,0,0:0:0:0:
64,192,13888,1,0,0:0:0:0:
64,192,14166,1,0,0:0:0:0:
192,192,14444,1,0,0:0:0:0:
448,192,14444,1,0,0:0:0:0:
192,192,14722,1,0,0:0:0:0:
64,192,14861,1,0,0:0:0:0:
320,192,14861,1,0,0:0:0:0:
192,192,15000,1,0,0:0:0:0:
448,192,15000,1,0,0:0:0:0:
64,192,15277,1,0,0:0:0:0:
64,192,15555,1,0,0:0:0:0:
448,192,15833,1,0,0:0:0:0:
192,192,15833,1,0,0:0:0:0:
64,192,16111,1,0,0:0:0:0:
320,192,16111,1,0,0:0:0:0:
192,192,16388,1,0,0:0:0:0:
64,192,16666,1,0,0:0:0:0:
448,192,16666,1,0,0:0:0:0:
320,192,16944,1,0,0:0:0:0:
192,192,17083,1,0,0:0:0:0:
448,192,17083,1,0,0:0:0:0:
320,192,17222,1,0,0:0:0:0:
64,192,17222,1,0,0:0:0:0:
192,192,17500,1,0,0:0:0:0:
448,192,17777,1,0,0:0:0:0:
320,192,17916,1,0,0:0:0:0:
192,192,18055,1,0,0:0:0:0:
320,192,18194,1,0,0:0:0:0:
192,192,18333,1,0,0:0:0:0:
64,192,18472,1,0,0:0:0:0:
320,192,18611,128,0,18888:0:0:0:0:
192,192,18888,1,0,0:0:0:0:
64,192,18888,1,0,0:0:0:0:
448,192,18888,1,0,0:0:0:0:
192,192,19027,1,0,0:0:0:0:
320,192,19166,1,0,0:0:0:0:
64,192,19166,1,0,0:0:0:0:
448,192,19305,1,0,0:0:0:0:
320,192,19444,1,0,0:0:0:0:
64,192,19583,1,0,0:0:0:0:
448,192,19583,1,0,0:0:0:0:
192,192,19722,1,0,0:0:0:0:
320,192,19861,1,0,0:0:0:0:
448,192,19861,1,0,0:0:0:0:
192,192,20000,1,0,0:0:0:0:
64,192,20138,1,0,0:0:0:0:
192,192,20277,1,0,0:0:0:0:
448,192,20277,1,0,0:0:0:0:
320,192,20416,1,0,0:0:0:0:
192,192,20555,1,0,0:0:0:0:
320,192,20694,1,0,0:0:0:0:
64,192,20694,1,0,0:0:0:0:
448,192,20833,1,0,0:0:0:0:
64,192,20972,1,0,0:0:0:0:
320,192,20972,1,0,0:0:0:0:
320,192,21111,1,0,0:0:0:0:
64,192,21111,1,0,0:0:0:0:
192,192,21250,1,0,0:0:0:0:
448,192,21388,1,0,0:0:0:0:
64,192,21388,1,0,0:0:0:0:
320,192,21527,1,0,0:0:0:0:
192,192,21666,1,0,0:0:0:0:
64,192,21805,1,0,0:0:0:0:
448,192,21805,1,0,0:0:0:0:
320,192,21944,1,0,0:0:0:0:
192,192,22083,1,0,0:0:0:0:
64,192,22083,1,0,0:0:0:0:
320,192,22222,1,0,0:0:0:0:
448,192,22361,1,0,0:0:0:0:
192,192,22500,1,0,0:0:0:0:
64,192,22500,1,0,0:0:0:0:
320,192,22638,1,0,0:0:0:0:
192,192,22777,1,0,0:0:0:0:
320,192,22916,1,0,0:0:0:0:
448,192,22916,1,0,0:0:0:0:
64,192,23055,1,0,0:0:0:0:
192,192,23194,1,0,0:0:0:0:
320,192,23194,1,0,0:0:0:0:
448,192,23333,1,0,0:0:0:0:
64,192,23472,1,0,0:0:0:0:
192,192,23611,1,0,0:0:0:0:
320,192,23611,1,0,0:0:0:0:
448,192,23750,1,0,0:0:0:0:
320,192,23888,1,0,0:0:0:0:
64,192,24027,1,0,0:0:0:0:
448,192,24027,1,0,0:0:0:0:
192,192,24166,1,0,0:0:0:0:
320,192,24305,1,0,0:0:0:0:
64,192,24305,1,0,0:0:0:0:
192,192,24444,1,0,0:0:0:0:
320,192,24583,1,0,0:0:0:0:
448,192,24722,1,0,0:0:0:0:
64,192,24722,1,0,0:0:0:0:
192,192,24861,1,0,0:0:0:0:
320,192,25000,1,0,0:0:0:0:
64,192,25138,1,0,0:0:0:0:
192,192,25138,1,0,0:0:0:0:
320,192,25277,1,0,0:0:0:0:
64,192,25416,1,0,0:0:0:0:
192,192,25416,1,0,0:0:0:0:
320,192,25555,1,0,0:0:0:0:
192,192,25555,1,0,0:0:0:0:
448,192,25694,1,0,0:0:0:0:
320,192,25833,1,0,0:0:0:0:
64,192,25833,1,0,0:0:0:0:
192,192,25972,1,0,0:0:0:0:
448,192,26111,1,0,0:0:0:0:
320,192,26250,1,0,0:0:0:0:
192,192,26250,1,0,0:0:0:0:
448,192,26388,1,0,0:0:0:0:
64,192,26527,1,0,0:0:0:0:
192,192,26527,1,0,0:0:0:0:
320,192,26666,1,0,0:0:0:0:
64,192,26805,1,0,0:0:0:0:
192,192,26805,1,0,0:0:0:0:
192,192,26944,1,0,0:0:0:0:
64,192,26944,1,0,0:0:0:0:
448,192,27083,1,0,0:0:0:0:
320,192,27222,1,0,0:0:0:0:
192,192,27222,1,0,0:0:0:0:
192,192,27361,1,0,0:0:0:0:
320,192,27361,1,0,0:0:0:0:
64,192,27500,1,0,0:0:0:0:
192,192,27638,1,0,0:0:0:0:
448,192,27777,1,0,0:0:0:0:
320,192,27916,1,0,0:0:0:0:
192,192,28055,1,0,0:0:0:0:
448,192,28055,1,0,0:0:0:0:
64,192,28194,1,0,0:0:0:0:
320,192,28333,1,0,0:0:0:0:
192,192,28472,1,0,0:0:0:0:
64,192,28472,1,0,0:0:0:0:
448,192,28611,1,0,0:0:0:0:
320,192,28750,1,0,0:0:0:0:
192,192,28750,1,0,0:0:0:0:
64,192,28888,1,0,0:0:0:0:
320,192,29027,1,0,0:0:0:0:
448,192,29166,1,0,0:0:0:0:
192,192,29166,1,0,0:0:0:0:
320,192,29305,1,0,0:0:0:0:
64,192,29444,1,0,0:0:0:0:
448,192,29583,1,0,0:0:0:0:
192,192,29583,1,0,0:0:0:0:
64,192,29722,1,0,0:0:0:0:
448,192,29861,1,0,0:0:0:0:
320,192,29861,1,0,0:0:0:0:
320,192,30000,1,0,0:0:0:0:
448,192,30000,1,0,0:0:0:0:
192,192,30138,1,0,0:0:0:0:
64,192,30277,1,0,0:0:0:0:
448,192,30277,1,0,0:0:0:0:
320,192,30416,1,0,0:0:0:0:
192,192,30555,1,0,0:0:0:0:
64,192,30694,1,0,0:0:0:0:
448,192,30694,1,0,0:0:0:0:
192,192,30833,1,0,0:0:0:0:
320,192,30972,1,0,0:0:0:0:
448,192,30972,1,0,0:0:0:0:
64,192,31111,1,0,0:0:0:0:
192,192,31250,1,0,0:0:0:0:
320,192,31388,1,0,0:0:0:0:
448,192,31388,1,0,0:0:0:0:
64,192,31527,1,0,0:0:0:0:
320,192,31666,1,0,0:0:0:0:
192,192,31805,1,0,0:0:0:0:
64,192,31805,1,0,0:0:0:0:
448,192,31944,1,0,0:0:0:0:
64,192,32083,1,0,0:0:0:0:
192,192,32083,1,0,0:0:0:0:
448,192,32222,1,0,0:0:0:0:
320,192,32361,1,0,0:0:0:0:
192,192,32500,1,0,0:0:0:0:
448,192,32500,1,0,0:0:0:0:
64,192,32638,1,0,0:0:0:0:
320,192,32777,1,0,0:0:0:0:
192,192,32916,1,0,0:0:0:0:
448,192,32916,1,0,0:0:0:0:
64,192,33055,1,0,0:0:0:0:
320,192,33194,1,0,0:0:0:0:
448,192,33194,1,0,0:0:0:0:
192,192,33333,1,0,0:0:0:0:
64,192,33472,1,0,0:0:0:0:
192,192,33611,1,0,0:0:0:0:
448,192,33611,1,0,0:0:0:0:
64,192,33750,1,0,0:0:0:0:
192,192,33888,1,0,0:0:0:0:
320,192,34027,1,0,0:0:0:0:
448,192,34027,1,0,0:0:0:0:
64,192,34166,1,0,0:0:0:0:
448,192,34305,1,0,0:0:0:0:
192,192,34305,1,0,0:0:0:0:
192,192,34444,1,0,0:0:0:0:
448,192,34444,1,0,0:0:0:0:
64,192,34583,1,0,0:0:0:0:
320,192,34722,1,0,0:0:0:0:
448,192,34722,1,0,0:0:0:0:
192,192,34861,1,0,0:0:0:0:
64,192,35000,1,0,0:0:0:0:
320,192,35138,1,0,0:0:0:0:
448,192,35138,1,0,0:0:0:0:
64,192,35277,1,0,0:0:0:0:
192,192,35416,1,0,0:0:0:0:
320,192,35416,1,0,0:0:0:0:
448,192,35555,1,0,0:0:0:0:
320,192,35694,1,0,0:0:0:0:
64,192,35694,1,0,0:0:0:0:
64,192,35833,1,0,0:0:0:0:
320,192,35833,1,0,0:0:0:0:
448,192,35972,1,0,0:0:0:0:
192,192,36111,1,0,0:0:0:0:
64,192,36111,1,0,0:0:0:0:
64,192,36250,1,0,0:0:0:0:
192,192,36250,1,0,0:0:0:0:
448,192,36388,1,0,0:0:0:0:
320,192,36527,1,0,0:0:0:0:
192,192,36666,1,0,0:0:0:0:
448,192,36666,1,0,0:0:0:0:
64,192,36666,128,0,37083:0:0:0:0:
320,192,36944,1,0,0:0:0:0:
192,192,37083,128,0,37638:0:0:0:0:
320,192,37361,1,0,0:0:0:0:
320,192,37638,1,0,0:0:0:0:
448,192,38055,128,0,38333:0:0:0:0:
64,192,38055,1,0,0:0:0:0:
320,192,38333,128,0,38611:0:0:0:0:
64,192,38472,1,0,0:0:0:0:
192,192,38611,128,0,38888:0:0:0:0:
448,192,38750,1,0,0:0:0:0:
448,192,38888,1,0,0:0:0:0:
64,192,38888,128,0,39305:0:0:0:0:
448,192,39166,1,0,0:0:0:0:
320,192,39305,128,0,40000:0:0:0:0:
448,192,39583,1,0,0:0:0:0:
192,192,39861,1,0,0:0:0:0:
64,192,40277,128,0,40555:0:0:0:0:
192,192,40277,1,0,0:0:0:0:
192,192,40555,128,0,40833:0:0:0:0:
448,192,40694,1,0,0:0:0:0:
320,192,40833,128,0,41111:0:0:0:0:
64,192,40972,1,0,0:0:0:0:
448,192,41111,128,0,41527:0:0:0:0:
192,192,41388,1,0,0:0:0:0:
320,192,41527,128,0,42222:0:0:0:0:
448,192,41805,1,0,0:0:0:0:
192,192,42083,1,0,0:0:0:0:
448,192,42500,128,0,42777:0:0:0:0:
320,192,42500,1,0,0:0:0:0:
320,192,42777,128,0,43055:0:0:0:0:
64,192,42916,1,0,0:0:0:0:
192,192,43055,128,0,43333:0:0:0:0:
320,192,43194,1,0,0:0:0:0:
64,192,43333,128,0,43611:0:0:0:0:
320,192,43333,1,0,0:0:0:0:
448,192,43611,1,0,0:0:0:0:
320,192,43611,1,0,0:0:0:0:
192,192,43750,128,0,44444:0:0:0:0:
448,192,44027,1,0,0:0:0:0:
448,192,44305,1,0,0:0:0:0:
320,192,44444,1,0,0:0:0:0:
448,192,44583,1,0,0:0:0:0:
320,192,44583,1,0,0:0:0:0:
64,192,44722,1,0,0:0:0:0:
192,192,44722,1,0,0:0:0:0:
448,192,44861,1,0,0:0:0:0:
192,192,45000,128,0,45277:0:0:0:0:
64,192,45000,1,0,0:0:0:0:
448,192,45138,1,0,0:0:0:0:
320,192,45277,128,0,45555:0:0:0:0:
64,192,45555,1,0,0:0:0:0:
448,192,45555,128,0,45833:0:0:0:0:
192,192,45833,1,0,0:0:0:0:
320,192,45972,128,0,46666:0:0:0:0:
192,192,46250,1,0,0:0:0:0:
192,192,46527,1,0,0:0:0:0:
448,192,46666,128,0,46944:0:0:0:0:
320,192,46944,128,0,47222:0:0:0:0:
64,192,46944,1,0,0:0:0:0:
192,192,47222,128,0,47500:0:0:0:0:
320,192,47361,1,0,0:0:0:0:
64,192,47500,128,0,47777:0:0:0:0:
320,192,47638,1,0,0:0:0:0:
192,192,47777,1,0,0:0:0:0:
448,192,47777,128,0,48055:0:0:0:0:
64,192,48055,1,0,0:0:0:0:
192,192,48055,1,0,0:0:0:0:
320,192,48194,128,0,48888:0:0:0:0:
192,192,48472,1,0,0:0:0:0:
192,192,48750,1,0,0:0:0:0:
64,192,49166,128,0,49444:0:0:0:0:
192,192,49166,1,0,0:0:0:0:
320,192,49444,128,0,49722:0:0:0:0:
448,192,49583,1,0,0:0:0:0:
192,192,49722,128,0,50000:0:0:0:0:
64,192,49861,1,0,0:0:0:0:
448,192,50000,128,0,50277:0:0:0:0:
192,192,50277,1,0,0:0:0:0:
320,192,50277,1,0,0:0:0:0:
64,192,50416,128,0,50833:0:0:0:0:
448,192,50694,1,0,0:0:0:0:
192,192,50833,1,0,0:0:0:0:
320,192,50972,1,0,0:0:0:0:
448,192,50972,1,0,0:0:0:0:
448,192,51388,128,0,51666:0:0:0:0:
192,192,51388,1,0,0:0:0:0:
320,192,51666,128,0,51944:0:0:0:0:
64,192,51805,1,0,0:0:0:0:
64,192,51944,128,0,52222:0:0:0:0:
448,192,52083,1,0,0:0:0:0:
192,192,52222,128,0,52500:0:0:0:0:
448,192,52222,1,0,0:0:0:0:
320,192,52500,1,0,0:0:0:0:
448,192,52500,1,0,0:0:0:0:
64,192,52638,128,0,53333:0:0:0:0:
320,192,52916,1,0,0:0:0:0:
320,192,53194,1,0,0:0:0:0:
448,192,53472,1,0,0:0:0:0:
192,192,53472,1,0,0:0:0:0:
320,192,53611,1,0,0:0:0:0:
64,192,53611,1,0,0:0:0:0:
192,192,53750,1,0,0:0:0:0:
64,192,53888,1,0,0:0:0:0:
320,192,53888,1,0,0:0:0:0:
192,192,54027,1,0,0:0:0:0:
448,192,54027,1,0,0:0:0:0:
320,192,54097,1,0,0:0:0:0:
192,192,54166,1,0,0:0:0:0:
64,192,54236,1,0,0:0:0:0:
448,192,54305,1,0,0:0:0:0:
320,192,54375,1,0,0:0:0:0:
192,192,54444,128,0,54722:0:0:0:0:
448,192,54722,1,0,0:0:0:0:
64,192,54722,1,0,0:0:0:0:
320,192,54861,128,0,55555:0:0:0:0:
64,192,55138,1,0,0:0:0:0:
64,192,55416,1,0,0:0:0:0:
64,192,55833,128,0,56111:0:0:0:0:
192,192,55833,1,0,0:0:0:0:
192,192,56111,128,0,56388:0:0:0:0:
448,192,56250,1,0,0:0:0:0:
320,192,56388,128,0,56666:0:0:0:0:
64,192,56527,1,0,0:0:0:0:
192,192,56597,1,0,0:0:0:0:
448,192,56666,128,0,57083:0:0:0:0:
64,192,56666,1,0,0:0:0:0:
192,192,56944,1,0,0:0:0:0:
64,192,57083,128,0,57777:0:0:0:0:
320,192,57361,1,0,0:0:0:0:
192,192,57638,1,0,0:0:0:0:
320,192,58055,1,0,0:0:0:0:
448,192,58055,1,0,0:0:0:0:
448,192,58333,128,0,58611:0:0:0:0:
192,192,58472,1,0,0:0:0:0:
320,192,58611,128,0,58888:0:0:0:0:
64,192,58750,1,0,0:0:0:0:
192,192,58888,128,0,59305:0:0:0:0:
320,192,59166,1,0,0:0:0:0:
448,192,59305,128,0,60000:0:0:0:0:
192,192,59583,1,0,0:0:0:0:
64,192,59861,1,0,0:0:0:0:
64,192,60277,128,0,60555:0:0:0:0:
320,192,60277,1,0,0:0:0:0:
192,192,60555,128,0,60833:0:0:0:0:
448,192,60694,1,0,0:0:0:0:
320,192,60833,128,0,61111:0:0:0:0:
64,192,60972,1,0,0:0:0:0:
192,192,61041,1,0,0:0:0:0:
448,192,61111,128,0,61388:0:0:0:0:
64,192,61111,1,0,0:0:0:0:
320,192,61388,1,0,0:0:0:0:
64,192,61388,1,0,0:0:0:0:
192,192,61527,128,0,62222:0:0:0:0:
448,192,61805,1,0,0:0:0:0:
320,192,62083,1,0,0:0:0:0:
64,192,62361,1,0,0:0:0:0:
192,192,62361,1,0,0:0:0:0:
64,192,62500,1,0,0:0:0:0:
192,192,62500,1,0,0:0:0:0:
320,192,62638,1,0,0:0:0:0:
192,192,62777,1,0,0:0:0:0:
448,192,62777,128,0,63055:0:0:0:0:
64,192,62916,1,0,0:0:0:0:
320,192,63055,128,0,63333:0:0:0:0:
192,192,63333,128,0,63611:0:0:0:0:
64,192,63333,1,0,0:0:0:0:
320,192,63611,1,0,0:0:0:0:
64,192,63611,1,0,0:0:0:0:
448,192,63819,128,0,64444:0:0:0:0:
320,192,64027,1,0,0:0:0:0:
64,192,64305,1,0,0:0:0:0:
320,192,64444,128,0,64722:0:0:0:0:
448,192,64722,128,0,65000:0:0:0:0:
192,192,64722,1,0,0:0:0:0:
320,192,65000,128,0,65277:0:0:0:0:
64,192,65138,1,0,0:0:0:0:
192,192,65277,128,0,65555:0:0:0:0:
448,192,65416,1,0,0:0:0:0:
320,192,65486,1,0,0:0:0:0:
64,192,65555,128,0,65833:0:0:0:0:
448,192,65555,1,0,0:0:0:0:
320,192,65833,1,0,0:0:0:0:
448,192,65833,1,0,0:0:0:0:
192,192,65972,128,0,66666:0:0:0:0:
320,192,66250,1,0,0:0:0:0:
448,192,66527,1,0,0:0:0:0:
64,192,66944,128,0,67222:0:0:0:0:
192,192,66944,1,0,0:0:0:0:
192,192,67222,128,0,67500:0:0:0:0:
448,192,67361,1,0,0:0:0:0:
320,192,67500,128,0,67777:0:0:0:0:
64,192,67638,1,0,0:0:0:0:
192,192,67708,1,0,0:0:0:0:
448,192,67777,128,0,68055:0:0:0:0:
64,192,67777,1,0,0:0:0:0:
320,192,68055,1,0,0:0:0:0:
64,192,68055,1,0,0:0:0:0:
320,192,68194,128,0,68611:0:0:0:0:
192,192,68472,1,0,0:0:0:0:
64,192,68611,1,0,0:0:0:0:
192,192,68750,1,0,0:0:0:0:
448,192,68750,1,0,0:0:0:0:
64,192,69166,128,0,69444:0:0:0:0:
320,192,69166,1,0,0:0:0:0:
192,192,69444,128,0,69722:0:0:0:0:
448,192,69583,1,0,0:0:0:0:
320,192,69722,128,0,70000:0:0:0:0:
64,192,69861,1,0,0:0:0:0:
192,192,69930,1,0,0:0:0:0:
64,192,70000,1,0,0:0:0:0:
448,192,70000,128,0,70277:0:0:0:0:
320,192,70277,1,0,0:0:0:0:
64,192,70277,1,0,0:0:0:0:
192,192,70416,128,0,71111:0:0:0:0:
448,192,70694,1,0,0:0:0:0:
448,192,70972,1,0,0:0:0:0:
320,192,71111,1,0,0:0:0:0:
448,192,71250,1,0,0:0:0:0:
192,192,71250,1,0,0:0:0:0:
64,192,71388,1,0,0:0:0:0:
320,192,71388,1,0,0:0:0:0:
192,192,71527,1,0,0:0:0:0:
448,192,71666,1,0,0:0:0:0:
320,192,71666,1,0,0:0:0:0:
192,192,71805,1,0,0:0:0:0:
64,192,71805,1,0,0:0:0:0:
320,192,71875,1,0,0:0:0:0:
448,192,71944,1,0,0:0:0:0:
320,192,72013,1,0,0:0:0:0:
192,192,72083,1,0,0:0:0:0:
64,192,72152,1,0,0:0:0:0:
448,192,72222,1,0,0:0:0:0:
320,192,72222,1,0,0:0:0:0:
320,192,73888,1,0,0:0:0:0:
192,192,74027,1,0,0:0:0:0:
64,192,74166,1,0,0:0:0:0:
320,192,74305,1,0,0:0:0:0:
192,192,74444,1,0,0:0:0:0:
320,192,74583,1,0,0:0:0:0:
448,192,74722,1,0,0:0:0:0:
64,192,74861,1,0,0:0:0:0:
448,192,76111,1,0,0:0:0:0:
320,192,76250,1,0,0:0:0:0:
192,192,76388,1,0,0:0:0:0:
320,192,76527,1,0,0:0:0:0:
192,192,76666,1,0,0:0:0:0:
64,192,76805,1,0,0:0:0:0:
320,192,76944,1,0,0:0:0:0:
448,192,77083,1,0,0:0:0:0:
320,192,78194,1,0,0:0:0:0:
192,192,78333,1,0,0:0:0:0:
64,192,78472,1,0,0:0:0:0:
192,192,78611,1,0,0:0:0:0:
320,192,78750,1,0,0:0:0:0:
192,192,78888,1,0,0:0:0:0:
320,192,79027,1,0,0:0:0:0:
448,192,79166,1,0,0:0:0:0:
320,192,79305,1,0,0:0:0:0:
448,192,80555,1,0,0:0:0:0:
320,192,80694,1,0,0:0:0:0:
64,192,80833,1,0,0:0:0:0:
192,192,80902,1,0,0:0:0:0:
320,192,80972,1,0,0:0:0:0:
448,192,81041,1,0,0:0:0:0:
64,192,81111,1,0,0:0:0:0:
320,192,81111,1,0,0:0:0:0:
192,192,81250,1,0,0:0:0:0:
320,192,81388,1,0,0:0:0:0:
448,192,81527,1,0,0:0:0:0:
64,192,82777,1,0,0:0:0:0:
192,192,82916,1,0,0:0:0:0:
320,192,83055,1,0,0:0:0:0:
192,192,83194,1,0,0:0:0:0:
320,192,83333,1,0,0:0:0:0:
448,192,83472,1,0,0:0:0:0:
320,192,83611,1,0,0:0:0:0:
192,192,83750,1,0,0:0:0:0:
64,192,84444,1,0,0:0:0:0:
192,192,84583,1,0,0:0:0:0:
320,192,84722,1,0,0:0:0:0:
64,192,84861,1,0,0:0:0:0:
192,192,85000,1,0,0:0:0:0:
320,192,85138,1,0,0:0:0:0:
448,192,85277,1,0,0:0:0:0:
320,192,85416,1,0,0:0:0:0:
192,192,85555,1,0,0:0:0:0:
64,192,85694,1,0,0:0:0:0:
320,192,85833,1,0,0:0:0:0:
448,192,85972,1,0,0:0:0:0:
64,192,86250,1,0,0:0:0:0:
320,192,86388,1,0,0:0:0:0:
192,192,86527,1,0,0:0:0:0:
448,192,86666,1,0,0:0:0:0:
320,192,86805,1,0,0:0:0:0:
192,192,86944,1,0,0:0:0:0:
64,192,87083,1,0,0:0:0:0:
448,192,87222,1,0,0:0:0:0:
320,192,87361,1,0,0:0:0:0:
192,192,87500,1,0,0:0:0:0:
320,192,87638,1,0,0:0:0:0:
448,192,87777,1,0,0:0:0:0:
64,192,87916,1,0,0:0:0:0:
192,192,88055,1,0,0:0:0:0:
320,192,88194,1,0,0:0:0:0:
64,192,88888,1,0,0:0:0:0:
192,192,89027,1,0,0:0:0:0:
320,192,89166,1,0,0:0:0:0:
448,192,89583,1,0,0:0:0:0:
320,192,89722,1,0,0:0:0:0:
192,192,89861,128,0,92222:0:0:0:0:
448,192,92222,1,0,0:0:0:0:
320,192,92361,1,0,0:0:0:0:
192,192,92500,1,0,0:0:0:0:
320,192,92638,1,0,0:0:0:0:
64,192,92916,1,0,0:0:0:0:
192,192,93055,1,0,0:0:0:0:
320,192,93194,1,0,0:0:0:0:
448,192,93333,1,0,0:0:0:0:
320,192,93472,1,0,0:0:0:0:
192,192,93611,1,0,0:0:0:0:
64,192,93750,1,0,0:0:0:0:
448,192,94027,1,0,0:0:0:0:
320,192,94166,1,0,0:0:0:0:
192,192,94305,1,0,0:0:0:0:
320,192,94444,1,0,0:0:0:0:
448,192,94583,1,0,0:0:0:0:
192,192,94722,1,0,0:0:0:0:
320,192,94861,1,0,0:0:0:0:
448,192,95138,1,0,0:0:0:0:
320,192,95277,1,0,0:0:0:0:
192,192,95416,1,0,0:0:0:0:
320,192,95555,1,0,0:0:0:0:
192,192,95694,1,0,0:0:0:0:
64,192,95833,1,0,0:0:0:0:
192,192,95972,1,0,0:0:0:0:
320,192,96250,1,0,0:0:0:0:
64,192,96388,1,0,0:0:0:0:
192,192,96458,1,0,0:0:0:0:
320,192,96527,1,0,0:0:0:0:
448,192,96597,1,0,0:0:0:0:
64,192,96666,1,0,0:0:0:0:
192,192,96805,1,0,0:0:0:0:
320,192,96944,1,0,0:0:0:0:
448,192,97083,1,0,0:0:0:0:
320,192,97361,1,0,0:0:0:0:
64,192,97500,1,0,0:0:0:0:
448,192,97638,1,0,0:0:0:0:
192,192,97777,1,0,0:0:0:0:
320,192,97916,1,0,0:0:0:0:
64,192,98055,1,0,0:0:0:0:
192,192,98194,1,0,0:0:0:0:
320,192,98333,1,0,0:0:0:0:
192,192,98472,1,0,0:0:0:0:
64,192,98541,1,0,0:0:0:0:
448,192,98611,1,0,0:0:0:0:
320,192,98680,1,0,0:0:0:0:
192,192,98750,1,0,0:0:0:0:
320,192,98819,1,0,0:0:0:0:
448,192,98888,1,0,0:0:0:0:
320,192,99027,1,0,0:0:0:0:
192,192,99166,1,0,0:0:0:0:
64,192,99305,1,0,0:0:0:0:
448,192,99444,1,0,0:0:0:0:
320,192,99583,1,0,0:0:0:0:
448,192,99722,1,0,0:0:0:0:
192,192,99861,1,0,0:0:0:0:
320,192,100000,1,0,0:0:0:0:
64,192,100138,1,0,0:0:0:0:
448,192,100277,1,0,0:0:0:0:
192,192,100416,1,0,0:0:0:0:
64,192,100555,1,0,0:0:0:0:
320,192,100694,1,0,0:0:0:0:
192,192,100763,1,0,0:0:0:0:
448,192,100833,1,0,0:0:0:0:
320,192,100902,1,0,0:0:0:0:
192,192,100972,1,0,0:0:0:0:
64,192,101041,1,0,0:0:0:0:
448,192,101111,1,0,0:0:0:0:
192,192,101250,1,0,0:0:0:0:
64,192,101388,1,0,0:0:0:0:
448,192,101527,1,0,0:0:0:0:
448,192,101805,1,0,0:0:0:0:
320,192,101944,1,0,0:0:0:0:
192,192,102083,1,0,0:0:0:0:
64,192,102222,1,0,0:0:0:0:
192,192,102361,1,0,0:0:0:0:
320,192,102500,1,0,0:0:0:0:
448,192,102638,1,0,0:0:0:0:
64,192,102916,1,0,0:0:0:0:
192,192,103055,1,0,0:0:0:0:
320,192,103194,1,0,0:0:0:0:
448,192,103333,1,0,0:0:0:0:
320,192,103472,1,0,0:0:0:0:
192,192,103611,1,0,0:0:0:0:
64,192,103750,1,0,0:0:0:0:
448,192,104027,1,0,0:0:0:0:
320,192,104166,1,0,0:0:0:0:
192,192,104305,1,0,0:0:0:0:
320,192,104444,1,0,0:0:0:0:
64,192,104583,1,0,0:0:0:0:
192,192,104722,1,0,0:0:0:0:
320,192,104861,1,0,0:0:0:0:
64,192,105138,1,0,0:0:0:0:
448,192,105277,1,0,0:0:0:0:
192,192,105347,1,0,0:0:0:0:
320,192,105416,1,0,0:0:0:0:
64,192,105486,1,0,0:0:0:0:
448,192,105555,1,0,0:0:0:0:
320,192,105694,1,0,0:0:0:0:
192,192,105833,1,0,0:0:0:0:
64,192,105972,1,0,0:0:0:0:
64,192,106250,1,0,0:0:0:0:
192,192,106388,1,0,0:0:0:0:
320,192,106527,1,0,0:0:0:0:
448,192,106666,1,0,0:0:0:0:
320,192,106805,1,0,0:0:0:0:
192,192,106944,1,0,0:0:0:0:
448,192,107083,1,0,0:0:0:0:
192,192,107222,1,0,0:0:0:0:
448,192,107361,1,0,0:0:0:0:
320,192,107430,1,0,0:0:0:0:
64,192,107500,1,0,0:0:0:0:
448,192,107569,1,0,0:0:0:0:
192,192,107638,1,0,0:0:0:0:
320,192,107708,1,0,0:0:0:0:
64,192,107777,1,0,0:0:0:0:
192,192,107916,1,0,0:0:0:0:
320,192,108055,1,0,0:0:0:0:
192,192,108194,1,0,0:0:0:0:
320,192,108333,1,0,0:0:0:0:
448,192,108472,1,0,0:0:0:0:
64,192,108611,1,0,0:0:0:0:
192,192,108750,1,0,0:0:0:0:
448,192,108888,128,0,110000:0:0:0:0:
320,192,108888,1,0,0:0:0:0:
192,192,109027,1,0,0:0:0:0:
64,192,109166,1,0,0:0:0:0:
320,192,109305,1,0,0:0:0:0:
192,192,109444,1,0,0:0:0:0:
64,192,109583,1,0,0:0:0:0:
320,192,109722,1,0,0:0:0:0:
192,192,109791,1,0,0:0:0:0:
320,192,109861,1,0,0:0:0:0:
192,192,109930,1,0,0:0:0:0:
320,192,110000,1,0,0:0:0:0:
64,192,110000,1,0,0:0:0:0:
192,192,110138,1,0,0:0:0:0:
320,192,110277,1,0,0:0:0:0:
64,192,110277,1,0,0:0:0:0:
448,192,110416,1,0,0:0:0:0:
192,192,110555,1,0,0:0:0:0:
448,192,110694,1,0,0:0:0:0:
320,192,110694,1,0,0:0:0:0:
64,192,110833,1,0,0:0:0:0:
192,192,110972,1,0,0:0:0:0:
320,192,110972,1,0,0:0:0:0:
448,192,111111,1,0,0:0:0:0:
64,192,111250,1,0,0:0:0:0:
320,192,111388,1,0,0:0:0:0:
448,192,111388,1,0,0:0:0:0:
192,192,111458,1,0,0:0:0:0:
64,192,111527,1,0,0:0:0:0:
192,192,111597,1,0,0:0:0:0:
320,192,111666,1,0,0:0:0:0:
448,192,111805,1,0,0:0:0:0:
64,192,111805,1,0,0:0:0:0:
320,192,111944,1,0,0:0:0:0:
192,192,112083,1,0,0:0:0:0:
448,192,112083,1,0,0:0:0:0:
192,192,112222,1,0,0:0:0:0:
448,192,112222,1,0,0:0:0:0:
64,192,112361,1,0,0:0:0:0:
320,192,112500,1,0,0:0:0:0:
448,192,112500,1,0,0:0:0:0:
192,192,112638,1,0,0:0:0:0:
64,192,112777,1,0,0:0:0:0:
320,192,112916,1,0,0:0:0:0:
448,192,112916,1,0,0:0:0:0:
320,192,113055,1,0,0:0:0:0:
192,192,113194,1,0,0:0:0:0:
64,192,113194,1,0,0:0:0:0:
448,192,113333,1,0,0:0:0:0:
320,192,113472,1,0,0:0:0:0:
64,192,113611,1,0,0:0:0:0:
448,192,113611,1,0,0:0:0:0:
320,192,113680,1,0,0:0:0:0:
192,192,113750,1,0,0:0:0:0:
64,192,113819,1,0,0:0:0:0:
448,192,113888,1,0,0:0:0:0:
320,192,114027,1,0,0:0:0:0:
64,192,114027,1,0,0:0:0:0:
192,192,114166,1,0,0:0:0:0:
320,192,114305,1,0,0:0:0:0:
448,192,114305,1,0,0:0:0:0:
64,192,114444,1,0,0:0:0:0:
192,192,114583,1,0,0:0:0:0:
320,192,114722,1,0,0:0:0:0:
448,192,114722,1,0,0:0:0:0:
64,192,114861,1,0,0:0:0:0:
192,192,115000,1,0,0:0:0:0:
448,192,115138,1,0,0:0:0:0:
64,192,115138,1,0,0:0:0:0:
448,192,115277,1,0,0:0:0:0:
320,192,115416,1,0,0:0:0:0:
64,192,115416,1,0,0:0:0:0:
64,192,115555,1,0,0:0:0:0:
192,192,115694,1,0,0:0:0:0:
448,192,115833,1,0,0:0:0:0:
64,192,115833,1,0,0:0:0:0:
320,192,115902,1,0,0:0:0:0:
192,192,115972,1,0,0:0:0:0:
320,192,116041,1,0,0:0:0:0:
448,192,116111,1,0,0:0:0:0:
320,192,116250,1,0,0:0:0:0:
192,192,116250,1,0,0:0:0:0:
448,192,116388,1,0,0:0:0:0:
64,192,116527,1,0,0:0:0:0:
192,192,116527,1,0,0:0:0:0:
192,192,116666,1,0,0:0:0:0:
64,192,116666,1,0,0:0:0:0:
448,192,116805,1,0,0:0:0:0:
320,192,116944,1,0,0:0:0:0:
192,192,116944,1,0,0:0:0:0:
64,192,117083,1,0,0:0:0:0:
448,192,117222,1,0,0:0:0:0:
320,192,117361,1,0,0:0:0:0:
64,192,117361,1,0,0:0:0:0:
192,192,117500,1,0,0:0:0:0:
448,192,117638,1,0,0:0:0:0:
64,192,117638,1,0,0:0:0:0:
320,192,117777,1,0,0:0:0:0:
192,192,117916,1,0,0:0:0:0:
320,192,118055,1,0,0:0:0:0:
448,192,118055,1,0,0:0:0:0:
192,192,118125,1,0,0:0:0:0:
64,192,118194,1,0,0:0:0:0:
448,192,118263,1,0,0:0:0:0:
320,192,118333,1,0,0:0:0:0:
192,192,118402,1,0,0:0:0:0:
64,192,118472,1,0,0:0:0:0:
320,192,118541,1,0,0:0:0:0:
192,192,118611,1,0,0:0:0:0:
448,192,118680,1,0,0:0:0:0:
320,192,118750,1,0,0:0:0:0:
192,192,118819,1,0,0:0:0:0:
64,192,118888,1,0,0:0:0:0:
448,192,119027,1,0,0:0:0:0:
64,192,119166,1,0,0:0:0:0:
192,192,119166,1,0,0:0:0:0:
448,192,119305,1,0,0:0:0:0:
64,192,119444,1,0,0:0:0:0:
320,192,119583,1,0,0:0:0:0:
192,192,119583,1,0,0:0:0:0:
64,192,119722,1,0,0:0:0:0:
320,192,119861,1,0,0:0:0:0:
448,192,119861,1,0,0:0:0:0:
192,192,120000,1,0,0:0:0:0:
448,192,120138,1,0,0:0:0:0:
64,192,120277,1,0,0:0:0:0:
192,192,120277,1,0,0:0:0:0:
320,192,120347,1,0,0:0:0:0:
448,192,120416,1,0,0:0:0:0:
64,192,120486,1,0,0:0:0:0:
192,192,120555,1,0,0:0:0:0:
448,192,120694,1,0,0:0:0:0:
64,192,120694,1,0,0:0:0:0:
192,192,120833,1,0,0:0:0:0:
320,192,120972,1,0,0:0:0:0:
448,192,120972,1,0,0:0:0:0:
192,192,121111,1,0,0:0:0:0:
320,192,121111,1,0,0:0:0:0:
448,192,121250,1,0,0:0:0:0:
192,192,121388,1,0,0:0:0:0:
64,192,121388,1,0,0:0:0:0:
320,192,121527,1,0,0:0:0:0:
448,192,121666,1,0,0:0:0:0:
64,192,121805,1,0,0:0:0:0:
320,192,121805,1,0,0:0:0:0:
320,192,121944,1,0,0:0:0:0:
64,192,122083,1,0,0:0:0:0:
448,192,122083,1,0,0:0:0:0:
448,192,122222,1,0,0:0:0:0:
320,192,122361,1,0,0:0:0:0:
64,192,122500,1,0,0:0:0:0:
448,192,122500,1,0,0:0:0:0:
192,192,122569,1,0,0:0:0:0:
320,192,122638,1,0,0:0:0:0:
448,192,122708,1,0,0:0:0:0:
64,192,122777,1,0,0:0:0:0:
320,192,122916,1,0,0:0:0:0:
192,192,122916,1,0,0:0:0:0:
448,192,123055,1,0,0:0:0:0:
64,192,123194,1,0,0:0:0:0:
192,192,123194,1,0,0:0:0:0:
448,192,123333,1,0,0:0:0:0:
320,192,123472,1,0,0:0:0:0:
64,192,123611,1,0,0:0:0:0:
192,192,123611,1,0,0:0:0:0:
448,192,123750,1,0,0:0:0:0:
192,192,123888,1,0,0:0:0:0:
64,192,124027,1,0,0:0:0:0:
320,192,124027,1,0,0:0:0:0:
192,192,124166,1,0,0:0:0:0:
192,192,124305,1,0,0:0:0:0:
448,192,124305,1,0,0:0:0:0:
320,192,124444,1,0,0:0:0:0:
64,192,124583,1,0,0:0:0:0:
192,192,124722,1,0,0:0:0:0:
448,192,124722,1,0,0:0:0:0:
64,192,124791,1,0,0:0:0:0:
320,192,124861,1,0,0:0:0:0:
192,192,124930,1,0,0:0:0:0:
448,192,125000,1,0,0:0:0:0:
320,192,125138,1,0,0:0:0:0:
64,192,125138,1,0,0:0:0:0:
448,192,125277,1,0,0:0:0:0:
320,192,125416,1,0,0:0:0:0:
448,192,125416,1,0,0:0:0:0:
320,192,125555,1,0,0:0:0:0:
192,192,125555,1,0,0:0:0:0:
448,192,125694,1,0,0:0:0:0:
64,192,125833,1,0,0:0:0:0:
192,192,125833,1,0,0:0:0:0:
448,192,125972,1,0,0:0:0:0:
64,192,126111,1,0,0:0:0:0:
320,192,126250,1,0,0:0:0:0:
448,192,126250,1,0,0:0:0:0:
192,192,126388,1,0,0:0:0:0:
64,192,126388,1,0,0:0:0:0:
320,192,126527,1,0,0:0:0:0:
448,192,126527,1,0,0:0:0:0:
192,192,126666,1,0,0:0:0:0:
64,192,126666,1,0,0:0:0:0:
320,192,126805,1,0,0:0:0:0:
448,192,126944,1,0,0:0:0:0:
320,192,127013,1,0,0:0:0:0:
192,192,127083,1,0,0:0:0:0:
64,192,127152,1,0,0:0:0:0:
448,192,127222,1,0,0:0:0:0:
192,192,127291,1,0,0:0:0:0:
320,192,127361,1,0,0:0:0:0:
64,192,127430,1,0,0:0:0:0:
448,192,127500,1,0,0:0:0:0:
320,192,127569,1,0,0:0:0:0:
192,192,127638,1,0,0:0:0:0:
320,192,127708,1,0,0:0:0:0:
448,192,127777,1,0,0:0:0:0:
64,192,127777,1,0,0:0:0:0:
192,192,127916,1,0,0:0:0:0:
320,192,128055,1,0,0:0:0:0:
448,192,128055,1,0,0:0:0:0:
64,192,128194,1,0,0:0:0:0:
320,192,128333,1,0,0:0:0:0:
192,192,128472,1,0,0:0:0:0:
448,192,128472,1,0,0:0:0:0:
64,192,128611,1,0,0:0:0:0:
320,192,128750,1,0,0:0:0:0:
64,192,128750,1,0,0:0:0:0:
320,192,128888,1,0,0:0:0:0:
192,192,129027,1,0,0:0:0:0:
64,192,129166,1,0,0:0:0:0:
320,192,129166,1,0,0:0:0:0:
448,192,129305,1,0,0:0:0:0:
192,192,129444,1,0,0:0:0:0:
64,192,129583,1,0,0:0:0:0:
320,192,129583,1,0,0:0:0:0:
448,192,129722,1,0,0:0:0:0:
192,192,129861,1,0,0:0:0:0:
448,192,129861,1,0,0:0:0:0:
320,192,129930,1,0,0:0:0:0:
192,192,130000,1,0,0:0:0:0:
64,192,130000,1,0,0:0:0:0:
320,192,130138,1,0,0:0:0:0:
448,192,130277,1,0,0:0:0:0:
192,192,130277,1,0,0:0:0:0:
320,192,130416,1,0,0:0:0:0:
64,192,130555,1,0,0:0:0:0:
192,192,130694,1,0,0:0:0:0:
448,192,130694,1,0,0:0:0:0:
320,192,130833,1,0,0:0:0:0:
64,192,130972,1,0,0:0:0:0:
320,192,130972,1,0,0:0:0:0:
448,192,131111,1,0,0:0:0:0:
320,192,131250,1,0,0:0:0:0:
64,192,131388,1,0,0:0:0:0:
192,192,131388,1,0,0:0:0:0:
448,192,131458,1,0,0:0:0:0:
320,192,131527,1,0,0:0:0:0:
192,192,131597,1,0,0:0:0:0:
64,192,131666,1,0,0:0:0:0:
448,192,131805,1,0,0:0:0:0:
192,192,131805,1,0,0:0:0:0:
320,192,131944,1,0,0:0:0:0:
64,192,132083,1,0,0:0:0:0:
320,192,132083,1,0,0:0:0:0:
192,192,132222,1,0,0:0:0:0:
448,192,132361,1,0,0:0:0:0:
320,192,132500,1,0,0:0:0:0:
64,192,132500,1,0,0:0:0:0:
448,192,132638,1,0,0:0:0:0:
192,192,132777,1,0,0:0:0:0:
64,192,132916,1,0,0:0:0:0:
320,192,132916,1,0,0:0:0:0:
320,192,133055,1,0,0:0:0:0:
192,192,133194,1,0,0:0:0:0:
448,192,133194,1,0,0:0:0:0:
192,192,133333,1,0,0:0:0:0:
448,192,133472,1,0,0:0:0:0:
320,192,133611,1,0,0:0:0:0:
64,192,133611,1,0,0:0:0:0:
192,192,133680,1,0,0:0:0:0:
448,192,133750,1,0,0:0:0:0:
320,192,133819,1,0,0:0:0:0:
64,192,133888,1,0,0:0:0:0:
448,192,134027,1,0,0:0:0:0:
192,192,134027,1,0,0:0:0:0:
448,192,134166,1,0,0:0:0:0:
64,192,134305,1,0,0:0:0:0:
320,192,134305,1,0,0:0:0:0:
192,192,134375,1,0,0:0:0:0:
64,192,134444,1,0,0:0:0:0:
320,192,134444,1,0,0:0:0:0:
448,192,134583,1,0,0:0:0:0:
320,192,134722,1,0,0:0:0:0:
64,192,134722,1,0,0:0:0:0:
448,192,134861,1,0,0:0:0:0:
192,192,135000,1,0,0:0:0:0:
320,192,135138,1,0,0:0:0:0:
64,192,135138,1,0,0:0:0:0:
448,192,135277,1,0,0:0:0:0:
192,192,135416,1,0,0:0:0:0:
448,192,135416,1,0,0:0:0:0:
192,192,135555,1,0,0:0:0:0:
320,192,135555,1,0,0:0:0:0:
448,192,135694,1,0,0:0:0:0:
64,192,135694,1,0,0:0:0:0:
448,192,135833,1,0,0:0:0:0:
64,192,135833,1,0,0:0:0:0:
320,192,135972,1,0,0:0:0:0:
448,192,136111,1,0,0:0:0:0:
64,192,136111,1,0,0:0:0:0:
448,192,136250,1,0,0:0:0:0:
192,192,136250,1,0,0:0:0:0:
64,192,136388,1,0,0:0:0:0:
448,192,136527,1,0,0:0:0:0:
192,192,136527,1,0,0:0:0:0:
64,192,136666,1,0,0:0:0:0:
320,192,136666,1,0,0:0:0:0:
448,192,136944,1,0,0:0:0:0:
192,192,136944,1,0,0:0:0:0:
64,192,137222,1,0,0:0:0:0:
320,192,137222,1,0,0:0:0:0:
448,192,137500,1,0,0:0:0:0:
64,192,137500,1,0,0:0:0:0:
192,192,137777,1,0,0:0:0:0:
448,192,137777,1,0,0:0:0:0:
192,192,138055,1,0,0:0:0:0:
448,192,138055,1,0,0:0:0:0:
320,192,138333,1,0,0:0:0:0:
448,192,138333,1,0,0:0:0:0:
64,192,138611,1,0,0:0:0:0:
448,192,138611,1,0,0:0:0:0:
64,192,138888,1,0,0:0:0:0:
192,192,138888,1,0,0:0:0:0:
320,192,139166,1,0,0:0:0:0:
192,192,139166,1,0,0:0:0:0:
448,192,139444,1,0,0:0:0:0:
320,192,139444,1,0,0:0:0:0:
320,192,139722,1,0,0:0:0:0:
448,192,139722,1,0,0:0:0:0:
192,192,140000,1,0,0:0:0:0:
320,192,140000,1,0,0:0:0:0:
64,192,140000,1,0,0:0:0:0:
192,192,140277,1,0,0:0:0:0:
320,192,140277,1,0,0:0:0:0:
64,192,140555,1,0,0:0:0:0:
192,192,140555,1,0,0:0:0:0:
320,192,140833,1,0,0:0:0:0:
192,192,140833,1,0,0:0:0:0:
64,192,141111,1,0,0:0:0:0:
192,192,141180,1,0,0:0:0:0:
320,192,141250,1,0,0:0:0:0:
448,192,141319,1,0,0:0:0:0:
320,192,141388,1,0,0:0:0:0:
192,192,141458,1,0,0:0:0:0:
64,192,141527,1,0,0:0:0:0:
192,192,141597,1,0,0:0:0:0:
320,192,141666,1,0,0:0:0:0:
448,192,141736,1,0,0:0:0:0:
320,192,141805,1,0,0:0:0:0:
192,192,141875,1,0,0:0:0:0:
64,192,141944,1,0,0:0:0:0:
192,192,142013,1,0,0:0:0:0:
320,192,142083,1,0,0:0:0:0:
448,192,142152,1,0,0:0:0:0:
320,192,142222,1,0,0:0:0:0:
192,192,142291,1,0,0:0:0:0:
64,192,142361,1,0,0:0:0:0:
192,192,142430,1,0,0:0:0:0:
320,192,142500,1,0,0:0:0:0:
448,192,142569,1,0,0:0:0:0:
320,192,142638,1,0,0:0:0:0:
192,192,142708,1,0,0:0:0:0:
64,192,142777,1,0,0:0:0:0:
192,192,142847,1,0,0:0:0:0:
448,192,142916,1,0,0:0:0:0:
320,192,142986,1,0,0:0:0:0:
192,192,143055,1,0,0:0:0:0:
64,192,143125,1,0,0:0:0:0:
192,192,143194,1,0,0:0:0:0:
320,192,143263,1,0,0:0:0:0:
448,192,143333,1,0,0:0:0:0:
320,192,143402,1,0,0:0:0:0:
192,192,143472,1,0,0:0:0:0:
64,192,143541,1,0,0:0:0:0:
448,192,143611,1,0,0:0:0:0:
320,192,143680,1,0,0:0:0:0:
192,192,143750,1,0,0:0:0:0:
64,192,143819,1,0,0:0:0:0:
448,192,143888,1,0,0:0:0:0:
320,192,143958,1,0,0:0:0:0:
192,192,144027,1,0,0:0:0:0:
64,192,144097,1,0,0:0:0:0:
448,192,144166,1,0,0:0:0:0:
320,192,144236,1,0,0:0:0:0:
192,192,144305,1,0,0:0:0:0:
320,192,144375,1,0,0:0:0:0:
64,192,144444,1,0,0:0:0:0:
192,192,144513,1,0,0:0:0:0:
320,192,144583,1,0,0:0:0:0:
448,192,144652,1,0,0:0:0:0:
64,192,144722,1,0,0:0:0:0:
192,192,144791,1,0,0:0:0:0:
320,192,144861,1,0,0:0:0:0:
448,192,144930,1,0,0:0:0:0:
64,192,145000,1,0,0:0:0:0:
192,192,145069,1,0,0:0:0:0:
64,192,145138,128,0,145277:0:0:0:0:
192,192,145277,128,0,145416:0:0:0:0:
320,192,145416,128,0,145555:0:0:0:0:
192,192,145555,1,0,0:0:0:0:
64,192,145555,1,0,0:0:0:0:
448,192,145694,1,0,0:0:0:0:
192,192,145833,1,0,0:0:0:0:
320,192,145972,1,0,0:0:0:0:
448,192,146111,1,0,0:0:0:0:
320,192,146250,1,0,0:0:0:0:
192,192,146388,1,0,0:0:0:0:
64,192,146527,1,0,0:0:0:0:
192,192,146666,1,0,0:0:0:0:
320,192,146805,1,0,0:0:0:0:
448,192,146944,1,0,0:0:0:0:
320,192,147083,1,0,0:0:0:0:
192,192,147222,1,0,0:0:0:0:
320,192,147361,1,0,0:0:0:0:
448,192,147500,1,0,0:0:0:0:
320,192,147638,1,0,0:0:0:0:
64,192,147777,1,0,0:0:0:0:
192,192,147916,1,0,0:0:0:0:
320,192,148055,1,0,0:0:0:0:
448,192,148194,1,0,0:0:0:0:
320,192,148333,1,0,0:0:0:0:
192,192,148472,1,0,0:0:0:0:
64,192,148611,1,0,0:0:0:0:
320,192,148750,1,0,0:0:0:0:
192,192,148888,1,0,0:0:0:0:
448,192,149027,1,0,0:0:0:0:
320,192,149166,1,0,0:0:0:0:
192,192,149305,1,0,0:0:0:0:
64,192,149444,1,0,0:0:0:0:
192,192,149583,1,0,0:0:0:0:
320,192,149722,1,0,0:0:0:0:
448,192,149861,1,0,0:0:0:0:
64,192,150000,1,0,0:0:0:0:
192,192,150138,1,0,0:0:0:0:
320,192,150277,1,0,0:0:0:0:
192,192,150416,1,0,0:0:0:0:
320,192,150555,1,0,0:0:0:0:
448,192,150694,1,0,0:0:0:0:
320,192,150833,1,0,0:0:0:0:
192,192,150972,1,0,0:0:0:0:
448,192,151111,1,0,0:0:0:0:
320,192,151250,1,0,0:0:0:0:
192,192,151388,1,0,0:0:0:0:
320,192,151527,1,0,0:0:0:0:
192,192,151666,1,0,0:0:0:0:
64,192,151805,1,0,0:0:0:0:
192,192,151944,1,0,0:0:0:0:
320,192,152083,1,0,0:0:0:0:
448,192,152222,1,0,0:0:0:0:
192,192,152361,1,0,0:0:0:0:
320,192,152500,1,0,0:0:0:0:
64,192,152638,1,0,0:0:0:0:
448,192,152777,1,0,0:0:0:0:
320,192,152916,1,0,0:0:0:0:
192,192,153055,1,0,0:0:0:0:
64,192,153194,1,0,0:0:0:0:
192,192,153333,1,0,0:0:0:0:
320,192,153472,1,0,0:0:0:0:
448,192,153611,1,0,0:0:0:0:
320,192,153750,1,0,0:0:0:0:
64,192,153888,1,0,0:0:0:0:
448,192,154027,1,0,0:0:0:0:
320,192,154166,1,0,0:0:0:0:
192,192,154305,1,0,0:0:0:0:
64,192,154444,1,0,0:0:0:0:
