osu file format v14

[General]
AudioFilename: audio.mp3
AudioLeadIn: 0
PreviewTime: 235104
Countdown: 0
SampleSet: Normal
StackLeniency: 0.7
Mode: 2
LetterboxInBreaks: 0
WidescreenStoryboard: 0

[Editor]
DistanceSpacing: 1.5
BeatDivisor: 8
GridSize: 16
TimelineZoom: 7.599995

[Metadata]
Title:King Atlantis
TitleUnicode:King Atlantis
Artist:Aoi
ArtistUnicode:Aoi
Creator:Rocma
Version:Brine
Source:Corsace Open 2022
Tags:aoi's odd ideas blue_aoironohikari bluenoup aoisoundsystem electronic underwater duck psychedelic instrumental trance hardcore duckcore breakcore psytrance quacken hybrid hydro core co2022 co22 2022 custom song x_angelkawaii_x
BeatmapID:4519918
BeatmapSetID:2145887

[Difficulty]
HPDrainRate:0
CircleSize:4.5
OverallDifficulty:10
ApproachRate:10
SliderMultiplier:2.56
SliderTickRate:2

[Events]
//Background and Video events
0,0,"bg.jpg",0,0
//Break Periods
//Storyboard Layer 0 (Background)
//Storyboard Layer 1 (Fail)
//Storyboard Layer 2 (Pass)
//Storyboard Layer 3 (Foreground)
//Storyboard Layer 4 (Overlay)
//Storyboard Sound Samples

[TimingPoints]
-25,307.692307692308,4,2,3,40,1,0
13513,-100,4,2,3,50,0,0
23359,-500,4,2,3,50,0,0
24590,-100,4,2,3,50,0,0
33205,-100,4,1,3,60,0,0
38359,-50,4,1,3,60,0,0
38513,-100,4,1,3,60,0,0
41821,-100,4,2,3,50,0,0
42744,-50,4,2,3,60,0,0
43051,-100,4,1,3,60,0,0
47975,-50,4,1,3,60,0,0
48128,-100,4,1,3,60,0,0
70128,-50,4,1,3,60,0,0
70282,-100,4,1,3,60,0,0
70744,-50,4,1,3,60,0,0
70898,-100,4,1,3,60,0,0
71359,-50,4,1,3,60,0,0
71667,-33.3333333333333,4,1,3,60,0,0
71975,-100,4,1,3,60,0,0
82436,-100,4,2,3,50,0,0
102128,-100,4,3,3,60,0,0
112590,-54.054054054054,4,3,3,60,0,0
113821,-100,4,3,3,60,0,0
116898,324.324324324324,4,3,3,60,1,0
118195,342.857142857143,4,3,3,60,1,0
119566,363.636363636364,4,3,3,50,1,0
120293,378.548895899054,4,3,3,60,1,0
121050,387.096774193548,4,3,3,50,1,0
122598,387.096774193548,4,2,3,50,1,0
122598,-80,4,2,3,50,0,0
128791,-80,4,1,3,50,0,0
135372,-80,4,1,3,60,0,0
159759,-80,4,3,3,60,0,0
186082,400,4,3,3,60,1,0
186082,-76.9230769230769,4,3,3,60,0,0
187682,413.793103448276,4,3,3,60,1,0
187682,-74.0740740740741,4,3,3,60,0,0
189337,428.571428571429,4,3,3,60,1,0
189337,-71.4285714285714,4,3,3,60,0,0
191051,444.444444444444,4,2,3,50,1,0
191051,-68.9655172413793,4,2,3,50,0,0
192828,461.538461538462,4,2,3,50,1,0
192828,-66.6666666666667,4,2,3,50,0,0
194674,480,4,2,3,50,1,0
194674,-66.6666666666667,4,2,3,50,0,0
196594,500,4,2,3,50,1,0
196594,-66.6666666666667,4,2,3,50,0,0
198594,255.31914893617,4,2,3,60,1,0
198594,-133.333333333333,4,2,3,60,0,0
198721,-133.333333333333,4,2,3,40,0,0
210849,-133.333333333333,4,2,3,50,0,0
214934,-133.333333333333,4,1,3,60,0,0
215828,-55.5555555555556,4,1,3,60,0,0
216976,-133.333333333333,4,1,3,60,0,0
217870,-55.5555555555556,4,1,3,60,0,0
219019,-133.333333333333,4,1,3,60,0,0
219913,-55.5555555555556,4,1,3,60,0,0
221062,-133.333333333333,4,1,3,60,0,0
224508,-55.5555555555556,4,1,3,60,0,0
224764,-133.333333333333,4,1,3,60,0,0
231274,-133.333333333333,4,2,3,60,0,0
235359,-133.333333333333,4,1,3,80,0,1
240338,-55.5555555555556,4,1,3,80,0,1
240721,-43.4782608695652,4,1,3,80,0,1
241487,-133.333333333333,4,1,3,80,0,1
248508,-55.5555555555556,4,1,3,80,0,1
248891,-43.4782608695652,4,1,3,80,0,1
249657,-133.333333333333,4,1,3,80,0,1
250040,-55.5555555555556,4,1,3,80,0,1
250806,-133.333333333333,4,1,3,80,0,1
256679,-55.5555555555556,4,1,3,80,0,1
257062,-43.4782608695652,4,1,3,80,0,1
257828,-133.333333333333,4,1,3,80,0,1
263955,-222.222222222221,4,2,3,50,0,0
264976,-133.333333333333,4,2,3,50,0,0
265998,-222.222222222221,4,2,3,50,0,0
267019,-133.333333333333,4,2,3,50,0,0
272125,-133.333333333333,4,1,3,60,0,0
282338,-133.333333333333,4,2,3,40,0,0

[Colours]
Combo1 : 79,5,250
Combo2 : 128,255,255

[HitObjects]
192,224,1282,6,0,L|160:224,3,32,0|0|0|0,0:0|0:0|0:0|0:0,0:0:0:0:
288,176,1436,2,0,L|320:176,3,32,0|0|0|0,0:0|0:0|0:0|0:0,0:0:0:0:
192,128,1590,1,0,0:0:0:0:
187,79,1667,1,0,0:0:0:0:
288,48,1821,6,0,L|256:48,3,32,0|0|0|0,0:0|0:0|0:0|0:0,0:0:0:0:
448,48,1975,2,0,L|456:123,1,64,0|0,0:0|0:0,0:0:0:0:
304,144,2128,1,0,0:0:0:0:
272,144,2148,2,0,L|270:193,1,48,0|0,0:0|0:0,0:0:0:0:
384,224,2244,1,0,0:0:0:0:
496,256,2282,1,0,0:0:0:0:
501,336,2359,1,0,0:0:0:0:
453,304,2436,1,0,0:0:0:0:
497,272,2513,1,0,0:0:0:0:
304,320,2744,6,0,L|432:320,2,128,0|0|0,0:0|0:0|0:0,0:0:0:0:
272,322,3090,2,0,L|319:319,1,32,0|0,0:0|0:0,0:0:0:0:
438,245,3205,2,0,L|376:244,1,48,0|0,0:0|0:0,0:0:0:0:
251,234,3321,1,0,0:0:0:0:
387,184,3398,1,0,0:0:0:0:
394,111,3513,1,0,0:0:0:0:
251,86,3590,1,0,0:0:0:0:
384,26,3667,6,0,P|458:41|503:151,2,192,8|0|0,0:0|0:0|0:0,0:0:0:0:
384,26,4898,6,0,P|458:41|503:151,2,192,8|0|0,0:0|0:0|0:0,0:0:0:0:
181,121,5821,1,2,0:0:0:0:
212,120,5859,1,0,0:0:0:0:
244,120,5897,1,0,0:0:0:0:
87,79,5975,1,0,0:0:0:0:
384,26,6128,6,0,P|458:41|503:151,2,192,8|0|0,0:0|0:0|0:0,0:0:0:0:
384,26,7359,6,0,P|458:41|503:151,2,192,8|0|0,0:0|0:0|0:0,0:0:0:0:
135,200,8282,2,0,L|143:167,1,32,2|0,0:0|0:0,0:0:0:0:
256,142,8359,1,0,0:0:0:0:
308,119,8436,1,0,0:0:0:0:
159,83,8513,1,0,0:0:0:0:
384,26,8590,6,0,P|458:41|503:151,2,192,8|0|0,0:0|0:0|0:0,0:0:0:0:
253,32,9205,2,0,L|94:28,1,128,0|0,0:0|0:0,0:0:0:0:
275,147,9513,2,0,L|123:141,1,128,0|0,0:0|0:0,0:0:0:0:
384,26,9821,6,0,P|458:41|503:151,2,192,8|0|0,0:0|0:0|0:0,0:0:0:0:
259,32,10436,2,0,L|418:28,1,128,0|0,0:0|0:0,0:0:0:0:
157,154,10744,2,0,L|110:155,1,32,2|0,0:0|0:0,0:0:0:0:
249,112,10821,2,0,L|325:110,1,64,0|0,0:0|0:0,0:0:0:0:
157,43,10975,1,0,0:0:0:0:
384,26,11051,6,0,P|458:41|503:151,2,192,8|0|0,0:0|0:0|0:0,0:0:0:0:
255,83,11667,2,0,L|388:82,1,128,0|0,0:0|0:0,0:0:0:0:
257,83,11975,2,0,L|124:82,1,128,0|0,0:0|0:0,0:0:0:0:
384,26,12282,6,0,P|458:41|503:151,1,192,8|0,0:0|0:0,0:0:0:0:
446,179,12590,2,0,L|516:181,2,64,0|0|0,0:0|0:0|0:0,0:0:0:0:
189,245,12821,1,0,0:0:0:0:
298,251,12859,1,0,0:0:0:0:
424,259,12898,1,2,0:0:0:0:
376,250,12975,2,0,L|369:113,1,128,0|0,0:0|0:0,0:0:0:0:
212,102,13205,1,8,0:1:0:0:
348,77,13282,1,0,0:0:0:0:
197,34,13359,1,0,0:0:0:0:
333,9,13436,1,0,0:0:0:0:
13,181,13513,5,4,0:1:0:0:
55,288,13667,1,0,0:0:0:0:
457,288,13821,1,0,0:0:0:0:
499,181,13975,1,0,0:0:0:0:
13,181,14128,5,2,0:0:0:0:
115,231,14282,1,0,0:0:0:0:
397,231,14436,1,8,0:1:0:0:
499,181,14590,1,0,0:0:0:0:
158,165,14744,5,2,0:1:0:0:
256,128,14782,1,0,0:0:0:0:
354,165,14821,1,0,0:0:0:0:
256,128,14859,1,0,0:0:0:0:
158,165,14897,1,0,0:0:0:0:
372,205,15051,1,0,0:0:0:0:
499,181,15205,1,0,0:0:0:0:
13,181,15359,5,2,0:0:0:0:
244,251,15513,1,0,0:0:0:0:
268,251,15667,1,8,0:1:0:0:
499,181,15821,1,0,0:0:0:0:
348,136,15898,1,0,0:0:0:0:
499,181,15975,5,4,0:1:0:0:
457,288,16129,1,0,0:0:0:0:
55,288,16283,1,0,0:0:0:0:
13,181,16437,1,0,0:0:0:0:
499,181,16590,5,2,0:0:0:0:
397,231,16744,1,0,0:0:0:0:
115,231,16898,1,8,0:1:0:0:
13,181,17052,1,0,0:0:0:0:
354,165,17205,5,2,0:1:0:0:
256,128,17244,1,0,0:0:0:0:
158,165,17283,1,0,0:0:0:0:
256,128,17321,1,0,0:0:0:0:
354,165,17359,1,0,0:0:0:0:
140,205,17513,1,0,0:0:0:0:
13,181,17667,1,0,0:0:0:0:
499,181,17821,5,2,0:0:0:0:
268,251,17975,1,0,0:0:0:0:
244,251,18129,1,8,0:1:0:0:
94,221,18205,1,0,0:0:0:0:
261,157,18282,1,0,0:0:0:0:
111,127,18358,1,0,0:0:0:0:
279,80,18436,5,4,0:1:0:0:
500,47,18590,1,0,0:0:0:0:
233,80,18744,1,0,0:0:0:0:
12,47,18898,1,0,0:0:0:0:
390,144,19051,5,2,0:0:0:0:
122,144,19205,1,0,0:0:0:0:
475,248,19359,1,8,0:1:0:0:
37,248,19513,1,0,0:0:0:0:
354,165,19667,5,2,0:1:0:0:
256,128,19705,1,0,0:0:0:0:
158,165,19744,1,0,0:0:0:0:
256,128,19782,1,0,0:0:0:0:
354,165,19820,1,0,0:0:0:0:
7,294,19975,1,0,0:0:0:0:
256,224,20128,1,0,0:0:0:0:
505,294,20282,5,2,0:0:0:0:
102,223,20436,1,0,0:0:0:0:
410,223,20590,1,8,0:1:0:0:
182,86,20744,1,0,0:0:0:0:
330,86,20821,1,0,0:0:0:0:
176,173,20898,6,0,L|94:172,1,64,4|0,0:1|0:0,0:0:0:0:
276,235,21051,1,0,0:0:0:0:
440,272,21128,1,0,0:0:0:0:
275,322,21205,2,0,L|406:320,1,128,8|0,0:1|0:0,0:0:0:0:
295,262,21398,1,0,0:0:0:0:
183,236,21436,1,0,0:0:0:0:
295,262,21475,1,0,0:0:0:0:
407,236,21513,5,2,0:1:0:0:
417,155,21590,1,0,0:0:0:0:
239,91,21667,1,0,0:0:0:0:
298,88,21744,1,0,0:0:0:0:
89,123,21821,2,0,L|78:257,1,128,8|8,0:1|0:1,0:0:0:0:
239,298,22051,1,8,0:1:0:0:
407,236,22128,5,2,0:1:0:0:
309,199,22166,1,0,0:0:0:0:
211,236,22205,1,0,0:0:0:0:
309,199,22243,1,0,0:0:0:0:
407,236,22281,1,0,0:0:0:0:
431,213,22321,1,0,0:0:0:0:
407,236,22359,1,0,0:0:0:0:
228,272,22436,2,0,L|304:272,3,64,8|0|0|0,0:1|0:0|0:0|0:0,0:0:0:0:
116,186,22744,5,2,0:1:0:0:
396,186,22898,2,0,L|401:39,1,128,0|0,0:0|0:0,0:0:0:0:
77,62,23128,1,0,0:0:0:0:
256,32,23205,1,0,0:0:0:0:
435,62,23282,1,0,0:0:0:0:
29,27,23359,6,0,L|19:209,1,179.2,4|0,0:1|0:0,0:0:0:0:
15,271,24590,5,4,0:1:0:0:
256,192,24744,1,4,0:1:0:0:
497,271,24898,1,8,0:1:0:0:
444,252,24975,1,0,0:0:0:0:
307,187,25051,1,4,0:1:0:0:
444,252,25128,1,8,0:1:0:0:
302,293,25205,6,0,L|236:291,1,64,0|0,0:0|0:0,0:0:0:0:
399,211,25359,2,0,L|403:134,1,64,4|0,0:1|0:0,0:0:0:0:
228,97,25513,1,2,0:0:0:0:
454,83,25667,1,2,0:0:0:0:
15,23,25821,6,0,L|5:170,1,128,4|0,0:1|0:0,0:0:0:0:
66,169,26051,2,0,L|137:172,1,64,0|2,0:0|0:0,0:0:0:0:
51,105,26282,2,0,L|122:108,1,64,0|0,0:0|0:0,0:0:0:0:
15,23,26436,6,0,L|4:226,2,192,2|0|2,0:0|0:0|0:0,0:0:0:0:
15,271,27051,5,4,0:1:0:0:
256,192,27205,1,4,0:1:0:0:
258,114,27282,1,0,0:0:0:0:
497,271,27359,1,8,0:1:0:0:
491,197,27436,1,0,0:0:0:0:
326,157,27513,1,4,0:1:0:0:
160,135,27590,1,8,0:1:0:0:
328,75,27667,6,0,L|397:77,1,64,0|0,0:0|0:0,0:0:0:0:
242,31,27821,1,4,0:1:0:0:
395,207,27898,1,0,0:0:0:0:
237,264,27975,2,0,L|150:255,2,64,8|0|8,0:1|0:0|0:1,0:0:0:0:
77,182,28205,1,0,0:0:0:0:
497,23,28282,6,0,L|507:170,1,128,4|0,0:1|0:0,0:0:0:0:
446,169,28512,2,0,L|375:172,1,64,0|2,0:0|0:0,0:0:0:0:
382,171,28743,2,0,L|311:174,1,64,0|0,0:0|0:0,0:0:0:0:
497,23,28898,6,0,B|505:149|505:149|430:148,2,192,2|0|2,0:0|0:0|0:0,0:0:0:0:
174,77,29513,5,4,0:1:0:0:
310,135,29667,1,4,0:1:0:0:
157,166,29744,1,0,0:0:0:0:
0,205,29821,1,8,0:1:0:0:
9,291,29898,1,0,0:0:0:0:
162,322,29975,1,4,0:1:0:0:
319,361,30052,1,8,0:1:0:0:
137,245,30128,5,4,0:1:0:0:
295,288,30205,2,0,L|430:286,1,128,8|0,0:1|0:0,0:0:0:0:
274,205,30436,2,0,L|272:165,1,32,2|0,0:0|0:0,0:0:0:0:
130,153,30513,2,0,L|132:113,1,32,0|0,0:0|0:0,0:0:0:0:
232,79,30590,2,0,L|273:78,1,32,2|0,0:0|0:0,0:0:0:0:
129,21,30667,2,0,L|92:24,1,32,0|0,0:0|0:0,0:0:0:0:
367,221,30744,6,0,L|525:221,1,128,4|0,0:1|0:0,0:0:0:0:
319,228,30975,1,0,0:0:0:0:
145,221,31051,2,0,L|-13:221,1,128,2|0,0:0|0:0,0:0:0:0:
193,228,31282,1,0,0:0:0:0:
6,122,31359,6,0,L|156:118,1,128,2|0,0:0|0:0,0:0:0:0:
378,118,31590,2,0,L|506:122,1,128,0|0,0:0|0:0,0:0:0:0:
256,64,31821,1,2,0:0:0:0:
502,282,31975,5,4,0:1:0:0:
223,263,32128,2,0,L|204:263,1,16,2|0,0:0|0:0,0:0:0:0:
354,178,32205,2,0,L|373:178,1,16,2|0,0:0|0:0,0:0:0:0:
209,130,32282,2,0,L|74:129,1,128,4|0,0:1|0:0,0:0:0:0:
147,130,32513,1,0,0:0:0:0:
298,198,32590,6,0,L|216:197,1,64,4|8,0:1|0:1,0:0:0:0:
383,265,32744,1,0,0:0:0:0:
141,262,32821,1,8,0:1:0:0:
500,316,32898,1,4,0:1:0:0:
258,313,32975,1,0,0:0:0:0:
12,316,33051,1,8,0:1:0:0:
254,313,33128,1,0,0:0:0:0:
494,227,33205,6,0,L|338:227,1,128,4|0,0:0|0:0,0:0:0:0:
189,198,33436,1,0,0:0:0:0:
362,116,33513,2,0,L|206:116,1,128,8|0,0:0|0:0,0:0:0:0:
57,87,33744,1,0,0:0:0:0:
456,69,33821,2,0,L|460:219,1,128,2|0,0:0|0:0,0:0:0:0:
256,224,34051,1,0,0:0:0:0:
56,69,34128,2,0,L|52:219,1,128,8|0,0:0|0:0,0:0:0:0:
256,224,34358,1,0,0:0:0:0:
26,331,34436,6,0,L|98:325,1,64,4|0,0:0|0:0,0:0:0:0:
267,275,34590,1,0,0:0:0:0:
88,240,34667,1,0,0:0:0:0:
284,176,34744,2,0,L|412:178,1,128,8|0,0:0|0:0,0:0:0:0:
348,176,34975,1,0,0:0:0:0:
203,93,35051,1,2,0:0:0:0:
352,38,35129,2,0,L|224:36,1,128,4|0,0:0|0:0,0:0:0:0:
382,118,35359,2,0,L|317:117,1,64,8|0,0:0|0:0,0:0:0:0:
488,186,35513,1,0,0:0:0:0:
315,204,35590,1,0,0:0:0:0:
18,227,35667,6,0,L|174:227,1,128,4|0,0:0|0:0,0:0:0:0:
323,198,35898,1,0,0:0:0:0:
150,116,35975,2,0,L|306:116,1,128,8|0,0:0|0:0,0:0:0:0:
455,87,36206,1,0,0:0:0:0:
56,69,36283,2,0,L|52:219,1,128,2|0,0:0|0:0,0:0:0:0:
256,224,36513,1,0,0:0:0:0:
456,69,36590,2,0,L|460:219,1,128,8|0,0:0|0:0,0:0:0:0:
256,224,36820,1,0,0:0:0:0:
486,331,36898,6,0,L|414:325,1,64,4|0,0:0|0:0,0:0:0:0:
245,275,37052,1,0,0:0:0:0:
424,240,37129,1,0,0:0:0:0:
228,176,37205,2,0,L|100:178,1,128,8|0,0:0|0:0,0:0:0:0:
164,176,37437,1,0,0:0:0:0:
309,93,37513,1,2,0:0:0:0:
160,38,37591,2,0,L|288:36,1,128,4|0,0:0|0:0,0:0:0:0:
459,90,37821,1,8,0:0:0:0:
308,117,37898,1,0,0:0:0:0:
485,158,37975,1,8,0:0:0:0:
334,185,38051,1,8,0:0:0:0:
55,238,38128,6,0,L|192:237,1,128,4|0,0:0|0:0,0:0:0:0:
121,160,38359,2,0,L|401:153,1,256,2|0,0:0|0:0,0:0:0:0:
239,90,38590,1,8,0:0:0:0:
376,153,38667,1,0,0:0:0:0:
156,232,38744,6,0,L|71:234,1,64,4|2,0:0|0:0,0:0:0:0:
256,160,38898,1,0,0:0:0:0:
419,233,38975,2,0,L|356:232,1,64,0|2,0:0|0:0,0:0:0:0:
156,232,39128,1,0,0:0:0:0:
356,232,39205,2,0,L|419:233,1,64,8|0,0:0|0:0,0:0:0:0:
192,235,39359,6,0,L|189:140,1,64,4|0,0:0|0:0,0:0:0:0:
16,108,39513,2,0,L|98:107,1,64,2|0,0:0|0:0,0:0:0:0:
259,66,39667,2,0,L|90:61,1,128,8|0,0:0|0:0,0:0:0:0:
281,141,39898,1,0,0:0:0:0:
131,62,39975,5,4,0:0:0:0:
315,73,40051,2,0,L|478:89,1,128,2|0,0:0|0:0,0:0:0:0:
260,174,40282,2,0,L|220:174,1,32,8|0,0:0|0:0,0:0:0:0:
72,174,40359,2,0,L|19:174,1,32,0|0,0:0|0:0,0:0:0:0:
252,174,40436,2,0,L|292:174,1,32,2|0,0:0|0:0,0:0:0:0:
440,174,40513,2,0,L|493:174,1,32,0|0,0:0|0:0,0:0:0:0:
231,290,40590,6,0,L|160:286,1,64,4|0,0:0|0:0,0:0:0:0:
373,212,40744,2,0,L|291:209,1,64,4|0,0:0|0:0,0:0:0:0:
112,169,40898,2,0,L|252:166,1,128,8|0,0:0|0:0,0:0:0:0:
419,136,41128,1,0,0:0:0:0:
237,84,41205,6,0,L|189:85,1,32,2|0,0:0|0:0,0:0:0:0:
332,34,41282,2,0,L|373:34,1,32,0|0,0:0|0:0,0:0:0:0:
235,10,41359,2,0,L|149:12,1,64,0|0,0:0|0:0,0:0:0:0:
375,236,41513,2,0,L|423:237,1,32,8|0,0:0|0:0,0:0:0:0:
280,186,41590,2,0,L|239:186,1,32,0|0,0:0|0:0,0:0:0:0:
411,163,41667,2,0,L|459:164,1,32,0|0,0:0|0:0,0:0:0:0:
316,113,41744,2,0,L|275:113,1,32,2|0,0:0|0:0,0:0:0:0:
508,96,41821,5,2,0:0:0:0:
489,33,41975,1,8,0:0:0:0:
292,21,41994,1,0,0:0:0:0:
247,85,42244,1,0,0:0:0:0:
136,123,42282,1,8,0:0:0:0:
257,162,42321,1,0,0:0:0:0:
368,197,42359,1,0,0:0:0:0:
302,256,42513,1,0,0:0:0:0:
353,324,42590,1,8,0:0:0:0:
238,336,42609,1,0,0:0:0:0:
122,345,42628,1,0,0:0:0:0:
0,192,42744,6,0,L|544:192,1,512,4|4,0:0|0:0,0:0:0:0:
239,96,43205,1,2,0:2:0:0:
506,68,43359,1,8,0:0:0:0:
206,233,43513,2,0,L|311:232,1,64,0|0,0:0|0:0,0:0:0:0:
60,159,43667,5,2,0:0:0:0:
256,109,43744,2,0,L|350:111,2,64,0|0|0,0:0|0:0|0:0,0:0:0:0:
452,159,43975,1,8,0:0:0:0:
256,109,44052,2,0,L|162:111,2,64,0|0|0,0:0|0:0|0:0,0:0:0:0:
74,273,44282,6,0,L|71:203,1,64,4|0,0:0|0:0,0:0:0:0:
283,177,44436,2,0,L|191:178,1,64,2|0,0:2|0:0,0:0:0:0:
405,120,44590,1,8,0:0:0:0:
214,60,44667,1,0,0:0:0:0:
403,22,44744,2,0,L|473:21,1,64,0|0,0:0|0:0,0:0:0:0:
249,258,44898,6,0,L|249:169,1,64,2|0,0:0|0:0,0:0:0:0:
84,128,45051,2,0,L|176:129,1,64,0|0,0:0|0:0,0:0:0:0:
350,98,45205,2,0,L|263:96,3,64,8|0|0|0,0:0|0:0|0:0|0:0,0:0:0:0:
76,247,45513,6,0,L|219:244,1,128,4|2,0:0|0:2,0:0:0:0:
450,199,45821,1,8,0:0:0:0:
201,128,45975,2,0,L|283:131,1,64,0|0,0:0|0:0,0:0:0:0:
63,80,46128,5,2,0:0:0:0:
238,57,46205,1,0,0:0:0:0:
301,57,46281,1,0,0:0:0:0:
365,57,46358,1,0,0:0:0:0:
182,193,46436,1,8,0:0:0:0:
357,170,46513,1,0,0:0:0:0:
420,170,46589,1,0,0:0:0:0:
484,170,46666,1,0,0:0:0:0:
314,297,46744,6,0,L|410:300,1,64,2|0,0:0|0:0,0:0:0:0:
207,223,46898,2,0,L|290:229,1,64,2|0,0:2|0:0,0:0:0:0:
127,136,47051,1,8,0:0:0:0:
283,92,47128,2,0,L|374:98,2,64,0|0|0,0:0|0:0|0:0,0:0:0:0:
73,220,47359,6,0,L|154:220,1,64,2|0,0:0|0:0,0:0:0:0:
314,242,47513,2,0,L|240:241,1,64,0|0,0:0|0:0,0:0:0:0:
426,180,47667,2,0,L|431:109,1,64,8|0,0:0|0:0,0:0:0:0:
505,144,47821,2,0,L|513:68,1,64,0|0,0:0|0:0,0:0:0:0:
262,35,47975,6,0,L|-14:35,1,256,8|0,0:3|0:0,0:0:0:0:
303,116,48282,1,8,0:0:0:0:
81,220,48436,2,0,L|154:223,1,64,0|0,0:0|0:0,0:0:0:0:
368,197,48590,5,2,0:0:0:0:
194,150,48667,1,0,0:0:0:0:
258,150,48743,1,0,0:0:0:0:
322,150,48820,1,0,0:0:0:0:
144,197,48898,1,8,0:0:0:0:
318,150,48975,1,0,0:0:0:0:
254,150,49051,1,0,0:0:0:0:
190,150,49128,1,0,0:0:0:0:
352,270,49205,6,0,L|424:271,1,64,4|0,0:0|0:0,0:0:0:0:
238,330,49359,2,0,L|165:332,1,64,2|0,0:2|0:0,0:0:0:0:
339,233,49513,1,8,0:0:0:0:
164,187,49590,1,0,0:0:0:0:
227,185,49666,1,0,0:0:0:0:
291,183,49743,1,0,0:0:0:0:
87,147,49821,6,0,L|88:61,1,64,2|0,0:0|0:0,0:0:0:0:
285,49,49975,2,0,L|220:48,1,64,0|0,0:0|0:0,0:0:0:0:
413,113,50128,2,0,L|503:114,3,64,8|0|0|0,0:0|0:0|0:0|0:0,0:0:0:0:
253,231,50436,6,0,L|162:233,2,64,4|0|2,0:0|0:0|0:2,0:0:0:0:
33,168,50744,1,8,0:0:0:0:
311,93,50898,2,0,L|245:95,1,64,0|0,0:0|0:0,0:0:0:0:
447,171,51051,5,2,0:0:0:0:
258,209,51128,2,0,L|254:279,1,64,0|0,0:0|0:0,0:0:0:0:
191,286,51282,1,0,0:0:0:0:
0,142,51359,1,8,0:0:0:0:
189,180,51436,2,0,L|193:250,1,64,0|0,0:0|0:0,0:0:0:0:
131,257,51590,1,0,0:0:0:0:
350,294,51667,6,0,L|352:249,1,32,4|0,0:0|0:0,0:0:0:0:
246,248,51744,2,0,L|244:203,1,32,0|0,0:0|0:0,0:0:0:0:
379,169,51821,2,0,L|384:123,2,32,0|0|0,0:0|0:0|0:0,0:0:0:0:
84,163,51975,5,8,0:0:0:0:
300,77,52128,1,2,0:2:0:0:
190,58,52167,1,0,0:0:0:0:
83,40,52205,1,0,0:0:0:0:
190,58,52244,1,0,0:0:0:0:
343,86,52282,5,2,0:0:0:0:
430,140,52359,2,0,L|431:186,1,32,0|0,0:0|0:0,0:0:0:0:
266,256,52436,2,0,L|219:254,1,32,0|0,0:0|0:0,0:0:0:0:
359,315,52513,2,0,L|399:324,1,32,0|0,0:0|0:0,0:0:0:0:
190,281,52590,6,0,L|170:242,1,32,8|0,0:0|0:0,0:0:0:0:
190,281,52667,2,0,L|228:282,1,32,0|0,0:0|0:0,0:0:0:0:
395,243,52744,2,0,L|394:200,1,32,0|0,0:0|0:0,0:0:0:0:
262,188,52821,2,0,L|261:145,1,32,0|0,0:0|0:0,0:0:0:0:
406,107,52898,6,0,L|497:109,3,64,4|0|0|0,0:0|0:0|0:0|0:0,0:0:0:0:
315,216,53205,1,8,0:0:0:0:
473,194,53282,2,0,L|386:194,2,64,0|0|0,0:0|0:0|0:0,0:0:0:0:
240,291,53513,5,2,0:0:0:0:
90,254,53590,1,0,0:0:0:0:
243,205,53667,2,0,L|321:204,1,64,0|0,0:0|0:0,0:0:0:0:
143,143,53821,1,8,0:0:0:0:
293,106,53898,1,0,0:0:0:0:
140,57,53975,2,0,L|62:56,1,64,0|0,0:0|0:0,0:0:0:0:
249,119,54128,6,0,L|251:201,1,64,4|0,0:0|0:0,0:0:0:0:
408,232,54282,2,0,L|408:311,1,64,2|0,0:2|0:0,0:0:0:0:
236,333,54436,1,8,0:0:0:0:
372,341,54513,1,0,0:0:0:0:
233,257,54590,2,0,L|298:262,1,64,0|0,0:0|0:0,0:0:0:0:
117,188,54744,6,0,L|36:188,1,64,2|0,0:0|0:0,0:0:0:0:
213,116,54898,1,0,0:0:0:0:
369,86,54975,1,0,0:0:0:0:
195,45,55051,2,0,L|127:47,1,64,8|0,0:0|0:0,0:0:0:0:
309,180,55205,2,0,L|384:177,1,64,0|0,0:0|0:0,0:0:0:0:
152,311,55359,6,0,L|146:228,1,64,4|0,0:0|0:0,0:0:0:0:
294,189,55513,2,0,L|223:186,1,64,2|0,0:2|0:0,0:0:0:0:
52,178,55667,1,8,0:0:0:0:
295,116,55821,1,0,0:0:0:0:
134,90,55898,1,0,0:0:0:0:
295,214,55975,6,0,L|380:215,1,64,2|0,0:0|0:0,0:0:0:0:
178,307,56128,2,0,L|257:306,1,64,0|0,0:0|0:0,0:0:0:0:
437,281,56282,1,8,0:0:0:0:
246,216,56359,2,0,L|334:216,2,64,0|0|0,0:0|0:0|0:0,0:0:0:0:
443,169,56590,5,4,0:0:0:0:
256,96,56667,1,0,0:0:0:0:
69,169,56744,1,0,0:0:0:0:
256,96,56821,1,0,0:0:0:0:
497,88,56898,1,4,0:0:0:0:
30,71,57051,1,4,0:0:0:0:
256,96,57127,1,0,0:0:0:0:
30,71,57205,1,0,0:0:0:0:
370,322,57359,6,0,P|392:232|520:128,1,256,2|0,0:0|0:0,0:0:0:0:
23,135,57821,5,4,0:2:0:0:
258,137,57975,2,0,L|269:51,1,64,2|0,0:0|0:0,0:0:0:0:
418,64,58128,1,8,0:0:0:0:
23,69,58282,1,8,0:0:0:0:
187,72,58359,1,0,0:0:0:0:
352,73,58436,6,0,L|360:146,1,64,2|0,0:0|0:0,0:0:0:0:
196,177,58590,2,0,L|183:262,1,64,0|0,0:0|0:0,0:0:0:0:
23,69,58744,1,8,0:0:0:0:
256,76,58821,2,0,L|350:79,2,64,0|0|0,0:0|0:0|0:0,0:0:0:0:
489,69,59051,5,4,0:0:0:0:
23,69,59205,1,2,0:0:0:0:
187,72,59282,1,0,0:0:0:0:
352,73,59359,2,0,L|360:146,1,64,8|0,0:0|0:0,0:0:0:0:
196,177,59513,2,0,L|188:250,1,64,0|0,0:0|0:0,0:0:0:0:
339,283,59667,6,0,L|239:279,1,64,2|0,0:0|0:0,0:0:0:0:
437,290,59821,2,0,L|445:363,1,64,0|0,0:0|0:0,0:0:0:0:
256,352,59975,1,8,0:0:0:0:
75,290,60051,2,0,L|67:363,1,64,0|0,0:0|0:0,0:0:0:0:
256,352,60205,1,0,0:0:0:0:
496,224,60282,6,0,L|400:223,1,64,2|0,0:0|0:0,0:0:0:0:
256,192,60436,1,2,0:2:0:0:
133,170,60475,1,0,0:0:0:0:
256,192,60513,1,0,0:0:0:0:
432,223,60590,2,0,L|435:149,1,64,2|0,0:0|0:0,0:0:0:0:
145,86,60744,1,8,0:0:0:0:
315,135,60821,1,0,0:0:0:0:
492,76,60898,5,2,0:0:0:0:
161,235,61051,2,0,L|120:237,1,32,2|0,0:2|0:0,0:0:0:0:
351,235,61128,2,0,L|392:237,1,32,0|0,0:0|0:0,0:0:0:0:
160,235,61205,1,0,0:0:0:0:
129,236,61359,2,0,L|161:235,1,32,2|0,0:2|0:0,0:0:0:0:
382,236,61436,2,0,L|351:235,1,32,0|0,0:0|0:0,0:0:0:0:
129,236,61513,5,4,0:0:0:0:
68,99,61590,1,0,0:0:0:0:
126,91,61667,1,0,0:0:0:0:
97,94,61705,1,0,0:0:0:0:
68,99,61744,1,0,0:0:0:0:
201,41,61782,1,0,0:0:0:0:
340,31,61821,2,0,L|376:34,1,32,8|0,0:0|0:0,0:0:0:0:
244,121,61898,2,0,L|208:124,1,32,0|0,0:0|0:0,0:0:0:0:
346,174,61975,1,0,0:0:0:0:
498,209,62051,1,0,0:0:0:0:
285,262,62128,6,0,L|245:263,1,32,2|0,0:0|0:0,0:0:0:0:
127,232,62205,1,0,0:0:0:0:
241,204,62244,1,0,0:0:0:0:
347,150,62282,2,0,L|307:151,1,32,4|0,0:0|0:0,0:0:0:0:
189,120,62359,1,0,0:0:0:0:
303,92,62398,1,0,0:0:0:0:
433,58,62436,1,8,0:0:0:0:
382,44,62513,1,0,0:0:0:0:
439,20,62590,1,0,0:0:0:0:
388,2,62667,1,0,0:0:0:0:
198,206,62744,5,4,0:2:0:0:
350,240,62821,1,0,0:0:0:0:
492,291,62898,2,0,L|418:292,1,64,0|0,0:0|0:0,0:0:0:0:
211,294,63051,1,8,0:0:0:0:
369,249,63128,1,0,0:0:0:0:
205,184,63205,2,0,L|122:184,1,64,0|0,0:0|0:0,0:0:0:0:
336,114,63359,5,2,0:0:0:0:
173,62,63436,2,0,L|237:66,1,64,0|4,0:0|0:0,0:0:0:0:
401,99,63590,1,0,0:0:0:0:
178,223,63667,1,8,0:0:0:0:
15,171,63744,2,0,L|79:175,1,64,0|0,0:0|0:0,0:0:0:0:
243,208,63898,1,0,0:0:0:0:
53,343,63975,6,0,L|52:277,1,64,4|0,0:0|0:0,0:0:0:0:
240,251,64128,2,0,L|164:253,1,64,0|0,0:0|0:0,0:0:0:0:
367,143,64282,2,0,L|297:143,1,64,8|0,0:0|0:0,0:0:0:0:
498,302,64436,2,0,L|501:228,1,64,0|0,0:0|0:0,0:0:0:0:
263,191,64590,6,0,L|345:191,1,64,2|0,0:0|0:0,0:0:0:0:
131,137,64744,1,4,0:0:0:0:
323,102,64821,1,0,0:0:0:0:
64,92,64898,1,8,0:0:0:0:
256,57,64975,1,0,0:0:0:0:
448,92,65051,1,0,0:0:0:0:
256,57,65128,1,0,0:0:0:0:
9,230,65205,6,0,L|183:231,1,128,4|0,0:0|0:0,0:0:0:0:
319,229,65436,1,0,0:0:0:0:
503,230,65513,2,0,L|329:231,1,128,8|0,0:0|0:0,0:0:0:0:
193,229,65744,1,0,0:0:0:0:
428,142,65821,6,0,L|510:142,2,64,2|0|0,0:0|0:0|0:0,0:0:0:0:
225,135,66051,1,0,0:0:0:0:
20,142,66128,2,0,L|84:142,2,64,8|0|0,0:0|0:0|0:0,0:0:0:0:
225,135,66359,1,0,0:0:0:0:
505,258,66436,5,4,0:0:0:0:
328,240,66513,1,0,0:0:0:0:
151,258,66590,1,0,0:0:0:0:
328,240,66667,1,0,0:0:0:0:
7,258,66744,1,8,0:0:0:0:
184,240,66821,1,0,0:0:0:0:
361,258,66898,1,0,0:0:0:0:
184,240,66975,1,0,0:0:0:0:
408,136,67051,5,2,0:0:0:0:
186,138,67128,2,0,L|178:277,1,128,4|0,0:0|0:0,0:0:0:0:
16,352,67359,1,8,0:0:0:0:
176,320,67436,1,0,0:0:0:0:
336,320,67513,1,0,0:0:0:0:
496,352,67590,1,0,0:0:0:0:
229,223,67667,5,4,0:2:0:0:
80,176,67744,1,0,0:0:0:0:
224,108,67821,2,0,L|325:111,1,64
75,46,67975,2,0,L|161:49,1,64,8|0,0:0|0:0,0:0:0:0:
316,164,68128,1,0,0:0:0:0:
149,198,68205,1,0,0:0:0:0:
330,323,68282,6,0,L|332:241,1,64,2|0,0:0|0:0,0:0:0:0:
146,184,68436,2,0,L|234:183,1,64,4|0,0:0|0:0,0:0:0:0:
437,109,68590,1,8,0:0:0:0:
274,66,68667,1,0,0:0:0:0:
111,109,68744,2,0,L|179:109,1,64,0|0,0:0|0:0,0:0:0:0:
386,186,68898,5,4,0:0:0:0:
247,176,68975,1,0,0:0:0:0:
403,251,69051,2,0,L|411:337,1,64,0|0,0:0|0:0,0:0:0:0:
217,334,69205,2,0,L|321:338,1,64,8|0,0:0|0:0,0:0:0:0:
96,252,69359,2,0,L|178:253,1,64,0|0,0:0|0:0,0:0:0:0:
382,196,69513,6,0,L|388:100,1,64,2|0,0:0|0:0,0:0:0:0:
226,144,69667,2,0,L|220:48,1,64,4|0,0:0|0:0,0:0:0:0:
403,60,69821,1,8,0:0:0:0:
256,16,69898,1,0,0:0:0:0:
109,60,69975,1,0,0:0:0:0:
256,16,70052,1,0,0:0:0:0:
496,237,70128,6,0,L|226:240,1,256,4|0,0:2|0:0,0:0:0:0:
419,176,70359,1,0,0:0:0:0:
238,160,70436,2,0,L|234:70,1,64,8|0,0:0|0:0,0:0:0:0:
51,67,70590,1,8,0:0:0:0:
235,26,70667,1,0,0:0:0:0:
16,237,70744,6,0,L|286:240,1,256,4|0,0:2|0:0,0:0:0:0:
93,176,70975,1,0,0:0:0:0:
274,160,71052,2,0,L|278:70,1,64,8|0,0:0|0:0,0:0:0:0:
461,67,71206,1,8,0:0:0:0:
277,26,71283,1,0,0:0:0:0:
18,286,71359,6,0,L|314:284,1,256,4|0,0:2|0:0,0:0:0:0:
13,167,71667,2,0,L|427:161,1,384.000014648438,4|0,0:2|0:0,0:0:0:0:
205,106,71898,1,0,0:0:0:0:
393,71,71975,6,0,L|467:72,1,64,4|0,0:2|0:0,0:0:0:0:
297,149,72128,2,0,L|261:152,1,32,2|0,0:0|0:0,0:0:0:0:
396,232,72205,2,0,L|442:239,1,32,0|0,0:0|0:0,0:0:0:0:
243,271,72282,1,8,0:0:0:0:
81,307,72359,1,0,0:0:0:0:
250,324,72436,1,0,0:0:0:0:
88,360,72513,1,0,0:0:0:0:
262,361,72590,6,0,L|347:359,1,64,2|0,0:2|0:0,0:0:0:0:
83,290,72744,2,0,L|20:290,1,64,0|0,0:0|0:0,0:0:0:0:
183,231,72897,1,8,0:0:0:0:
25,186,72974,1,0,0:0:0:0:
189,146,73051,2,0,L|272:146,1,64,0|0,0:0|0:0,0:0:0:0:
512,71,73205,5,2,0:0:0:0:
344,62,73282,2,0,L|280:66,1,64,0|0,0:0|0:0,0:0:0:0:
111,99,73436,1,0,0:0:0:0:
409,225,73513,1,8,0:0:0:0:
241,216,73590,2,0,L|177:220,1,64,0|0,0:0|0:0,0:0:0:0:
8,253,73744,1,0,0:0:0:0:
261,350,73821,6,0,L|262:284,1,64,4|0,0:0|0:0,0:0:0:0:
456,214,73974,2,0,L|380:216,1,64,0|0,0:0|0:0,0:0:0:0:
189,146,74128,2,0,L|259:146,1,64,8|0,0:0|0:0,0:0:0:0:
66,295,74282,2,0,L|63:221,1,64,0|0,0:0|0:0,0:0:0:0:
249,191,74436,6,0,L|167:191,1,64,2|0,0:0|0:0,0:0:0:0:
381,137,74590,1,4,0:0:0:0:
189,102,74667,1,0,0:0:0:0:
448,92,74744,1,8,0:0:0:0:
256,57,74821,1,0,0:0:0:0:
64,92,74897,1,8,0:0:0:0:
256,57,74974,1,0,0:0:0:0:
503,230,75051,6,0,L|329:231,1,128,4|0,0:2|0:0,0:0:0:0:
193,229,75282,1,0,0:0:0:0:
9,230,75359,2,0,L|183:231,1,128,8|0,0:0|0:0,0:0:0:0:
319,229,75590,1,0,0:0:0:0:
84,142,75667,6,0,L|2:142,2,64,2|0|4,0:0|0:0|0:0,0:0:0:0:
287,135,75897,1,0,0:0:0:0:
492,142,75974,2,0,L|428:142,2,64,8|0|8,0:0|0:0|0:0,0:0:0:0:
287,135,76205,1,0,0:0:0:0:
16,320,76282,5,4,0:2:0:0:
176,304,76359,1,0,0:0:0:0:
336,304,76436,1,0,0:0:0:0:
496,304,76513,1,0,0:0:0:0:
256,224,76590,1,8,0:0:0:0:
195,195,76667,1,0,3:0:0:0:
177,195,76686,1,0,0:0:0:0:
314,119,76744,1,0,3:0:0:0:
332,118,76763,1,0,0:0:0:0:
117,65,76821,1,0,0:0:0:0:
97,63,76840,1,0,0:0:0:0:
310,254,76898,5,2,0:2:0:0:
407,183,76936,1,0,0:0:0:0:
505,258,76975,1,0,0:0:0:0:
314,119,77051,1,2,0:2:0:0:
302,118,77071,1,0,0:0:0:0:
165,92,77128,1,2,0:2:0:0:
151,90,77148,1,0,0:0:0:0:
331,102,77205,1,2,0:2:0:0:
341,95,77225,1,0,0:0:0:0:
480,75,77282,1,2,0:2:0:0:
490,68,77302,1,0,0:0:0:0:
331,102,77359,1,2,0:2:0:0:
341,95,77379,1,0,0:0:0:0:
480,75,77436,1,2,0:2:0:0:
490,68,77456,1,0,0:0:0:0:
283,223,77513,5,4,0:2:0:0:
89,181,77590,1,0,0:0:0:0:
279,137,77667,1,0,0:0:0:0:
473,95,77744,1,0,0:0:0:0:
262,54,77821,2,0,L|176:57,1,64,8|0,0:0|0:0,0:0:0:0:
411,206,77975,2,0,L|325:209,1,64,8|0,0:0|0:0,0:0:0:0:
157,321,78128,5,2,0:0:0:0:
310,291,78205,1,0,0:0:0:0:
151,243,78282,2,0,L|145:145,1,64
328,92,78436,1,8,0:0:0:0:
170,56,78513,1,0,0:0:0:0:
331,142,78590,1,0,0:0:0:0:
480,116,78667,1,0,0:0:0:0:
322,255,78744,5,4,0:0:0:0:
262,248,78821,1,0,0:0:0:0:
414,195,78898,1,0,0:0:0:0:
262,147,78975,1,0,0:0:0:0:
120,219,79051,1,8,0:0:0:0:
262,203,79128,1,0,0:0:0:0:
103,150,79205,2,0,L|100:66,1,64
289,80,79359,5,2,0:0:0:0:
442,105,79436,1,0,0:0:0:0:
289,143,79513,2,0,L|284:68,1,64,4|0,0:0|0:0,0:0:0:0:
109,60,79667,1,8,0:0:0:0:
221,33,79705,1,0,0:0:0:0:
333,60,79744,1,0,0:0:0:0:
221,33,79782,1,0,0:0:0:0:
109,60,79821,1,8,0:0:0:0:
221,33,79859,1,0,0:0:0:0:
333,60,79898,1,0,0:0:0:0:
221,33,79936,1,0,0:0:0:0:
13,157,79975,5,4,0:2:0:0:
256,96,80128,1,0,0:0:0:0:
496,192,80282,1,8,0:0:0:0:
325,160,80359,1,0,0:0:0:0:
496,192,80436,1,0,0:0:0:0:
325,160,80513,1,0,0:0:0:0:
499,157,80590,5,2,0:0:0:0:
256,96,80743,1,4,0:0:0:0:
16,208,80898,1,8,0:0:0:0:
176,208,80975,1,0,0:0:0:0:
336,208,81051,1,0,0:0:0:0:
496,208,81128,1,0,0:0:0:0:
182,303,81205,6,0,L|80:301,1,96,4|0,0:2|0:0,0:0:0:0:
219,238,81359,2,0,L|268:238,1,32,0|0,0:0|0:0,0:0:0:0:
265,209,81436,2,0,L|241:258,1,32,0|0,0:0|0:0,0:0:0:0:
150,118,81513,2,0,L|135:89,1,32,4|0,0:2|0:0,0:0:0:0:
150,118,81590,2,0,L|182:118,1,32,0|0,0:0|0:0,0:0:0:0:
313,162,81667,2,0,L|362:162,1,32,0|0,0:0|0:0,0:0:0:0:
359,133,81744,2,0,L|335:182,1,32,0|0,0:0|0:0,0:0:0:0:
202,181,81821,6,0,L|111:179,1,64,4|0,0:2|0:0,0:0:0:0:
310,181,81975,2,0,L|401:179,1,64,0|0,0:0|0:0,0:0:0:0:
16,208,82128,1,8,0:0:0:0:
176,208,82205,1,0,0:0:0:0:
336,208,82281,1,0,0:0:0:0:
496,208,82358,1,0,0:0:0:0:
173,304,82436,6,0,L|17:298,2,128,2|0|0,0:1|0:0|0:0,0:0:0:0:
202,151,82898,2,0,L|436:157,1,192,2|0,0:0|0:0,0:0:0:0:
328,92,83205,2,0,L|340:14,1,64,0|0,0:0|0:0,0:0:0:0:
260,20,83359,2,0,L|333:19,1,64,0|0,0:0|0:0,0:0:0:0:
166,77,83513,6,0,L|444:82,1,256,2|0,0:0|0:0,0:0:0:0:
384,123,83898,1,0,0:0:0:0:
439,145,83975,1,0,0:0:0:0:
360,184,84051,1,0,0:0:0:0:
504,241,84128,6,0,L|239:241,1,256,2|0,0:0|0:0,0:0:0:0:
287,204,84487,1,0,0:0:0:0:
229,184,84539,1,0,0:0:0:0:
375,123,84590,2,0,L|519:124,1,128,0|0,0:0|0:0,0:0:0:0:
241,70,84898,6,0,L|77:75,2,128,2|0|0,0:0|0:0|0:0,0:0:0:0:
0,205,85359,2,0,L|297:196,1,256,2|0,0:0|0:0,0:0:0:0:
0,205,85821,2,0,L|407:189,1,384,2|0,0:0|0:0,0:0:0:0:
130,86,86436,2,0,L|287:83,1,128,2|0,0:0|0:0,0:0:0:0:
1,44,86744,1,2,0:0:0:0:
266,214,86898,2,0,L|211:214,2,42.6666666666667,2|0|0,0:0|0:0|0:0,0:0:0:0:
94,308,87051,2,0,L|94:160,1,128,0|0,0:0|0:0,0:0:0:0:
391,153,87359,5,4,0:1:0:0:
177,102,87513,1,0,0:0:0:0:
443,52,87667,1,4,0:1:0:0:
56,52,87821,2,0,L|206:45,1,128,8|0,0:1|0:0,0:0:0:0:
440,109,88128,1,4,0:1:0:0:
172,239,88282,2,0,L|6:245,2,128,4|8|0,0:1|0:1|0:0,0:0:0:0:
198,128,88744,5,4,0:1:0:0:
384,97,88821,1,0,0:0:0:0:
191,37,88898,2,0,L|113:40,1,64,0|0,0:0|0:0,0:0:0:0:
309,177,89051,1,8,0:1:0:0:
57,238,89205,1,0,0:0:0:0:
180,274,89359,1,4,0:1:0:0:
136,287,89410,1,0,0:0:0:0:
23,334,89462,1,0,0:0:0:0:
190,348,89513,2,0,L|317:349,1,128,4|8,0:1|0:1,0:0:0:0:
11,164,89821,5,4,0:1:0:0:
256,80,89975,1,0,0:0:0:0:
501,164,90128,1,4,0:1:0:0:
231,288,90282,2,0,L|520:285,1,256,8|4,0:1|0:1,0:0:0:0:
208,224,90744,2,0,P|122:167|181:134,1,192,8|0,0:1|0:0,0:0:0:0:
457,79,91051,5,4,0:0:0:0:
55,79,91205,1,0,0:0:0:0:
408,155,91359,2,0,L|326:157,1,64,2|0,0:0|0:0,0:0:0:0:
167,156,91513,1,0,0:0:0:0:
344,156,91590,1,0,0:0:0:0:
69,249,91667,5,2,0:0:0:0:
256,208,91744,1,0,0:0:0:0:
443,249,91821,1,0,0:0:0:0:
256,208,91898,1,0,0:0:0:0:
65,154,91975,2,0,L|143:152,1,64,2|0,0:0|0:0,0:0:0:0:
320,110,92128,2,0,L|242:108,1,64,0|0,0:0|0:0,0:0:0:0:
460,327,92282,6,0,L|463:204,1,112,4|0,0:1|0:0,0:0:0:0:
278,186,92436,1,0,0:0:0:0:
52,327,92590,2,0,L|49:204,1,112,4|0,0:1|0:0,0:0:0:0:
234,186,92744,1,0,0:0:0:0:
501,284,92898,6,0,L|504:161,1,112,4|0,0:1|0:0,0:0:0:0:
319,143,93052,1,0,0:0:0:0:
11,284,93205,2,0,L|8:161,1,112,4|0,0:1|0:0,0:0:0:0:
193,143,93359,1,0,0:0:0:0:
506,107,93513,5,4,0:1:0:0:
256,64,93667,1,0,0:0:0:0:
197,64,93744,1,0,0:0:0:0:
364,72,93821,1,4,0:1:0:0:
418,74,93898,1,0,0:0:0:0:
256,64,93975,1,0,0:0:0:0:
102,73,94051,1,0,0:0:0:0:
330,135,94128,6,0,P|373:174|302:193,1,128
217,306,94333,1,0,0:0:0:0:
328,290,94385,1,0,0:0:0:0:
437,278,94436,1,4,0:1:0:0:
243,171,94513,2,0,L|240:93,1,64
421,86,94667,1,0,0:0:0:0:
190,273,94744,6,0,L|362:268,1,128,4|0,0:1|0:0,0:0:0:0:
139,163,94975,1,0,0:0:0:0:
353,129,95051,2,0,L|181:124,1,128,4|0,0:1|0:0,0:0:0:0:
404,19,95282,1,0,0:0:0:0:
34,49,95359,6,0,L|188:54,1,128,4|0,0:1|0:0,0:0:0:0:
350,53,95590,2,0,L|478:49,1,128,2|0,0:0|0:0,0:0:0:0:
256,144,95821,1,2,0:0:0:0:
503,258,95975,6,0,L|506:148,1,96,4|0,0:1|0:0,0:0:0:0:
251,213,96128,2,0,L|248:103,1,96,4|0,0:1|0:0,0:0:0:0:
504,84,96282,1,4,0:1:0:0:
235,50,96436,2,0,L|140:47,1,64,0|0,0:0|0:0,0:0:0:0:
339,130,96590,5,4,0:1:0:0:
171,125,96667,1,2,0:0:0:0:
3,119,96744,2,0,L|76:119,1,64,0|0,0:0|0:0,0:0:0:0:
281,226,96898,2,0,L|316:224,1,32,2|0,0:0|0:0,0:0:0:0:
188,166,96975,2,0,L|144:166,1,32,0|0,0:0|0:0,0:0:0:0:
322,132,97051,2,0,L|357:130,1,32,0|0,0:0|0:0,0:0:0:0:
229,72,97128,2,0,L|185:72,1,32,0|0,0:0|0:0,0:0:0:0:
384,250,97205,6,0,L|521:246,1,128,4|4,0:1|0:1,0:0:0:0:
132,181,97513,1,8,0:1:0:0:
408,125,97667,1,0,0:0:0:0:
256,64,97744,1,0,0:0:0:0:
104,125,97821,6,0,L|258:123,1,128,4|0,0:1|0:0,0:0:0:0:
402,180,98051,1,4,0:1:0:0:
231,247,98128,2,0,L|315:247,1,64,0|0,0:0|0:0,0:0:0:0:
464,298,98282,2,0,L|373:296,1,64,8|0,0:1|0:0,0:0:0:0:
6,239,98436,5,4,0:1:0:0:
290,160,98590,2,0,L|206:158,1,64,0|0,0:0|0:0,0:0:0:0:
506,239,98744,1,8,0:1:0:0:
217,104,98898,2,0,L|146:105,1,64,0|0,0:0|0:0,0:0:0:0:
350,56,99051,5,4,0:1:0:0:
155,25,99128,2,0,L|64:25,2,64,2|0|0,0:0|0:0|0:0,0:0:0:0:
419,145,99359,1,2,0:0:0:0:
256,176,99436,1,0,0:0:0:0:
93,145,99513,1,0,0:0:0:0:
256,176,99590,1,0,0:0:0:0:
488,253,99667,5,4,0:1:0:0:
256,192,99821,1,4,0:1:0:0:
24,253,99975,1,8,0:1:0:0:
297,108,100128,2,0,L|207:109,1,64,0|0,0:0|0:0,0:0:0:0:
495,297,100282,2,0,L|346:297,1,128,2|0,0:0|0:0,0:0:0:0:
145,297,100513,1,2,0:0:0:0:
113,297,100551,1,0,0:0:0:0:
81,297,100589,1,0,0:0:0:0:
49,297,100628,1,0,0:0:0:0:
17,297,100666,1,0,0:0:0:0:
81,297,100744,1,2,0:0:0:0:
113,297,100782,1,0,0:0:0:0:
145,297,100820,1,0,0:0:0:0:
81,297,100898,5,2,0:0:0:0:
113,297,100936,1,0,0:0:0:0:
145,297,100974,1,0,0:0:0:0:
81,297,101051,1,2,0:0:0:0:
113,297,101089,1,0,0:0:0:0:
145,297,101127,1,0,0:0:0:0:
81,297,101205,1,2,0:0:0:0:
113,297,101243,1,0,0:0:0:0:
145,297,101281,1,0,0:0:0:0:
8,215,101359,1,2,0:0:0:0:
113,297,101398,1,0,0:0:0:0:
216,211,101436,1,0,0:0:0:0:
385,129,101513,5,8,0:1:0:0:
448,128,101589,1,0,0:0:0:0:
512,127,101667,1,0,0:0:0:0:
0,127,101744,1,0,0:0:0:0:
0,127,101821,1,8,0:1:0:0:
512,127,101898,1,0,0:0:0:0:
512,127,101975,1,8,0:1:0:0:
256,96,102051,1,0,0:0:0:0:
16,220,102128,6,0,L|143:226,2,85.3333333333333,8|0|0,0:0|0:0|0:0,0:0:0:0:
257,152,102436,1,4,0:0:0:0:
439,104,102539,2,0,L|336:105,1,85.3333333333333,0|0,0:0|0:0,0:0:0:0:
95,251,102744,6,0,L|90:201,1,42.6666666666667,2|0,0:1|2:0,0:0:0:0:
234,251,102847,2,0,L|238:208,1,42.6666666666667,0|0,0:0|2:0,0:0:0:0:
380,160,102949,2,0,L|385:110,1,42.6666666666667,0|0,0:0|2:0,0:0:0:0:
223,186,103051,2,0,L|218:143,1,42.6666666666667,2|0,0:1|2:0,0:0:0:0:
152,153,103154,2,0,L|147:103,1,42.6666666666667,0|0,0:0|2:0,0:0:0:0:
80,117,103256,2,0,L|75:67,1,42.6666666666667,0|0,0:0|2:0,0:0:0:0:
258,79,103359,6,0,L|352:78,2,85.3333333333333,2|0|0,0:1|0:0|0:0,0:0:0:0:
418,151,103667,1,2,0:1:0:0:
186,149,103769,1,0,0:0:0:0:
418,151,103872,1,0,0:0:0:0:
258,79,103975,6,0,L|352:78,2,85.3333333333333,2|0|0,0:1|0:0|0:0,0:0:0:0:
422,245,104282,2,0,L|328:244,2,85.3333333333333,2|0|0,0:1|0:0|0:0,0:0:0:0:
161,276,104590,6,0,L|54:275,2,85.3333333333333,2|0|0,0:1|0:0|0:0,0:0:0:0:
351,276,104898,2,0,L|458:275,2,85.3333333333333,2|0|0,0:1|0:0|0:0,0:0:0:0:
137,195,105205,6,0,L|242:192,2,85.3333333333333,2|0|0,0:1|0:0|0:0,0:0:0:0:
375,195,105513,2,0,L|270:192,2,85.3333333333333,2|0|0,0:1|0:0|0:0,0:0:0:0:
76,137,105821,5,2,0:1:0:0:
288,93,105975,2,0,L|291:38,1,42.6666666666667,0|0,0:0|0:0,0:0:0:0:
151,32,106077,1,0,0:0:0:0:
288,150,106128,1,2,0:1:0:0:
424,110,106282,2,0,L|427:55,1,42.6666666666667,0|0,0:0|0:0,0:0:0:0:
305,48,106384,1,0,0:0:0:0:
439,204,106436,6,0,P|483:235|418:317,1,170.666666666667,0|0,0:1|0:0,0:0:0:0:
183,338,106744,1,8,0:1:0:0:
345,289,106846,1,0,0:0:0:0:
508,337,106949,1,0,0:0:0:0:
213,200,107051,6,0,L|24:201,1,170.666666666667,8|0,0:0|0:0,0:0:0:0:
246,109,107359,2,0,L|350:111,2,85.3333333333333,2|0|0,0:1|0:0|0:0,0:0:0:0:
45,81,107667,6,0,L|149:83,2,85.3333333333333,2|0|0,0:1|0:0|0:0,0:0:0:0:
141,152,107975,2,0,L|245:154,2,85.3333333333333,2|0|0,0:1|0:0|0:0,0:0:0:0:
333,279,108282,5,2,0:1:0:0:
148,233,108385,2,0,L|249:237,1,85.3333333333333,0|0,0:0|0:0,0:0:0:0:
47,133,108590,2,0,L|142:132,1,85.3333333333333,2|0,0:1|0:0,0:0:0:0:
331,147,108795,1,0,0:0:0:0:
80,275,108898,5,2,0:1:0:0:
302,233,109000,1,2,0:2:0:0:
419,204,109026,1,0,2:0:0:0:
231,166,109103,1,2,0:2:0:0:
114,137,109129,1,0,2:0:0:0:
70,202,109205,5,0,0:0:0:0:
292,160,109307,1,2,0:2:0:0:
409,131,109333,1,0,2:0:0:0:
221,93,109410,1,2,0:2:0:0:
104,64,109436,1,0,2:0:0:0:
342,56,109513,5,2,0:1:0:0:
389,111,109616,1,2,0:2:0:0:
360,117,109641,1,0,2:0:0:0:
279,147,109667,1,0,2:0:0:0:
251,171,109692,1,0,2:0:0:0:
242,194,109718,1,0,2:0:0:0:
254,228,109744,1,0,2:0:0:0:
280,239,109769,1,0,2:0:0:0:
429,146,109821,5,0,0:0:0:0:
472,201,109924,1,2,0:2:0:0:
447,207,109949,1,0,2:0:0:0:
361,248,109975,1,0,2:0:0:0:
340,266,110000,1,0,2:0:0:0:
333,284,110026,1,0,2:0:0:0:
341,309,110052,1,0,2:0:0:0:
361,318,110077,1,0,2:0:0:0:
465,150,110128,5,0,0:0:0:0:
500,205,110231,1,2,0:2:0:0:
483,211,110256,1,0,2:0:0:0:
394,259,110282,1,0,2:0:0:0:
377,274,110307,1,0,2:0:0:0:
372,288,110333,1,0,2:0:0:0:
379,309,110359,1,0,2:0:0:0:
395,315,110384,1,0,2:0:0:0:
504,295,110436,6,0,L|382:295,2,85.3333333333333,0|0|0,0:0|0:0|0:0,0:0:0:0:
248,214,110744,5,4,0:1:0:0:
164,167,110846,2,0,L|156:104,1,42.6666666666667
280,126,110949,2,0,L|287:72,1,42.6666666666667
71,95,111051,2,0,L|63:34,1,42.6666666666667
257,20,111154,2,0,L|375:19,1,85.3333333333333,8|8,0:1|0:1,0:0:0:0:
142,205,111359,6,0,L|59:203,1,64,8|0,0:1|2:0,0:0:0:0:
236,157,111462,2,0,L|319:155,1,64,8|0,0:1|2:0,0:0:0:0:
142,205,111564,2,0,L|59:203,1,64,8|0,0:1|2:0,0:0:0:0:
237,217,111667,2,0,L|236:334,1,85.3333333333333,2|0,0:1|0:0,0:0:0:0:
120,308,111821,1,0,0:0:0:0:
236,302,111872,1,0,0:0:0:0:
353,309,111923,1,0,0:0:0:0:
177,237,111975,6,0,L|145:239,1,21.3333333333333
147,218,112026,2,0,L|157:243,1,21.3333333333333
291,238,112077,2,0,L|323:240,1,21.3333333333333
321,219,112128,2,0,L|311:244,1,21.3333333333333
177,237,112180,2,0,L|145:239,1,21.3333333333333
147,218,112231,2,0,L|157:243,1,21.3333333333333
501,209,112282,5,0,0:0:0:0:
501,209,112385,1,0,0:0:0:0:
501,209,112487,1,0,0:0:0:0:
74,133,112590,6,0,L|350:137,1,236.79999909668,8|0,0:1|0:0,0:0:0:0:
201,136,112795,2,0,L|438:133,1,236.79999909668,8|0,0:1|0:0,0:0:0:0:
278,66,113000,1,8,0:1:0:0:
238,68,113103,1,8,0:1:0:0:
438,133,113205,6,0,L|162:137,1,236.79999909668,8|0,0:1|0:0,0:0:0:0:
311,136,113410,2,0,L|74:133,1,236.79999909668,8|0,0:1|0:0,0:0:0:0:
272,142,113615,1,8,0:1:0:0:
462,106,113718,1,8,0:1:0:0:
256,240,113821,5,8,0:1:0:0:
241,223,113859,1,0,0:0:0:0:
271,257,113898,1,0,0:0:0:0:
256,240,113936,1,0,0:0:0:0:
129,214,113975,2,0,L|135:180,1,32
240,164,114051,2,0,L|288:164,1,32
388,201,114128,6,0,L|375:155,1,32
353,143,114205,2,0,L|306:143,1,32
285,143,114282,2,0,L|253:143,1,32
227,116,114359,2,0,L|218:85,1,32
7,326,114436,6,0,L|7:224,1,85.3333333333333,8|0,0:0|0:0,0:0:0:0:
257,192,114641,1,0,0:0:0:0:
505,206,114744,1,0,0:0:0:0:
257,138,114846,2,0,L|224:138,1,21.3333333333333,8|0,0:1|2:0,0:0:0:0:
6,129,114949,2,0,L|32:129,1,21.3333333333333,8|0,0:1|2:0,0:0:0:0:
505,206,115051,5,0,0:0:0:0:
257,138,115154,2,0,L|224:138,1,21.3333333333333,8|0,0:1|2:0,0:0:0:0:
6,129,115256,2,0,L|32:129,1,21.3333333333333,8|0,0:1|2:0,0:0:0:0:
505,206,115359,1,0,0:0:0:0:
257,138,115461,2,0,L|224:138,1,21.3333333333333,8|0,0:1|2:0,0:0:0:0:
163,96,115564,2,0,L|189:96,1,21.3333333333333,8|0,0:1|2:0,0:0:0:0:
505,326,115667,6,0,L|509:302,4,21.3333333333333,0|0|0|0|0,0:0|2:0|2:0|2:0|0:0,0:0:0:0:
255,192,115872,1,0,0:0:0:0:
7,206,115975,1,0,0:0:0:0:
255,138,116077,2,0,L|288:138,1,21.3333333333333,8|0,0:1|2:0,0:0:0:0:
506,129,116180,2,0,L|480:129,1,21.3333333333333,8|0,0:1|2:0,0:0:0:0:
7,206,116282,5,0,0:0:0:0:
255,138,116384,2,0,L|288:138,1,21.3333333333333,8|0,0:1|2:0,0:0:0:0:
506,129,116487,2,0,L|480:129,1,21.3333333333333,8|0,0:1|2:0,0:0:0:0:
7,206,116590,1,0,0:0:0:0:
255,138,116692,2,0,L|288:138,1,21.3333333333333,8|0,0:1|2:0,0:0:0:0:
113,91,116795,2,0,L|87:91,1,21.3333333333333,8|0,0:1|2:0,0:0:0:0:
198,44,116846,2,0,L|224:44,1,21.3333333333333,0|0,0:0|2:0,0:0:0:0:
7,44,116898,6,0,L|2:168,1,85.3333333333333,2|0,0:1|0:0,0:0:0:0:
259,194,117114,1,0,0:0:0:0:
5,285,117222,1,0,0:0:0:0:
255,138,117330,2,0,L|288:138,1,21.3333333333333,8|0,0:1|2:0,0:0:0:0:
506,129,117438,2,0,L|480:129,1,21.3333333333333,8|0,0:1|2:0,0:0:0:0:
5,285,117546,5,0,0:0:0:0:
255,138,117654,2,0,L|288:138,1,21.3333333333333,8|0,0:1|2:0,0:0:0:0:
506,129,117762,2,0,L|480:129,1,21.3333333333333,8|0,0:1|2:0,0:0:0:0:
5,285,117870,1,0,0:0:0:0:
255,138,117978,2,0,L|288:138,1,21.3333333333333,8|0,0:1|2:0,0:0:0:0:
208,71,118086,2,0,L|182:71,1,21.3333333333333,8|0,0:1|2:0,0:0:0:0:
507,285,118195,5,0,0:0:0:0:
257,138,118309,2,0,L|224:138,1,21.3333333333333,8|0,0:1|2:0,0:0:0:0:
27,129,118423,2,0,L|6:129,1,21.3333333333333,8|0,0:1|2:0,0:0:0:0:
394,250,118537,1,0,0:0:0:0:
144,103,118651,2,0,L|111:103,1,21.3333333333333,8|0,0:1|2:0,0:0:0:0:
368,103,118766,2,0,L|401:103,1,21.3333333333333,8|0,0:1|2:0,0:0:0:0:
172,241,118880,5,0,0:0:0:0:
257,191,118995,2,0,L|257:158,1,21.3333333333333,8|0,0:1|2:0,0:0:0:0:
347,239,119109,2,0,L|347:206,1,21.3333333333333,8|0,0:1|2:0,0:0:0:0:
81,151,119223,1,0,0:0:0:0:
166,101,119338,2,0,L|166:68,1,21.3333333333333,8|0,0:1|2:0,0:0:0:0:
256,149,119452,2,0,L|256:116,1,21.3333333333333,8|0,0:1|2:0,0:0:0:0:
497,143,119566,5,0,0:0:0:0:
412,93,119687,2,0,L|412:60,1,21.3333333333333,8|0,0:1|2:0,0:0:0:0:
322,141,119808,2,0,L|322:108,1,21.3333333333333,8|0,0:1|2:0,0:0:0:0:
405,184,119929,1,0,0:0:0:0:
402,160,119959,1,0,2:0:0:0:
293,135,119990,1,0,0:0:0:0:
290,111,120020,1,0,2:0:0:0:
293,135,120050,1,0,0:0:0:0:
379,154,120172,1,0,0:0:0:0:
22,176,120293,5,8,0:1:0:0:
124,188,120419,1,0,0:0:0:0:
258,189,120482,2,0,L|261:227,1,21.3333333333333
122,267,120576,2,0,L|122:300,1,21.3333333333333
297,240,120671,2,0,L|313:240,1,16,8|0,0:1|2:0,0:0:0:0:
155,175,120766,2,0,L|139:175,1,16,0|0,0:0|2:0,0:0:0:0:
328,157,120860,2,0,L|344:157,1,16,8|0,0:1|2:0,0:0:0:0:
193,92,120955,2,0,L|177:92,1,16,8|0,0:1|2:0,0:0:0:0:
496,33,121050,6,0,B|481:292|481:292|459:32|459:32|434:294,1,768,8|8,0:1|0:1,0:0:0:0:
77,278,122308,1,0,0:0:0:0:
435,278,122404,1,8,0:1:0:0:
77,278,122501,1,0,0:0:0:0:
262,279,122598,6,0,L|272:86,1,160,4|0,0:0|0:0,0:0:0:0:
435,179,122985,2,0,L|425:-14,1,160,8|0,0:0|0:0,0:0:0:0:
329,15,123275,1,0,0:0:0:0:
153,175,123372,2,0,L|276:172,3,80,0|0|0|0,0:0|0:0|0:0|0:0,0:0:0:0:
24,223,123759,5,8,0:0:0:0:
230,99,123856,1,2,0:1:0:0:
332,87,123880,1,0,0:0:0:0:
410,89,123952,1,2,0:1:0:0:
512,77,123976,1,0,0:0:0:0:
366,222,124146,6,0,L|174:222,1,160,4|0,0:0|0:0,0:0:0:0:
226,157,124436,1,0,0:0:0:0:
208,97,124533,1,8,0:0:0:0:
383,130,124630,1,0,0:0:0:0:
366,71,124727,1,0,0:0:0:0:
388,14,124823,1,0,0:0:0:0:
207,16,124920,6,0,L|104:18,1,80,0|0,0:0|0:0,0:0:0:0:
220,76,125114,2,0,L|363:75,1,80,0|0,0:0|0:0,0:0:0:0:
79,151,125307,1,8,0:0:0:0:
39,151,125355,1,0,0:0:0:0:
0,152,125403,1,0,0:0:0:0:
258,143,125501,1,2,0:0:0:0:
297,143,125549,1,0,0:0:0:0:
337,144,125597,1,0,0:0:0:0:
0,276,125694,6,0,L|14:97,1,160,4|0,0:1|0:0,0:0:0:0:
184,174,126081,2,0,L|170:-5,1,160,8|0,0:0|0:0,0:0:0:0:
79,20,126372,1,0,0:0:0:0:
279,74,126468,2,0,L|371:73,3,80,0|0|0|0,0:0|0:0|0:0|0:0,0:0:0:0:
129,157,126856,5,8,0:0:0:0:
353,262,126952,1,2,0:0:0:0:
465,217,127001,2,0,L|481:169,2,40,0|0|0,0:0|0:0|0:0,0:0:0:0:
353,262,127146,1,0,0:0:0:0:
268,175,127243,6,0,L|465:177,1,160,2|0,0:1|0:0,0:0:0:0:
355,138,127533,1,0,0:0:0:0:
181,94,127630,2,0,L|74:95,1,80,8|0,0:0|0:0,0:0:0:0:
194,154,127823,2,0,L|299:159,1,80,0|0,0:0|0:0,0:0:0:0:
91,229,128017,5,0,0:0:0:0:
274,292,128114,2,0,L|372:295,1,80,0|0,0:0|0:0,0:0:0:0:
178,232,128307,1,0,0:0:0:0:
355,165,128404,2,0,L|445:168,1,80,8|0,0:0|0:0,0:0:0:0:
157,165,128598,2,0,L|67:168,1,80,0|0,0:0|0:0,0:0:0:0:
500,254,128791,6,0,L|501:62,1,160,4|0,0:0|0:0,0:0:0:0:
256,64,129081,1,0,0:0:0:0:
12,254,129178,2,0,L|194:261,1,160,8|0,0:0|0:0,0:0:0:0:
365,176,129468,1,0,0:0:0:0:
147,176,129565,5,2,0:0:0:0:
340,260,129662,2,0,L|500:254,1,160,4|0,0:0|0:0,0:0:0:0:
257,306,129952,2,0,L|256:197,1,80,8|0,0:0|0:0,0:0:0:0:
11,221,130146,2,0,L|103:220,1,80,0|0,0:0|0:0,0:0:0:0:
495,170,130339,6,0,L|377:170,1,80,4|0,0:0|0:0,0:0:0:0:
218,141,130533,2,0,L|314:142,1,80,0|0,0:0|0:0,0:0:0:0:
91,227,130727,2,0,B|12:230|12:230|99:232,1,160,8|0,0:0|0:0,0:0:0:0:
309,237,131017,1,0,0:0:0:0:
110,137,131114,5,2,0:0:0:0:
328,134,131210,2,0,L|382:135,1,40,0|0,0:0|0:0,0:0:0:0:
328,134,131307,2,0,L|276:136,2,40,4|0|0,0:0|0:0|0:0,0:0:0:0:
511,223,131501,2,0,L|402:221,1,80,8|0,0:0|0:0,0:0:0:0:
256,192,131694,1,0,0:0:0:0:
81,187,131791,1,0,0:0:0:0:
343,318,131888,6,0,L|543:319,1,160,4|0,0:0|0:0,0:0:0:0:
336,307,132178,1,0,0:0:0:0:
169,318,132275,2,0,L|-31:319,1,160,8|0,0:0|0:0,0:0:0:0:
176,307,132565,1,0,0:0:0:0:
390,231,132662,6,0,L|273:229,1,80,2|0,0:0|0:0,0:0:0:0:
122,231,132856,2,0,L|239:229,1,80,0|0,0:0|0:0,0:0:0:0:
450,161,133049,1,8,0:0:0:0:
256,96,133146,1,0,0:0:0:0:
62,161,133243,1,0,0:0:0:0:
256,96,133340,1,0,0:0:0:0:
9,327,133436,6,0,L|5:146,1,160,4|0,0:0|0:0,0:0:0:0:
197,132,133727,1,0,0:0:0:0:
385,80,133823,2,0,L|297:71,1,80,2|0,0:0|0:0,0:0:0:0:
495,182,134017,1,2,0:0:0:0:
303,216,134114,1,0,0:0:0:0:
106,301,134210,5,2,0:0:0:0:
52,297,134235,1,0,2:0:0:0:
119,237,134307,2,0,L|120:140,1,80,4|0,0:0|0:0,0:0:0:0:
336,126,134501,1,4,0:0:0:0:
114,54,134598,2,0,L|318:50,1,160,8|0,0:0|0:0,0:0:0:0:
1,181,134985,5,4,0:0:0:0:
234,174,135081,1,0,0:0:0:0:
277,174,135106,1,0,2:0:0:0:
234,174,135130,1,0,2:0:0:0:
277,174,135155,1,0,2:0:0:0:
234,174,135178,1,0,2:0:0:0:
277,174,135203,1,0,2:0:0:0:
234,174,135227,1,0,2:0:0:0:
277,174,135252,1,0,2:0:0:0:
234,174,135275,1,0,2:0:0:0:
13,273,135372,6,0,L|196:278,1,160,8|0,0:0|0:0,0:0:0:0:
196,281,135589,1,0,0:0:0:0:
126,235,135662,1,0,0:0:0:0:
102,233,135686,1,0,0:0:0:0:
441,87,135759,1,4,0:0:0:0:
256,80,135856,6,0,L|153:83,2,80,0|0|0,0:0|0:0|0:0,0:0:0:0:
445,144,136146,1,8,0:0:0:0:
66,143,136339,1,0,0:0:0:0:
56,100,136364,1,0,2:0:0:0:
66,143,136388,1,0,2:0:0:0:
56,100,136413,1,0,2:0:0:0:
66,143,136436,1,0,2:0:0:0:
56,100,136461,1,0,2:0:0:0:
66,143,136485,1,0,2:0:0:0:
258,216,136533,5,4,0:0:0:0:
421,180,136727,2,0,L|421:158,1,20,0|0,0:0|2:0,0:0:0:0:
320,146,136775,2,0,L|320:124,1,20,0|0,2:0|2:0,0:0:0:0:
421,180,136823,2,0,L|421:158,1,20,0|0,2:0|2:0,0:0:0:0:
431,57,136920,2,0,L|256:55,1,160,8|0,0:0|0:0,0:0:0:0:
351,53,137210,1,0,0:0:0:0:
134,103,137307,5,2,0:0:0:0:
332,183,137404,1,0,0:0:0:0:
213,211,137452,1,0,0:0:0:0:
91,243,137501,2,0,L|87:332,1,80,4|0,0:0|0:0,0:0:0:0:
299,338,137694,1,8,0:0:0:0:
28,108,137888,1,0,0:0:0:0:
147,136,137936,1,0,2:0:0:0:
269,168,137985,1,0,2:0:0:0:
65,225,138081,5,4,0:0:0:0:
325,240,138275,2,0,L|359:238,1,26.6666666666667,0|0,0:0|2:0,0:0:0:0:
204,184,138339,2,0,L|163:184,1,26.6666666666667,0|0,2:0|2:0,0:0:0:0:
325,240,138404,2,0,L|359:238,1,26.6666666666667,0|0,2:0|2:0,0:0:0:0:
166,69,138468,2,0,L|-24:66,1,160,8|0,0:0|0:0,0:0:0:0:
85,66,138759,1,0,0:0:0:0:
256,146,138856,5,2,0:0:0:0:
177,146,138952,2,0,L|336:148,1,160,4|0,0:0|0:0,0:0:0:0:
125,238,139243,2,0,L|66:238,2,40,8|0|0,0:0|0:0|0:0,0:0:0:0:
365,178,139436,1,8,0:0:0:0:
375,135,139461,1,0,2:0:0:0:
365,178,139485,1,0,2:0:0:0:
375,135,139510,1,0,2:0:0:0:
365,178,139533,1,0,2:0:0:0:
375,135,139558,1,0,2:0:0:0:
365,178,139582,1,0,2:0:0:0:
213,281,139630,5,4,0:0:0:0:
96,242,139678,1,0,0:0:0:0:
209,274,139727,1,0,0:0:0:0:
380,248,139823,1,4,0:0:0:0:
497,209,139871,1,0,0:0:0:0:
384,241,139920,1,0,0:0:0:0:
206,165,140017,2,0,L|296:161,1,80,8|0,0:0|0:0,0:0:0:0:
93,90,140210,2,0,L|206:84,1,80,0|0,0:0|0:0,0:0:0:0:
406,87,140404,6,0,L|444:86,1,20,4|0,0:0|2:0,0:0:0:0:
256,112,140501,1,8,0:0:0:0:
145,129,140525,1,0,2:0:0:0:
164,129,140694,2,0,L|126:128,1,20,4|0,0:0|2:0,0:0:0:0:
369,166,140791,2,0,L|407:165,1,20,4|0,0:0|2:0,0:0:0:0:
125,205,140888,2,0,L|87:204,1,20,0|0,0:0|2:0,0:0:0:0:
401,246,140985,2,0,L|439:245,1,20,8|0,0:0|2:0,0:0:0:0:
85,280,141081,2,0,L|47:279,1,20,0|0,0:0|2:0,0:0:0:0:
298,309,141178,6,0,L|449:305,1,120,4|0,0:0|0:0,0:0:0:0:
220,237,141372,2,0,L|165:235,3,40,2|0|0|0,0:0|0:0|0:0|0:0,0:0:0:0:
319,190,141565,2,0,P|353:153|299:110,1,120,8|0,0:0|0:0,0:0:0:0:
129,113,141759,2,0,P|95:76|149:33,1,120,2|0,0:0|0:0,0:0:0:0:
310,24,141952,6,0,L|408:21,1,80,4|0,0:0|0:0,0:0:0:0:
202,117,142146,2,0,L|292:111,1,80,0|0,0:0|0:0,0:0:0:0:
105,222,142339,1,8,0:0:0:0:
465,219,142533,1,0,0:0:0:0:
154,311,142727,5,4,0:0:0:0:
295,284,142791,2,0,L|296:248,1,26.6666666666667,0|0,0:0|2:0,0:0:0:0:
180,236,142856,2,0,L|141:236,1,26.6666666666667,0|0,0:0|2:0,0:0:0:0:
40,203,142920,2,0,L|34:167,1,26.6666666666667,0|0,0:0|2:0,0:0:0:0:
148,142,142985,2,0,L|154:106,1,26.6666666666667,0|0,0:0|2:0,0:0:0:0:
40,203,143049,2,0,L|34:167,1,26.6666666666667,0|0,0:0|2:0,0:0:0:0:
295,284,143114,5,8,0:0:0:0:
436,257,143178,2,0,L|437:221,1,26.6666666666667,0|0,0:0|2:0,0:0:0:0:
321,209,143243,2,0,L|282:209,1,26.6666666666667,0|0,0:0|2:0,0:0:0:0:
181,176,143307,2,0,L|175:140,1,26.6666666666667,0|0,0:0|2:0,0:0:0:0:
289,115,143372,2,0,L|295:79,1,26.6666666666667,0|0,0:0|2:0,0:0:0:0:
181,176,143436,2,0,L|175:140,1,26.6666666666667,0|0,0:0|2:0,0:0:0:0:
346,57,143501,5,2,0:0:0:0:
512,118,143597,2,0,L|438:118,1,40,0|0,0:0|0:0,0:0:0:0:
318,143,143694,1,4,0:0:0:0:
502,195,143791,1,0,0:0:0:0:
297,222,143888,1,8,0:0:0:0:
369,247,143985,1,0,0:0:0:0:
185,278,144081,1,0,0:0:0:0:
342,342,144178,1,0,0:0:0:0:
138,348,144275,6,0,L|35:347,1,80,4|0,0:0|0:0,0:0:0:0:
259,245,144468,1,0,0:0:0:0:
148,174,144662,1,8,0:0:0:0:
364,174,144759,2,0,L|465:175,2,80,0|0|0,0:0|0:0|0:0,0:0:0:0:
62,103,145049,1,2,0:0:0:0:
278,103,145146,2,0,L|379:104,2,80,0|0|0,0:0|0:0|0:0,0:0:0:0:
22,239,145436,5,8,0:0:0:0:
446,143,145630,1,2,0:1:0:0:
482,128,145655,1,0,2:0:0:0:
446,143,145679,1,0,2:0:0:0:
482,128,145702,1,0,2:0:0:0:
446,143,145727,1,0,2:0:0:0:
482,128,145752,1,0,2:0:0:0:
446,143,145776,1,0,2:0:0:0:
256,144,145823,5,4,0:0:0:0:
146,126,145872,1,0,0:0:0:0:
38,96,145920,1,0,0:0:0:0:
256,63,146017,2,0,L|362:64,1,80,4|0,0:0|0:0,0:0:0:0:
157,187,146210,5,8,0:0:0:0:
355,187,146307,1,0,0:0:0:0:
118,254,146404,2,0,L|86:254,2,20,2|0|0,0:0|2:0|2:0,0:0:0:0:
256,240,146477,1,0,2:0:0:0:
394,254,146501,2,0,L|426:254,2,20,0|0|0,2:0|2:0|2:0,0:0:0:0:
323,203,146646,5,2,0:0:0:0:
172,155,146694,1,0,0:0:0:0:
320,115,146743,2,0,L|380:117,4,40,2|0|0|0|0,0:0|0:0|0:0|0:0|0:0,0:0:0:0:
172,155,146985,1,4,0:0:0:0:
320,115,147033,2,0,L|426:123,1,80,0|0,0:0|0:0,0:0:0:0:
169,234,147178,2,0,L|68:232,1,80,8|0,0:0|0:0,0:0:0:0:
258,298,147372,5,4,0:0:0:0:
32,272,147468,1,0,0:0:0:0:
144,256,147517,1,0,2:0:0:0:
256,240,147565,1,0,2:0:0:0:
368,240,147614,1,0,2:0:0:0:
480,224,147662,1,0,2:0:0:0:
219,160,147759,2,0,L|145:157,2,53.3333333333333,8|0|0,0:0|0:0|0:0,0:0:0:0:
41,148,147952,2,0,L|34:47,1,80,0|0,0:0|0:0,0:0:0:0:
298,47,148146,6,0,L|217:45,1,80,2|0,0:0|0:0,0:0:0:0:
471,148,148339,2,0,L|478:47,1,80,0|0,0:0|0:0,0:0:0:0:
260,159,148533,1,8,0:0:0:0:
471,218,148630,1,0,0:0:0:0:
256,261,148727,2,0,L|146:258,1,80,0|0,0:0|0:0,0:0:0:0:
411,333,148920,6,0,L|472:336,2,53.3333333333333,4|0|0,0:0|0:0|0:0,0:0:0:0:
254,317,149114,2,0,L|348:318,1,80,0|0,0:0|0:0,0:0:0:0:
146,244,149307,1,8,0:0:0:0:
338,190,149404,2,0,L|245:191,2,80,0|0|0,0:0|0:0|0:0,0:0:0:0:
60,145,149694,5,2,0:0:0:0:
256,96,149791,1,0,0:0:0:0:
452,145,149888,2,0,L|454:243,1,80,0|0,0:0|0:0,0:0:0:0:
251,233,150081,2,0,L|245:326,1,80,8|0,0:0|0:0,0:0:0:0:
42,269,150275,2,0,L|50:354,1,80,0|0,0:0|0:0,0:0:0:0:
256,343,150468,5,4,0:0:0:0:
47,315,150565,1,0,0:0:0:0:
260,260,150662,2,0,L|326:263,2,53.3333333333333,0|0|0,0:0|0:0|0:0,0:0:0:0:
446,182,150856,2,0,L|380:185,2,53.3333333333333,8|0|0,0:0|0:0|0:0,0:0:0:0:
266,132,151049,2,0,L|147:134,1,80,0|0,0:0|0:0,0:0:0:0:
456,243,151243,5,2,0:0:0:0:
261,300,151339,1,0,0:0:0:0:
254,220,151435,1,0,0:0:0:0:
248,140,151532,1,0,0:0:0:0:
56,243,151630,1,8,0:0:0:0:
259,207,151727,2,0,L|264:147,1,40,0|0,0:0|0:0,0:0:0:0:
128,149,151823,2,0,L|123:89,1,40,8|0,0:0|0:0,0:0:0:0:
313,129,151920,2,0,L|318:69,1,40,0|0,0:0|0:0,0:0:0:0:
165,48,152017,6,0,L|67:47,1,80,4|0,0:0|0:0,0:0:0:0:
347,48,152210,2,0,L|445:47,1,80,4|0,0:0|0:0,0:0:0:0:
155,123,152404,1,8,0:0:0:0:
357,123,152501,1,0,0:0:0:0:
126,202,152597,1,4,0:0:0:0:
386,202,152694,1,8,0:0:0:0:
256,208,152743,1,0,0:0:0:0:
126,202,152791,5,2,0:0:0:0:
341,283,152888,2,0,L|145:280,1,160,4|0,0:0|0:0,0:0:0:0:
414,222,153178,2,0,L|420:125,1,80,8|0,0:0|0:0,0:0:0:0:
229,102,153372,1,8,0:0:0:0:
418,75,153468,1,0,0:0:0:0:
173,212,153565,6,0,L|103:211,2,53.3333333333333,4|0|0,0:0|0:0|0:0,0:0:0:0:
42,141,153759,1,0,0:0:0:0:
161,140,153823,1,0,0:0:0:0:
42,141,153888,1,0,0:0:0:0:
296,122,153952,2,0,L|406:125,1,80,8|0,0:0|0:0,0:0:0:0:
201,234,154146,1,0,0:0:0:0:
381,284,154243,1,0,0:0:0:0:
105,287,154339,5,2,0:0:0:0:
406,287,154436,1,0,0:0:0:0:
419,238,154533,1,0,0:0:0:0:
406,287,154630,1,0,0:0:0:0:
41,340,154727,1,8,0:0:0:0:
471,340,154823,1,0,0:0:0:0:
499,298,154920,1,0,0:0:0:0:
471,340,155017,1,0,0:0:0:0:
146,273,155114,5,4,0:0:0:0:
366,273,155210,1,0,0:0:0:0:
256,224,155259,1,0,0:0:0:0:
133,170,155307,2,0,L|29:163,1,80,0|0,0:0|0:0,0:0:0:0:
296,91,155501,2,0,L|192:84,1,80,8|0,0:0|0:0,0:0:0:0:
458,164,155694,2,0,L|379:170,1,80,0|0,0:0|0:0,0:0:0:0:
123,250,155888,5,2,0:0:0:0:
389,250,155985,2,0,L|303:249,2,80,0|4|0,0:0|0:0|0:0,0:0:0:0:
59,192,156275,1,8,0:0:0:0:
256,160,156372,2,0,L|260:107,1,40,0|0,0:0|0:0,0:0:0:0:
117,105,156468,2,0,L|114:51,1,40
255,44,156565,2,0,L|309:43,1,40,0|0,0:0|0:0,0:0:0:0:
481,52,156662,5,4,0:0:0:0:
299,150,156759,2,0,L|236:149,1,40,0|0,0:0|0:0,0:0:0:0:
431,98,156855,2,0,L|491:100,1,40,0|0,0:0|0:0,0:0:0:0:
299,150,156952,2,0,L|236:149,1,40,0|0,0:0|0:0,0:0:0:0:
31,52,157049,5,8,0:0:0:0:
213,150,157146,2,0,L|276:149,1,40,0|0,0:0|0:0,0:0:0:0:
81,98,157242,2,0,L|21:100,1,40
213,150,157339,2,0,L|276:149,1,40,0|0,0:0|0:0,0:0:0:0:
481,52,157436,5,2,0:0:0:0:
193,197,157533,2,0,L|189:145,1,40
331,126,157630,2,0,L|335:74,1,40
112,96,157727,2,0,L|108:44,1,40
276,41,157823,6,0,L|332:41,1,40,8|0,0:0|0:0,0:0:0:0:
161,116,157920,2,0,L|116:116,1,40,0|0,0:0|0:0,0:0:0:0:
339,185,158017,2,0,L|403:188,1,40,0|0,0:0|0:0,0:0:0:0:
117,235,158114,2,0,L|67:234,1,40,0|0,0:0|0:0,0:0:0:0:
349,267,158210,6,0,L|452:268,1,80,4|0,0:0|0:0,0:0:0:0:
470,237,158356,1,0,0:0:0:0:
341,280,158404,2,0,L|281:281,1,40,0|0,0:0|0:0,0:0:0:0:
461,174,158549,2,0,L|521:174,1,40,0|2,0:0|0:0,0:0:0:0:
324,103,158694,1,0,0:0:0:0:
219,96,158718,1,0,2:0:0:0:
109,89,158743,1,0,2:0:0:0:
219,96,158767,1,0,2:0:0:0:
324,103,158791,1,0,0:0:0:0:
363,108,158839,1,0,0:0:0:0:
212,191,158888,1,0,0:0:0:0:
173,196,158936,1,0,0:0:0:0:
345,256,158985,6,0,L|436:257,1,80,2|0,0:0|0:0,0:0:0:0:
167,256,159178,2,0,L|76:257,1,80,0|0,0:0|0:0,0:0:0:0:
356,317,159372,1,2,0:0:0:0:
156,317,159468,1,0,0:0:0:0:
386,248,159565,1,2,0:0:0:0:
126,248,159662,1,2,0:0:0:0:
497,155,159759,6,0,L|404:154,1,80,8|0,0:0|0:0,0:0:0:0:
15,155,159952,2,0,L|108:154,1,80,0|0,0:0|0:0,0:0:0:0:
497,155,160146,2,0,L|404:154,1,80,8|0,0:1|0:0,0:0:0:0:
216,151,160339,2,0,L|301:152,1,80,0|0,0:0|0:0,0:0:0:0:
96,228,160533,6,0,L|11:229,1,80,4|0,0:1|0:0,0:0:0:0:
216,151,160727,2,0,L|301:152,1,80,0|0,0:0|0:0,0:0:0:0:
13,106,160920,1,8,0:1:0:0:
256,32,161017,1,0,0:0:0:0:
499,106,161114,1,0,0:0:0:0:
256,32,161211,1,0,0:0:0:0:
14,221,161307,6,0,L|120:219,1,80,2|0,0:1|0:0,0:0:0:0:
498,221,161501,2,0,L|392:219,1,80,0|0,0:0|0:0,0:0:0:0:
218,212,161694,2,0,L|317:210,1,80,8|0,0:1|0:0,0:0:0:0:
93,219,161888,2,0,L|14:221,1,80,0|0,0:0|0:0,0:0:0:0:
256,128,162081,5,4,0:1:0:0:
485,167,162178,1,0,0:0:0:0:
256,128,162275,1,0,0:0:0:0:
27,167,162372,1,0,0:0:0:0:
256,128,162468,1,8,0:1:0:0:
485,167,162565,1,0,0:0:0:0:
142,113,162662,1,0,0:0:0:0:
371,152,162759,1,0,0:0:0:0:
25,269,162856,5,4,0:1:0:0:
188,221,162952,2,0,L|190:192,1,20,0|0,0:0|2:0,0:0:0:0:
119,172,163049,2,0,L|92:173,1,20,0|0,0:0|2:0,0:0:0:0:
168,118,163146,2,0,L|192:117,1,20,0|0,0:0|2:0,0:0:0:0:
348,102,163243,2,0,L|372:101,1,20,4|0,0:1|2:0,0:0:0:0:
303,43,163339,2,0,L|279:42,1,20,0|0,0:0|2:0,0:0:0:0:
418,168,163436,2,0,L|442:167,1,20,0|0,0:0|2:0,0:0:0:0:
233,169,163533,2,0,L|209:168,1,20,0|0,0:0|2:0,0:0:0:0:
404,268,163630,6,0,L|475:271,1,53.3333333333333,4|0,0:1|0:0,0:0:0:0:
293,227,163759,1,0,0:0:0:0:
120,267,163823,2,0,L|49:270,1,53.3333333333333,0|0,0:0|0:0,0:0:0:0:
231,226,163952,1,0,0:0:0:0:
410,134,164017,2,0,L|341:132,2,53.3333333333333,8|0|0,0:1|0:0|0:0,0:0:0:0:
225,92,164210,2,0,L|156:90,2,53.3333333333333,0|0|0,0:0|0:0|0:0,0:0:0:0:
406,235,164404,5,4,0:1:0:0:
223,258,164501,1,0,0:0:0:0:
425,304,164597,1,0,0:0:0:0:
242,327,164694,1,0,0:0:0:0:
442,358,164791,2,0,L|517:357,2,53.3333333333333,8|0|0,0:1|0:0|0:0,0:0:0:0:
284,300,164985,1,0,0:0:0:0:
337,300,165049,1,0,0:0:0:0:
390,300,165114,1,0,0:0:0:0:
235,241,165178,6,0,L|121:238,1,80,2|0,0:1|0:0,0:0:0:0:
383,157,165372,2,0,L|280:158,1,80,0|0,0:0|0:0,0:0:0:0:
97,17,165565,2,0,L|94:96,1,80,8|0,0:1|0:0,0:0:0:0:
300,19,165759,2,0,L|302:98,1,80,0|0,0:0|0:0,0:0:0:0:
15,155,165952,6,0,L|108:154,1,80,8|0,0:0|0:0,0:0:0:0:
497,155,166145,2,0,L|404:154,1,80,0|0,0:0|0:0,0:0:0:0:
15,155,166339,2,0,L|108:154,1,80,8|0,0:1|0:0,0:0:0:0:
296,151,166532,2,0,L|211:152,1,80,0|0,0:0|0:0,0:0:0:0:
416,228,166727,6,0,L|501:229,1,80,4|0,0:1|0:0,0:0:0:0:
296,151,166920,2,0,L|211:152,1,80,0|0,0:0|0:0,0:0:0:0:
499,106,167113,1,8,0:1:0:0:
256,32,167210,1,0,0:0:0:0:
13,106,167307,1,0,0:0:0:0:
256,32,167404,1,0,0:0:0:0:
498,221,167500,6,0,L|392:219,1,80,2|0,0:1|0:0,0:0:0:0:
14,221,167694,2,0,L|120:219,1,80,0|0,0:0|0:0,0:0:0:0:
294,212,167887,2,0,L|195:210,1,80,8|0,0:1|0:0,0:0:0:0:
419,219,168081,2,0,L|498:221,1,80,0|0,0:0|0:0,0:0:0:0:
256,128,168274,5,4,0:1:0:0:
141,143,168323,1,0,0:0:0:0:
27,167,168371,1,0,0:0:0:0:
256,128,168468,1,0,0:0:0:0:
371,143,168517,1,0,0:0:0:0:
485,167,168565,1,0,0:0:0:0:
256,128,168661,1,8,0:1:0:0:
27,167,168758,1,0,0:0:0:0:
256,128,168856,1,0,0:0:0:0:
27,167,168953,1,0,0:0:0:0:
487,269,169049,5,4,0:1:0:0:
258,278,169146,2,0,L|200:280,4,40,0|0|0|0|0,0:0|2:0|2:0|2:0|0:0,0:0:0:0:
496,200,169436,1,4,0:1:0:0:
271,152,169533,1,0,0:0:0:0:
496,200,169630,1,0,0:0:0:0:
385,177,169678,1,0,0:0:0:0:
271,152,169727,1,0,0:0:0:0:
16,200,169823,5,8,0:1:0:0:
241,152,169920,1,0,0:0:0:0:
16,200,170017,1,0,0:0:0:0:
405,236,170114,2,0,L|408:137,1,80,0|8,0:0|0:1,0:0:0:0:
16,200,170307,1,0,0:0:0:0:
241,152,170404,1,4,0:1:0:0:
123,117,170468,1,0,0:0:0:0:
241,152,170533,1,0,0:0:0:0:
75,220,170597,6,0,L|68:337,1,80,4|0,0:1|0:0,0:0:0:0:
437,220,170791,2,0,L|444:337,1,80,0|0,0:0|0:0,0:0:0:0:
168,241,170985,2,0,L|93:239,2,53.3333333333333,4|0|0,0:1|0:0|0:0,0:0:0:0:
344,241,171178,2,0,L|419:239,2,53.3333333333333,0|0|0,0:0|0:0|0:0,0:0:0:0:
122,182,171372,6,0,L|117:116,1,53.3333333333333,8|0,0:1|0:0,0:0:0:0:
256,144,171501,2,0,L|256:80,1,53.3333333333333,0|0,0:0|0:0,0:0:0:0:
390,182,171630,2,0,L|395:116,1,53.3333333333333,0|0,0:0|0:0,0:0:0:0:
14,97,171759,2,0,L|129:96,1,80,8|0,0:1|0:0,0:0:0:0:
334,98,171952,2,0,L|413:98,1,80,0|0,0:0|0:0,0:0:0:0:
15,155,172146,6,0,L|108:154,1,80,8|0,0:0|0:0,0:0:0:0:
497,155,172339,2,0,L|404:154,1,80,0|0,0:0|0:0,0:0:0:0:
15,155,172533,2,0,L|108:154,1,80,8|0,0:1|0:0,0:0:0:0:
296,151,172726,2,0,L|211:152,1,80,0|0,0:0|0:0,0:0:0:0:
416,228,172920,6,0,L|501:229,1,80,4|0,0:1|0:0,0:0:0:0:
296,151,173114,2,0,L|211:152,1,80,0|0,0:0|0:0,0:0:0:0:
499,106,173307,1,8,0:1:0:0:
256,32,173404,1,0,0:0:0:0:
13,106,173501,1,0,0:0:0:0:
256,32,173598,1,0,0:0:0:0:
498,221,173694,6,0,L|392:219,1,80,4|0,0:1|0:0,0:0:0:0:
14,221,173888,2,0,L|120:219,1,80,0|0,0:0|0:0,0:0:0:0:
294,212,174081,2,0,L|195:210,1,80,8|0,0:1|0:0,0:0:0:0:
419,219,174275,2,0,L|498:221,1,80,0|0,0:0|0:0,0:0:0:0:
256,128,174468,5,2,0:1:0:0:
27,167,174565,1,0,0:0:0:0:
256,128,174662,1,0,0:0:0:0:
485,167,174759,1,0,0:0:0:0:
256,128,174855,1,8,0:1:0:0:
27,167,174952,1,0,0:0:0:0:
370,113,175049,1,0,0:0:0:0:
141,152,175146,1,0,0:0:0:0:
492,260,175243,6,0,L|383:261,2,80,4|0|0,0:1|0:0|0:0,0:0:0:0:
256,192,175533,1,0,0:0:0:0:
20,260,175630,1,8,0:1:0:0:
197,255,175726,1,0,0:0:0:0:
20,260,175823,1,0,0:0:0:0:
197,255,175920,1,0,0:0:0:0:
492,260,176017,5,2,0:1:0:0:
315,255,176113,1,0,0:0:0:0:
492,260,176210,1,0,0:0:0:0:
256,192,176307,1,0,0:0:0:0:
79,187,176403,1,8,0:1:0:0:
256,192,176500,1,0,0:0:0:0:
79,187,176597,1,0,0:0:0:0:
256,192,176694,1,0,0:0:0:0:
489,150,176791,6,0,L|383:147,1,80,4|0,0:1|0:0,0:0:0:0:
102,147,176985,2,0,L|23:150,1,80,0|0,0:0|0:0,0:0:0:0:
496,256,177178,1,8,0:1:0:0:
336,240,177275,1,0,0:0:0:0:
176,240,177372,1,0,0:0:0:0:
16,256,177469,1,0,0:0:0:0:
496,256,177565,5,2,0:1:0:0:
336,240,177662,1,0,0:0:0:0:
176,240,177759,1,0,0:0:0:0:
16,256,177856,1,0,0:0:0:0:
496,256,177952,1,8,0:1:0:0:
336,240,178017,1,0,0:0:0:0:
176,240,178081,1,0,0:0:0:0:
16,256,178146,1,0,0:0:0:0:
176,240,178211,1,0,0:0:0:0:
336,240,178275,1,0,0:0:0:0:
160,146,178339,6,0,L|56:148,2,80,4|0|0,0:1|0:0|0:0,0:0:0:0:
345,146,178630,1,0,0:0:0:0:
155,312,178727,2,0,L|156:224,1,80,8|0,0:1|0:0,0:0:0:0:
422,206,178920,2,0,L|321:207,1,80,0|0,0:0|0:0,0:0:0:0:
90,206,179114,5,2,0:1:0:0:
256,176,179210,1,0,0:0:0:0:
87,129,179307,2,0,L|4:128,1,80,0|0,0:0|0:0,0:0:0:0:
256,64,179501,2,0,L|256:192,1,80,8|0,0:1|0:0,0:0:0:0:
504,128,179694,2,0,L|425:129,1,80,0|0,0:0|0:0,0:0:0:0:
117,231,179888,6,0,L|203:229,1,80,4|0,0:1|0:0,0:0:0:0:
380,197,180081,1,0,0:0:0:0:
214,157,180178,1,0,0:0:0:0:
404,110,180275,1,8,0:1:0:0:
238,70,180372,1,0,0:0:0:0:
428,30,180468,2,0,L|518:30,1,80,0|0,0:0|0:0,0:0:0:0:
145,100,180662,6,0,L|135:205,1,80,4|0,0:1|0:0,0:0:0:0:
344,235,180856,1,0,0:0:0:0:
168,235,180952,1,0,0:0:0:0:
377,302,181049,2,0,L|465:297,1,80,8|0,0:1|0:0,0:0:0:0:
92,194,181243,2,0,L|42:191,1,40,8|0,0:1|0:0,0:0:0:0:
420,194,181339,2,0,L|470:191,1,40,0|0,0:0|0:0,0:0:0:0:
178,109,181436,5,4,0:1:0:0:
98,109,181532,1,0,0:0:0:0:
18,109,181629,1,0,0:0:0:0:
258,109,181727,1,4,0:1:0:0:
178,109,181823,1,0,0:0:0:0:
98,109,181920,1,0,0:0:0:0:
388,185,182017,1,4,0:1:0:0:
256,160,182081,1,0,0:0:0:0:
124,185,182146,1,0,0:0:0:0:
334,109,182210,5,4,0:1:0:0:
413,109,182306,1,0,0:0:0:0:
493,109,182403,1,0,0:0:0:0:
254,109,182501,1,4,0:1:0:0:
334,109,182597,1,0,0:0:0:0:
414,109,182694,1,0,0:0:0:0:
124,185,182791,1,4,0:1:0:0:
256,160,182839,1,0,0:0:0:0:
388,185,182888,1,0,0:0:0:0:
256,160,182936,1,0,0:0:0:0:
121,263,182985,5,4,0:1:0:0:
308,269,183081,2,0,L|370:270,1,60,0|0,0:0|2:0,0:0:0:0:
222,216,183178,2,0,L|160:217,1,60,0|0,0:0|2:0,0:0:0:0:
281,150,183275,2,0,L|343:151,1,60,0|0,0:0|2:0,0:0:0:0:
232,90,183372,2,0,L|140:90,2,80,8|0|0,0:1|0:0|0:0,0:0:0:0:
37,146,183662,1,0,0:0:0:0:
256,256,183759,5,2,0:1:0:0:
389,221,183823,1,0,0:0:0:0:
256,256,183888,1,0,0:0:0:0:
409,310,183952,2,0,L|501:311,1,80,0|0,0:0|0:0,0:0:0:0:
171,292,184146,2,0,L|79:293,1,80,8|0,0:1|0:0,0:0:0:0:
341,292,184339,2,0,L|433:293,1,80,0|0,0:0|0:0,0:0:0:0:
5,209,184533,5,8,0:0:0:0:
256,192,184630,2,0,L|377:192,2,80,0|0|0,0:0|0:0|0:0,0:0:0:0:
5,209,184920,1,8,0:1:0:0:
225,148,185017,2,0,L|318:84,2,80,0|0|0,0:0|0:0|0:0,0:0:0:0:
5,209,185307,5,2,0:1:0:0:
170,130,185404,2,0,L|216:38,2,80,0|0|0,0:0|0:0|0:0,0:0:0:0:
5,209,185694,1,8,0:1:0:0:
78,136,185791,2,0,L|91:24,2,80,0|0|0,0:0|0:0|0:0,0:0:0:0:
256,147,186082,6,0,L|243:55,2,83.1999961914064,4|0|0,0:1|0:0|0:0,0:0:0:0:
334,166,186382,1,0,0:0:0:0:
228,187,186482,2,0,L|187:106,2,83.1999961914064,8|0|0,0:1|0:0|0:0,0:0:0:0:
316,215,186782,1,0,0:0:0:0:
209,233,186882,6,0,L|128:180,2,83.1999961914064,2|0|0,0:1|0:0|0:0,0:0:0:0:
295,264,187182,1,0,0:0:0:0:
195,284,187282,2,0,L|82:285,2,83.1999961914064,8|0|0,0:1|0:0|0:0,0:0:0:0:
281,314,187582,1,0,0:0:0:0:
491,263,187682,6,0,L|371:264,3,86.4000003295898,4|0|0|0,0:1|0:0|0:0|0:0,0:0:0:0:
319,222,188095,2,0,L|404:170,1,86.4000003295898,8|0,0:1|0:0,0:0:0:0:
356,199,188250,1,0,0:0:0:0:
319,222,188302,2,0,L|404:170,1,86.4000003295898,0|0,0:0|0:0,0:0:0:0:
277,157,188509,6,0,L|205:79,3,86.4000003295898,2|0|0|0,0:1|0:0|0:0|0:0,0:0:0:0:
323,95,188923,2,0,L|351:9,1,86.4000003295898,8|0,0:1|0:0,0:0:0:0:
336,52,189078,1,0,0:0:0:0:
323,95,189130,2,0,L|351:9,1,86.4000003295898,0|0,0:0|0:0,0:0:0:0:
77,228,189337,6,0,L|74:123,1,89.5999972656251,4|0,0:1|0:0,0:0:0:0:
174,151,189551,2,0,L|177:46,1,89.5999972656251,0|0,0:0|0:0,0:0:0:0:
335,149,189872,2,0,L|338:44,2,89.5999972656251,4|0|0,0:1|0:0|0:0,0:0:0:0:
214,207,190194,6,0,L|313:211,1,89.5999972656251,4|0,0:1|0:0,0:0:0:0:
91,277,190408,1,0,0:0:0:0:
421,277,190622,1,4,0:1:0:0:
342,279,190729,1,0,0:0:0:0:
170,279,190837,1,4,0:1:0:0:
342,279,190944,1,0,0:0:0:0:
46,231,191051,5,4,0:1:0:0:
141,194,191162,2,0,L|165:180,8,23.2000007080078,0|0|0|0|0|0|0|0|0,0:0|2:0|2:0|2:0|2:0|2:0|2:0|2:0|0:0,0:0:0:0:
322,106,191606,6,0,L|402:107,1,46.4000014160157,2|0,0:0|0:0,0:0:0:0:
309,132,191717,2,0,L|229:133,1,46.4000014160157,0|0,0:0|0:0,0:0:0:0:
336,145,191828,2,0,L|416:146,1,46.4000014160157,0|0,0:0|0:0,0:0:0:0:
232,269,192051,2,0,L|95:267,2,92.8000028320313,2|0|0,0:0|0:0|0:0,0:0:0:0:
41,166,192495,2,0,L|178:164,2,92.8000028320313,2|0|0,0:0|0:0|0:0,0:0:0:0:
242,98,192828,5,0,0:0:0:0:
152,155,192943,2,0,L|146:221,1,48.0000018310548,2|0,0:0|0:0,0:0:0:0:
221,215,193058,2,0,L|221:295,1,48.0000018310548,0|0,0:0|0:0,0:0:0:0:
295,262,193174,1,0,0:0:0:0:
482,309,193404,5,2,0:0:0:0:
406,262,193520,2,0,L|473:263,3,48.0000018310548
214,234,193866,1,2,0:0:0:0:
305,206,193981,1,0,0:0:0:0:
400,235,194097,1,0,0:0:0:0:
184,126,194328,1,2,0:0:0:0:
275,98,194443,1,0,0:0:0:0:
370,127,194559,1,0,0:0:0:0:
98,216,194674,5,0,0:0:0:0:
206,227,194794,2,0,L|215:127,2,96.0000036621095,2|0|0,0:0|0:0|0:0,0:0:0:0:
360,219,195274,2,0,L|355:155,1,48.0000018310548,2|0,0:0|0:0,0:0:0:0:
421,172,195394,2,0,L|430:103,1,48.0000018310548,0|0,0:0|0:0,0:0:0:0:
360,219,195514,1,0,0:0:0:0:
197,155,195754,6,0,L|193:46,1,96.0000036621095,2|0,0:0|0:0,0:0:0:0:
289,42,195994,1,0,0:0:0:0:
137,141,196234,2,0,L|210:140,1,48.0000018310548,2|0,0:0|0:0,0:0:0:0:
124,108,196354,2,0,L|54:109,1,48.0000018310548,0|0,0:0|0:0,0:0:0:0:
137,141,196474,2,0,L|210:140,1,48.0000018310548,0|0,0:0|0:0,0:0:0:0:
17,268,196594,5,0,0:0:0:0:
32,186,196719,1,2,0:0:0:0:
128,167,196844,1,0,0:0:0:0:
225,188,196969,1,0,0:0:0:0:
41,185,197219,1,2,0:0:0:0:
128,168,197344,1,0,0:0:0:0:
215,187,197469,1,0,0:0:0:0:
44,178,197719,5,2,0:0:0:0:
65,133,197781,1,0,0:0:0:0:
121,163,197844,1,0,0:0:0:0:
143,121,197906,1,0,0:0:0:0:
205,180,197969,2,0,P|225:275|400:164,1,384.000014648438,0|0,0:0|0:0,0:0:0:0:
16,191,198594,5,4,0:0:0:0:
20,128,199615,1,8,0:0:0:0:
128,125,199636,1,0,0:0:0:0:
384,125,199785,1,0,0:0:0:0:
492,128,199806,1,0,0:0:0:0:
20,128,200636,1,8,0:0:0:0:
128,125,200657,1,0,0:0:0:0:
384,125,200806,1,0,0:0:0:0:
492,128,200827,1,0,0:0:0:0:
20,128,201657,1,8,0:0:0:0:
128,125,201678,1,0,0:0:0:0:
384,125,201827,1,0,0:0:0:0:
492,128,201848,1,0,0:0:0:0:
258,200,202423,2,0,L|241:200,2,12.0000004577637,2|0|0,0:0|0:0|0:0,0:0:0:0:
262,146,202551,1,0,0:0:0:0:
20,128,202679,1,8,0:0:0:0:
128,125,202700,1,0,0:0:0:0:
384,125,202849,1,0,0:0:0:0:
492,128,202870,1,0,0:0:0:0:
20,128,203700,1,8,0:0:0:0:
128,125,203721,1,0,0:0:0:0:
384,125,203870,1,0,0:0:0:0:
492,128,203891,1,0,0:0:0:0:
254,200,204466,2,0,L|271:200,2,12.0000004577637,2|0|0,0:0|0:0|0:0,0:0:0:0:
250,146,204594,1,0,0:0:0:0:
20,128,204721,1,8,0:0:0:0:
128,125,204742,1,0,0:0:0:0:
384,125,204891,1,0,0:0:0:0:
492,128,204912,1,0,0:0:0:0:
20,128,205742,1,8,0:0:0:0:
128,125,205763,1,0,0:0:0:0:
384,125,205912,1,0,0:0:0:0:
492,128,205933,1,0,0:0:0:0:
488,239,206125,2,0,L|62:237,1,384.000014648438,0|0,0:0|0:0,0:0:0:0:
327,307,206764,6,0,L|448:307,3,96.0000036621095,2|0|2|0,0:0|0:0|0:0|0:0,0:0:0:0:
308,225,207274,2,0,L|189:224,2,96.0000036621095,2|0|2,0:0|0:0|0:0,0:0:0:0:
100,149,207657,6,0,L|321:143,1,192.000007324219,2|0,0:0|0:0,0:0:0:0:
72,74,208040,1,2,0:0:0:0:
299,67,208168,2,0,P|361:78|433:202,1,192.000007324219,2|0,0:0|0:0,0:0:0:0:
329,265,208551,2,0,L|468:261,1,96.0000036621095,2|0,0:0|0:0,0:0:0:0:
185,307,208806,6,0,L|64:307,3,96.0000036621095,2|0|2|0,0:0|0:0|0:0|0:0,0:0:0:0:
204,225,209316,2,0,L|323:224,2,96.0000036621095,2|0|2,0:0|0:0|0:0,0:0:0:0:
412,149,209699,6,0,L|191:143,1,192.000007324219,2|0,0:0|0:0,0:0:0:0:
440,74,210082,1,2,0:0:0:0:
213,67,210211,1,0,0:0:0:0:
456,148,210338,1,2,0:0:0:0:
365,218,210466,2,0,L|432:220,1,48.0000018310548,2|0,0:0|0:0,0:0:0:0:
237,269,210594,2,0,L|160:273,3,48.0000018310548,2|0|0|0,0:0|0:0|0:0|0:0,0:0:0:0:
386,312,210849,5,2,0:0:0:0:
469,248,210976,2,0,L|311:253,1,144.000005493164,2|0,0:0|0:0,0:0:0:0:
129,174,211232,2,0,L|287:179,1,144.000005493164,2|0,0:0|0:0,0:0:0:0:
476,120,211487,1,2,0:0:0:0:
392,101,211615,1,0,0:0:0:0:
83,121,211742,6,0,P|21:183|86:242,1,192.000007324219,2|0,0:0|0:0,0:0:0:0:
196,283,212125,2,0,L|74:285,1,96.0000036621095,2|0,0:0|0:0,0:0:0:0:
316,283,212381,2,0,L|438:285,1,96.0000036621095,2|0,0:0|0:0,0:0:0:0:
192,196,212636,1,2,0:0:0:0:
428,178,212764,1,0,0:0:0:0:
59,135,212891,5,2,0:0:0:0:
302,124,213019,2,0,L|308:244,1,96.0000036621095,2|0,0:0|0:0,0:0:0:0:
53,239,213274,2,0,L|49:348,1,96.0000036621095,2|0,0:0|0:0,0:0:0:0:
327,331,213530,1,2,0:0:0:0:
227,311,213657,1,0,0:0:0:0:
500,288,213785,1,2,0:0:0:0:
256,192,213913,5,2,3:2:0:0:
128,192,213976,1,0,3:0:0:0:
256,192,214040,1,0,3:0:0:0:
384,192,214103,1,0,3:0:0:0:
212,126,214168,1,0,3:0:0:0:
80,128,214232,1,0,3:0:0:0:
300,126,214296,1,0,3:0:0:0:
432,128,214360,1,0,3:0:0:0:
117,261,214423,6,0,L|81:261,2,24.0000009155274,2|0|0,0:0|0:0|0:0,0:0:0:0:
256,224,214519,1,0,0:0:0:0:
395,261,214551,2,0,L|431:261,2,24.0000009155274,4|0|0,0:1|0:0|0:0,0:0:0:0:
256,224,214647,1,0,0:0:0:0:
82,191,214679,1,8,0:1:0:0:
430,191,214806,1,8,0:1:0:0:
14,103,214934,5,4,0:0:0:0:
351,87,215062,2,0,L|193:88,1,144.000005493164,2|0,0:0|0:0,0:0:0:0:
401,171,215317,2,0,L|251:170,1,144.000005493164,2|0,0:0|0:0,0:0:0:0:
448,257,215572,2,0,L|298:256,1,144.000005493164,2|0,0:0|0:0,0:0:0:0:
25,329,215828,6,0,L|494:324,1,460.7999859375,2|4,0:0|0:0,0:0:0:0:
229,250,216211,1,8,0:0:0:0:
485,324,216338,2,0,L|25:329,1,460.7999859375,2|4,0:0|0:0,0:0:0:0:
390,214,216721,1,8,0:0:0:0:
122,214,216849,1,8,0:0:0:0:
498,103,216976,5,4,0:0:0:0:
161,87,217104,2,0,L|319:88,1,144.000005493164,2|0,0:0|0:0,0:0:0:0:
111,171,217359,2,0,L|261:170,1,144.000005493164,2|0,0:0|0:0,0:0:0:0:
64,257,217614,2,0,L|214:256,1,144.000005493164,2|0,0:0|0:0,0:0:0:0:
487,329,217870,6,0,L|18:324,1,460.7999859375,2|4,0:0|0:0,0:0:0:0:
283,250,218253,1,8,0:0:0:0:
26,324,218381,1,0,0:0:0:0:
498,278,218508,1,2,0:0:0:0:
110,144,218636,1,4,0:0:0:0:
256,176,218700,1,0,0:0:0:0:
402,144,218763,1,8,0:0:0:0:
355,155,218827,1,0,0:0:0:0:
402,144,218891,1,8,0:0:0:0:
256,176,218955,1,0,0:0:0:0:
14,103,219019,5,4,0:0:0:0:
351,87,219147,2,0,L|193:88,1,144.000005493164,2|0,0:0|0:0,0:0:0:0:
401,171,219402,2,0,L|251:170,1,144.000005493164,2|0,0:0|0:0,0:0:0:0:
448,257,219657,2,0,L|298:256,1,144.000005493164,2|0,0:0|0:0,0:0:0:0:
25,329,219913,6,0,L|494:324,1,460.7999859375,2|4,0:0|0:0,0:0:0:0:
145,230,220296,2,0,L|417:224,3,230.39999296875,8|0|4|0,0:0|0:0|0:0|0:0,0:0:0:0:
32,146,220806,1,8,0:0:0:0:
480,146,220934,1,0,0:0:0:0:
14,279,221062,5,4,0:0:0:0:
288,216,221189,2,0,L|450:216,1,144.000005493164,2|0,0:0|0:0,0:0:0:0:
224,216,221445,2,0,L|62:216,1,144.000005493164,2|0,0:0|0:0,0:0:0:0:
256,128,221700,2,0,L|415:124,1,144.000005493164,2|0,0:0|0:0,0:0:0:0:
234,289,221955,6,0,L|461:282,1,192.000007324219,2|4,0:0|0:0,0:0:0:0:
206,191,222338,2,0,L|169:192,2,24.0000009155274,8|0|0,0:0|0:0|0:0,0:0:0:0:
341,188,222434,1,0,0:0:0:0:
476,191,222466,2,0,L|513:192,2,24.0000009155274,0|0|0,0:0|0:0|0:0,0:0:0:0:
341,188,222562,1,0,0:0:0:0:
202,118,222593,6,0,L|263:117,1,48.0000018310548,2|0,0:0|0:0,0:0:0:0:
77,134,222721,2,0,L|22:137,1,48.0000018310548,0|0,0:0|0:0,0:0:0:0:
245,225,222849,2,0,L|320:220,1,48.0000018310548,8|0,0:0|0:0,0:0:0:0:
54,244,222976,2,0,L|-5:249,1,48.0000018310548,0|0,0:0|0:0,0:0:0:0:
256,320,223104,5,4,0:0:0:0:
495,337,223232,2,0,L|373:335,1,96.0000036621095,2|8,0:0|0:0,0:0:0:0:
17,337,223487,2,0,L|139:335,1,96.0000036621095,2|0,0:0|0:0,0:0:0:0:
495,337,223742,2,0,L|373:335,1,96.0000036621095,2|8,0:0|0:0,0:0:0:0:
18,337,223998,1,2,0:0:0:0:
360,246,224125,5,4,0:0:0:0:
152,246,224253,1,2,0:0:0:0:
423,154,224381,1,8,0:0:0:0:
89,154,224508,2,0,B|320:154|320:154|67:157,1,460.7999859375,4|0,0:0|0:0,0:0:0:0:
439,227,224891,1,8,0:0:0:0:
73,227,225019,1,0,0:0:0:0:
385,315,225147,6,0,L|506:315,1,96.0000036621095,4|0,0:0|0:0,0:0:0:0:
127,315,225402,2,0,L|6:315,1,96.0000036621095,8|0,0:0|0:0,0:0:0:0:
288,228,225657,1,2,0:0:0:0:
85,226,225785,1,0,0:0:0:0:
395,153,225913,1,8,0:0:0:0:
64,135,226040,1,0,0:0:0:0:
499,94,226168,5,4,0:0:0:0:
37,40,226296,2,0,L|175:39,1,96.0000036621095,0|8,0:0|0:0,0:0:0:0:
391,43,226551,1,2,0:0:0:0:
13,94,226679,1,4,0:0:0:0:
257,111,226806,2,0,L|173:111,1,48.0000018310548,0|0,0:0|0:0,0:0:0:0:
67,162,226934,1,8,0:0:0:0:
206,196,226998,1,0,0:0:0:0:
345,162,227062,1,0,0:0:0:0:
206,196,227126,1,0,0:0:0:0:
10,313,227189,5,4,0:3:0:0:
165,268,227253,1,0,0:0:0:0:
7,222,227317,2,0,L|68:223,1,48.0000018310548,0|0,0:0|0:0,0:0:0:0:
256,320,227445,1,2,0:0:0:0:
411,275,227509,1,0,0:0:0:0:
253,229,227573,2,0,L|314:230,1,48.0000018310548,0|0,0:0|0:0,0:0:0:0:
502,313,227700,5,2,0:0:0:0:
347,268,227764,1,0,0:0:0:0:
502,313,227828,1,0,0:0:0:0:
347,268,227892,1,0,0:0:0:0:
165,268,227955,1,2,0:0:0:0:
10,313,228019,1,0,0:0:0:0:
165,268,228083,1,0,0:0:0:0:
10,313,228147,1,0,0:0:0:0:
351,121,228211,6,0,L|415:121,1,48.0000018310548,2|0,0:0|0:0,0:0:0:0:
161,121,228338,2,0,L|97:121,1,48.0000018310548,0|0,0:0|0:0,0:0:0:0:
256,48,228466,1,2,0:0:0:0:
412,66,228530,1,0,0:0:0:0:
256,48,228593,1,0,0:0:0:0:
100,66,228657,1,0,0:0:0:0:
256,192,228721,6,0,L|320:192,1,48.0000018310548,2|0,0:0|0:0,0:0:0:0:
144,246,228849,1,0,0:0:0:0:
304,192,228913,1,0,0:0:0:0:
464,246,228976,1,2,0:0:0:0:
304,192,229040,1,0,0:0:0:0:
144,246,229104,1,0,0:0:0:0:
304,192,229168,1,0,0:0:0:0:
503,123,229232,6,0,L|439:124,1,48.0000018310548,2|0,0:0|0:0,0:0:0:0:
70,126,229359,1,2,0:0:0:0:
256,64,229423,1,0,0:0:0:0:
442,126,229487,1,2,0:0:0:0:
256,64,229551,1,0,0:0:0:0:
70,126,229615,1,0,0:0:0:0:
256,64,229679,1,0,0:0:0:0:
46,243,229742,6,0,L|43:171,1,48.0000018310548,2|0,0:0|0:0,0:0:0:0:
285,146,229870,2,0,L|222:146,1,48.0000018310548,0|0,0:0|0:0,0:0:0:0:
466,243,229998,2,0,L|469:171,1,48.0000018310548,2|0,0:0|0:0,0:0:0:0:
256,192,230125,1,0,0:0:0:0:
44,195,230189,1,0,0:0:0:0:
310,259,230253,6,0,L|386:261,1,48.0000018310548,2|0,0:0|0:0,0:0:0:0:
198,199,230381,1,0,0:0:0:0:
99,193,230413,1,0,0:0:0:0:
0,183,230445,1,0,0:0:0:0:
256,112,230508,1,2,0:0:0:0:
397,96,230540,2,0,L|426:95,2,24.0000009155274,0|0|0,0:0|0:0|0:0,0:0:0:0:
256,112,230636,1,0,0:0:0:0:
115,96,230668,2,0,L|86:95,2,24.0000009155274,0|0|0,0:0|0:0|0:0,0:0:0:0:
256,240,230764,6,0,L|271:237,1,12.0000004577637,2|0,0:0|0:0,0:0:0:0:
405,241,230796,1,0,0:0:0:0:
423,199,230812,1,0,0:0:0:0:
430,211,230828,1,0,0:0:0:0:
423,199,230843,1,0,0:0:0:0:
405,195,230859,1,0,0:0:0:0:
256,240,230891,2,0,L|241:237,1,12.0000004577637,2|0,0:0|0:0,0:0:0:0:
107,241,230923,1,0,0:0:0:0:
89,199,230939,1,0,0:0:0:0:
82,211,230955,1,0,0:0:0:0:
89,199,230971,1,0,0:0:0:0:
107,195,230987,1,0,0:0:0:0:
256,240,231019,6,0,L|271:237,1,12.0000004577637,2|0,0:0|0:0,0:0:0:0:
405,241,231051,1,0,0:0:0:0:
423,199,231067,1,0,0:0:0:0:
430,211,231083,1,0,0:0:0:0:
423,199,231098,1,0,0:0:0:0:
405,195,231114,1,0,0:0:0:0:
256,240,231147,2,0,L|241:237,1,12.0000004577637,2|0,0:0|0:0,0:0:0:0:
107,241,231178,1,0,0:0:0:0:
89,199,231195,1,0,0:0:0:0:
82,211,231210,1,0,0:0:0:0:
89,199,231226,1,0,0:0:0:0:
107,195,231242,1,0,0:0:0:0:
455,142,231274,5,4,0:3:0:0:
491,211,231402,1,0,0:0:0:0:
429,250,231530,1,0,0:0:0:0:
403,329,231657,1,0,0:0:0:0:
339,268,231785,1,8,0:0:0:0:
436,268,231913,1,0,0:0:0:0:
411,187,232040,1,0,0:0:0:0:
319,175,232168,1,0,0:0:0:0:
424,122,232296,5,8,0:0:0:0:
381,50,232423,1,0,0:0:0:0:
283,44,232551,1,0,0:0:0:0:
328,108,232679,1,0,0:0:0:0:
240,140,232806,1,8,0:0:0:0:
342,191,232934,1,0,0:0:0:0:
231,226,233062,1,0,0:0:0:0:
122,260,233189,1,0,0:0:0:0:
363,302,233317,6,0,L|447:307,2,64.0000024414063,8|0|0,0:0|0:0|0:0,0:0:0:0:
197,242,233572,2,0,L|281:247,2,64.0000024414063,0|0|0,0:0|0:0|0:0,0:0:0:0:
364,193,233828,1,8,0:0:0:0:
371,148,233913,1,0,0:0:0:0:
495,133,233955,1,0,0:0:0:0:
501,94,233998,1,0,0:0:0:0:
251,66,234083,2,0,L|173:74,1,48.0000018310548
353,110,234211,1,0,0:0:0:0:
104,202,234338,6,0,L|15:209,1,48.0000018310548,8|0,0:0|0:0,0:0:0:0:
296,229,234466,2,0,L|369:228,1,48.0000018310548,0|0,0:0|0:0,0:0:0:0:
152,270,234593,2,0,L|63:277,1,48.0000018310548,0|0,0:0|0:0,0:0:0:0:
344,297,234721,2,0,L|417:296,1,48.0000018310548,0|0,0:0|0:0,0:0:0:0:
203,332,234849,5,8,0:0:0:0:
57,323,234913,1,0,0:0:0:0:
309,332,234976,1,4,0:1:0:0:
455,323,235040,1,0,0:0:0:0:
36,189,235104,2,0,L|14:192,1,12.0000004577637,8|0,0:1|0:0,0:0:0:0:
58,136,235168,2,0,L|36:139,1,12.0000004577637,0|0,0:0|0:0,0:0:0:0:
36,189,235232,2,0,L|14:192,1,12.0000004577637,8|0,0:1|0:0,0:0:0:0:
58,136,235296,2,0,L|36:139,1,12.0000004577637,0|0,0:0|0:0,0:0:0:0:
274,96,235359,6,0,L|342:96,1,48.0000018310548,4|0,0:2|0:0,0:0:0:0:
147,174,235487,1,0,0:0:0:0:
318,191,235551,1,0,0:0:0:0:
486,210,235615,2,0,L|413:209,1,48.0000018310548,8|0,0:0|0:0,0:0:0:0:
250,230,235742,2,0,L|185:228,1,48.0000018310548,0|0,0:0|0:0,0:0:0:0:
375,309,235870,6,0,L|438:309,1,48.0000018310548,2|0,0:0|0:0,0:0:0:0:
268,263,235998,1,4,0:0:0:0:
421,222,236062,2,0,L|489:222,2,48.0000018310548,0|8|0,0:0|0:0|0:0,0:0:0:0:
269,161,236253,2,0,L|338:162,1,48.0000018310548,0|0,0:0|0:0,0:0:0:0:
34,136,236381,5,4,0:0:0:0:
256,64,236508,1,0,0:0:0:0:
478,136,236636,1,8,0:0:0:0:
34,136,236764,1,0,0:0:0:0:
478,136,236891,6,0,L|476:72,1,48.0000018310548,2|0,0:0|0:0,0:0:0:0:
256,64,237019,2,0,L|254:0,1,48.0000018310548,4|0,0:0|0:0,0:0:0:0:
34,136,237147,2,0,L|36:72,1,48.0000018310548,8|0,0:0|0:0,0:0:0:0:
478,136,237274,2,0,L|476:72,1,48.0000018310548,8|0,0:0|0:0,0:0:0:0:
238,96,237402,6,0,L|170:96,1,48.0000018310548,4|0,0:2|0:0,0:0:0:0:
365,174,237530,1,0,0:0:0:0:
194,191,237594,1,0,0:0:0:0:
26,210,237658,2,0,L|99:209,1,48.0000018310548,8|0,0:0|0:0,0:0:0:0:
262,230,237785,2,0,L|327:228,1,48.0000018310548,0|0,0:0|0:0,0:0:0:0:
137,309,237913,6,0,L|74:309,1,48.0000018310548,2|0,0:0|0:0,0:0:0:0:
244,263,238041,1,4,0:0:0:0:
396,206,238105,2,0,L|464:206,2,48.0000018310548,0|8|0,0:0|0:0|0:0,0:0:0:0:
242,161,238296,2,0,L|326:162,1,48.0000018310548,0|0,0:0|0:0,0:0:0:0:
478,136,238424,5,4,0:0:0:0:
34,136,238551,1,0,0:0:0:0:
256,64,238679,1,8,0:0:0:0:
478,136,238806,1,0,0:0:0:0:
34,136,238934,5,2,0:0:0:0:
315,183,239062,1,4,0:0:0:0:
451,226,239125,1,0,0:0:0:0:
231,215,239189,1,8,0:0:0:0:
95,258,239252,1,0,0:0:0:0:
231,215,239317,2,0,L|159:215,1,48.0000018310548,8|0,0:0|0:0,0:0:0:0:
411,151,239445,6,0,L|477:150,1,48.0000018310548,4|0,0:2|0:0,0:0:0:0:
315,85,239572,1,0,0:0:0:0:
172,134,239636,1,0,0:0:0:0:
317,225,239700,2,0,L|251:229,1,48.0000018310548,8|0,0:0|0:0,0:0:0:0:
413,301,239828,2,0,L|476:303,1,48.0000018310548,0|0,0:0|0:0,0:0:0:0:
221,339,239955,6,0,L|138:339,1,48.0000018310548,2|0,0:0|0:0,0:0:0:0:
325,284,240083,1,4,0:0:0:0:
170,223,240147,1,0,0:0:0:0:
217,223,240210,1,8,0:0:0:0:
265,223,240274,1,0,0:0:0:0:
455,238,240338,6,0,B|372:23|372:23|98:20,1,460.7999859375,2|4,0:0|0:0,0:0:0:0:
400,284,240721,2,0,L|76:282,3,294.400005615234,8|0|2|4,0:0|0:0|0:0|0:0,0:0:0:0:
440,204,241232,1,8,0:0:0:0:
72,204,241359,1,8,0:0:0:0:
337,138,241487,6,0,L|273:139,1,48.0000018310548,4|0,0:2|0:0,0:0:0:0:
137,108,241615,1,0,0:0:0:0:
285,67,241679,1,0,0:0:0:0:
136,203,241742,2,0,L|71:203,1,48.0000018310548,8|0,0:0|0:0,0:0:0:0:
278,260,241870,2,0,L|348:261,1,48.0000018310548,0|0,0:0|0:0,0:0:0:0:
182,310,241998,5,2,0:0:0:0:
43,348,242062,1,0,0:0:0:0:
312,277,242125,2,0,L|382:278,1,48.0000018310548,4|0,0:0|0:0,0:0:0:0:
216,327,242253,1,8,0:0:0:0:
77,365,242317,1,0,0:0:0:0:
296,327,242381,1,0,0:0:0:0:
435,365,242445,1,0,0:0:0:0:
256,192,242508,5,4,0:0:0:0:
17,240,242636,2,0,L|154:238,1,96.0000036621095,0|8,0:0|0:0,0:0:0:0:
449,189,242891,1,0,0:0:0:0:
63,189,243019,5,2,0:0:0:0:
382,127,243147,2,0,L|424:129,2,24.0000009155274,4|0|0,0:0|0:0|0:0,0:0:0:0:
130,127,243274,2,0,L|88:129,2,24.0000009155274,8|0|0,0:0|0:0|0:0,0:0:0:0:
382,127,243402,1,8,0:0:0:0:
405,127,243433,1,0,0:0:0:0:
429,128,243465,1,0,0:0:0:0:
238,96,243530,6,0,L|170:96,1,48.0000018310548,4|0,0:2|0:0,0:0:0:0:
365,174,243658,1,0,0:0:0:0:
194,191,243722,1,0,0:0:0:0:
26,210,243786,2,0,L|99:209,1,48.0000018310548,8|0,0:0|0:0,0:0:0:0:
262,230,243913,2,0,L|327:228,1,48.0000018310548,0|0,0:0|0:0,0:0:0:0:
137,309,244041,6,0,L|74:309,1,48.0000018310548,2|0,0:0|0:0,0:0:0:0:
244,263,244169,1,4,0:0:0:0:
91,222,244233,2,0,L|23:222,2,48.0000018310548,0|8|0,0:0|0:0|0:0,0:0:0:0:
243,161,244424,2,0,L|174:162,1,48.0000018310548,0|0,0:0|0:0,0:0:0:0:
478,136,244552,5,4,0:0:0:0:
256,64,244679,1,0,0:0:0:0:
34,136,244807,1,8,0:0:0:0:
143,73,244822,1,0,0:0:0:0:
478,136,244935,1,0,0:0:0:0:
134,132,245062,5,2,0:0:0:0:
22,136,245078,1,0,0:0:0:0:
196,59,245189,1,4,0:0:0:0:
378,132,245317,1,8,0:0:0:0:
490,136,245333,1,0,0:0:0:0:
28,139,245445,1,8,0:0:0:0:
345,70,245572,5,4,0:2:0:0:
475,69,245588,1,0,0:0:0:0:
490,136,245636,1,0,0:0:0:0:
341,190,245701,1,0,0:0:0:0:
199,233,245765,1,0,0:0:0:0:
368,281,245829,2,0,L|415:281,1,48.0000018310548,8|0,0:0|0:0,0:0:0:0:
250,230,245956,2,0,L|185:228,1,48.0000018310548,0|0,0:0|0:0,0:0:0:0:
377,119,246083,6,0,L|293:118,1,48.0000018310548,2|0,0:0|0:0,0:0:0:0:
173,130,246212,1,4,0:0:0:0:
324,196,246274,2,0,L|392:196,2,48.0000018310548,0|8|0,0:0|0:0|0:0,0:0:0:0:
167,164,246466,2,0,L|214:163,1,48.0000018310548
34,136,246593,5,4,0:0:0:0:
256,64,246722,1,0,0:0:0:0:
374,116,246850,1,8,0:0:0:0:
478,136,246865,1,0,0:0:0:0:
256,64,246977,1,0,0:0:0:0:
34,136,247104,5,2,0:0:0:0:
138,116,247119,1,0,0:0:0:0:
347,74,247231,1,4,0:0:0:0:
400,74,247296,1,0,0:0:0:0:
170,145,247359,1,8,0:0:0:0:
46,175,247375,1,0,0:0:0:0:
24,224,247423,1,0,0:0:0:0:
46,269,247487,2,0,L|104:269,1,48.0000018310548,8|0,0:0|0:0,0:0:0:0:
260,252,247615,5,4,0:2:0:0:
409,223,247631,1,0,0:0:0:0:
424,165,247679,1,0,0:0:0:0:
272,118,247742,1,0,0:0:0:0:
125,69,247806,1,0,0:0:0:0:
280,47,247870,2,0,L|362:47,1,48.0000018310548,8|0,0:0|0:0,0:0:0:0:
167,186,247998,2,0,L|76:185,1,48.0000018310548,0|0,0:0|0:0,0:0:0:0:
266,193,248125,5,2,0:0:0:0:
438,241,248189,1,0,0:0:0:0:
391,242,248252,1,4,0:0:0:0:
343,243,248316,1,0,0:0:0:0:
134,243,248381,2,0,L|48:248,1,48.0000018310548,8|0,0:0|0:0,0:0:0:0:
239,233,248508,6,0,B|137:25|137:25|411:22,1,460.7999859375,2|4,0:0|0:0,0:0:0:0:
112,284,248891,2,0,L|436:282,3,294.400005615234,8|0|2|4,0:0|0:0|0:0|0:0,0:0:0:0:
72,204,249403,1,8,0:0:0:0:
440,204,249530,1,8,0:0:0:0:
256,144,249593,1,0,0:0:0:0:
37,148,249657,5,4,0:2:0:0:
475,148,249785,1,0,0:0:0:0:
256,64,249913,1,8,0:0:0:0:
37,148,250040,2,0,B|257:85|257:85|512:151,1,460.7999859375,0|4,0:0|0:0,0:0:0:0:
37,148,250423,5,0,0:0:0:0:
475,148,250551,1,0,0:0:0:0:
256,64,250679,1,4,0:0:0:0:
37,148,250806,2,0,L|114:151,1,48.0000018310548,0|0,0:0|0:0,0:0:0:0:
286,159,250934,2,0,L|226:159,1,48.0000018310548,8|0,0:0|0:0,0:0:0:0:
32,217,251062,1,0,0:0:0:0:
235,235,251125,1,0,0:0:0:0:
417,266,251189,6,0,L|430:339,1,48.0000018310548,2|0,0:0|0:0,0:0:0:0:
231,284,251317,2,0,L|291:280,1,48.0000018310548,4|0,0:0|0:0,0:0:0:0:
94,267,251445,2,0,L|81:340,1,48.0000018310548,8|0,0:0|0:0,0:0:0:0:
250,291,251573,2,0,L|252:357,1,48.0000018310548,8|0,0:0|0:0,0:0:0:0:
418,254,251700,6,0,L|458:254,2,24.0000009155274,4|0|0,0:2|0:0|0:0,0:0:0:0:
288,214,251796,1,0,0:0:0:0:
161,182,251828,2,0,L|121:182,2,24.0000009155274,0|0|0,0:0|0:0|0:0,0:0:0:0:
288,214,251923,1,0,0:0:0:0:
486,210,251956,2,0,L|413:209,1,48.0000018310548,8|0,0:0|0:0,0:0:0:0:
250,230,252083,2,0,L|185:228,1,48.0000018310548,0|0,0:0|0:0,0:0:0:0:
375,309,252211,6,0,L|438:309,1,48.0000018310548,2|0,0:0|0:0,0:0:0:0:
268,263,252339,1,4,0:0:0:0:
421,222,252403,2,0,L|489:222,2,48.0000018310548,0|8|0,0:0|0:0|0:0,0:0:0:0:
269,161,252594,2,0,L|338:162,1,48.0000018310548,0|0,0:0|0:0,0:0:0:0:
82,95,252721,6,0,L|28:94,1,48.0000018310548,4|0,0:0|0:0,0:0:0:0:
256,48,252849,2,0,L|256:112,1,48.0000018310548,0|0,0:0|0:0,0:0:0:0:
477,94,252976,2,0,L|430:95,1,48.0000018310548,8|0,0:0|0:0,0:0:0:0:
34,136,253105,1,0,0:0:0:0:
478,136,253232,6,2,L|476:72,1,48.0000018310548,2|0,0:0|0:0,0:0:0:0:
256,64,253360,2,0,L|254:0,1,48.0000018310548,4|0,0:0|0:0,0:0:0:0:
34,136,253488,2,0,L|36:72,1,48.0000018310548,8|0,0:0|0:0,0:0:0:0:
478,136,253615,2,0,L|476:72,1,48.0000018310548,8|0,0:0|0:0,0:0:0:0:
238,96,253743,6,0,L|170:96,1,48.0000018310548,4|0,0:2|0:0,0:0:0:0:
365,174,253871,1,0,0:0:0:0:
194,191,253935,1,0,0:0:0:0:
26,210,253999,2,0,L|99:209,1,48.0000018310548,8|0,0:0|0:0,0:0:0:0:
262,230,254126,2,0,L|327:228,1,48.0000018310548,0|0,0:0|0:0,0:0:0:0:
137,309,254254,6,0,L|74:309,1,48.0000018310548,2|0,0:0|0:0,0:0:0:0:
244,263,254382,1,4,0:0:0:0:
396,206,254446,2,0,L|464:206,2,48.0000018310548,0|8|0,0:0|0:0|0:0,0:0:0:0:
242,161,254637,2,0,L|326:162,1,48.0000018310548,0|0,0:0|0:0,0:0:0:0:
497,116,254764,6,0,L|416:117,1,48.0000018310548,4|0,0:0|0:0,0:0:0:0:
15,116,254891,2,0,L|96:117,1,48.0000018310548,0|0,0:0|0:0,0:0:0:0:
246,63,255019,2,0,L|301:64,1,48.0000018310548,8|0,0:0|0:0,0:0:0:0:
478,136,255147,1,0,0:0:0:0:
34,136,255275,5,2,0:0:0:0:
315,183,255403,1,4,0:0:0:0:
451,226,255466,1,0,0:0:0:0:
231,215,255530,1,8,0:0:0:0:
95,258,255593,1,0,0:0:0:0:
231,215,255658,2,0,L|298:219,1,48.0000018310548,8|0,0:0|0:0,0:0:0:0:
88,33,255786,6,0,L|22:32,1,48.0000018310548,4|0,0:2|0:0,0:0:0:0:
187,82,255913,1,0,0:0:0:0:
44,131,255977,1,0,0:0:0:0:
226,212,256041,2,0,L|309:212,1,48.0000018310548,8|0,0:0|0:0,0:0:0:0:
95,289,256169,2,0,L|47:287,1,48.0000018310548,0|0,0:0|0:0,0:0:0:0:
244,335,256296,6,0,L|321:337,1,48.0000018310548,2|0,0:0|0:0,0:0:0:0:
160,280,256424,1,4,0:0:0:0:
298,235,256487,2,0,L|370:234,2,48.0000018310548,0|8|0,0:0|0:0|0:0,0:0:0:0:
455,238,256679,6,0,B|372:23|372:23|98:20,1,460.7999859375,2|4,0:0|0:0,0:0:0:0:
400,284,257062,2,0,L|76:282,3,294.400005615234,8|0|2|4,0:0|0:0|0:0|0:0,0:0:0:0:
440,204,257573,1,8,0:0:0:0:
72,204,257700,1,8,0:0:0:0:
337,138,257828,6,0,L|273:139,1,48.0000018310548,4|0,0:2|0:0,0:0:0:0:
137,108,257956,1,0,0:0:0:0:
285,67,258020,1,0,0:0:0:0:
136,203,258083,2,0,L|71:203,1,48.0000018310548,8|0,0:0|0:0,0:0:0:0:
278,260,258211,2,0,L|348:261,1,48.0000018310548,0|0,0:0|0:0,0:0:0:0:
182,310,258339,5,2,0:0:0:0:
43,348,258403,1,0,0:0:0:0:
312,277,258466,2,0,L|382:278,1,48.0000018310548,4|0,0:0|0:0,0:0:0:0:
216,327,258594,1,8,0:0:0:0:
77,365,258658,1,0,0:0:0:0:
296,327,258722,1,0,0:0:0:0:
435,365,258786,1,0,0:0:0:0:
256,192,258849,5,4,0:0:0:0:
17,240,258977,2,0,L|154:238,1,96.0000036621095,0|8,0:0|0:0,0:0:0:0:
495,240,259232,1,0,0:0:0:0:
15,183,259360,5,2,0:0:0:0:
382,127,259488,2,0,L|424:129,2,24.0000009155274,4|0|0,0:0|0:0|0:0,0:0:0:0:
130,127,259615,2,0,L|88:129,2,24.0000009155274,8|0|0,0:0|0:0|0:0,0:0:0:0:
382,127,259743,1,8,0:0:0:0:
405,127,259774,1,0,0:0:0:0:
429,128,259806,1,0,0:0:0:0:
238,96,259871,6,0,L|170:96,1,48.0000018310548,4|0,0:2|0:0,0:0:0:0:
365,174,259999,1,0,0:0:0:0:
194,191,260063,1,0,0:0:0:0:
26,210,260125,2,0,L|99:209,1,48.0000018310548,8|0,0:0|0:0,0:0:0:0:
262,230,260254,2,0,L|327:228,1,48.0000018310548,0|0,0:0|0:0,0:0:0:0:
137,309,260381,6,0,L|74:309,1,48.0000018310548,2|0,0:0|0:0,0:0:0:0:
244,263,260508,1,4,0:0:0:0:
91,222,260572,2,0,L|23:222,2,48.0000018310548,0|8|0,0:0|0:0|0:0,0:0:0:0:
269,160,260764,2,0,L|200:161,1,48.0000018310548
430,135,260891,6,0,L|478:136,1,48.0000018310548,4|0,0:0|0:0,0:0:0:0:
255,80,261019,2,0,L|254:19,1,48.0000018310548
34,136,261147,2,0,L|81:135,1,48.0000018310548,8|0,0:0|0:0,0:0:0:0:
478,136,261274,2,0,L|430:135,1,48.0000018310548
34,136,261402,6,0,L|83:137,1,48.0000018310548,2|0,0:0|0:0,0:0:0:0:
256,80,261530,1,4,0:0:0:0:
109,77,261593,1,0,0:0:0:0:
256,80,261657,1,8,0:0:0:0:
34,136,261785,1,8,0:0:0:0:
498,260,261913,6,0,L|474:258,1,24.0000009155274,4|0,0:2|0:0,0:0:0:0:
285,264,261976,2,0,L|241:262,1,24.0000009155274,0|0,0:0|0:0,0:0:0:0:
409,226,262040,2,0,L|471:226,1,48.0000018310548
301,139,262168,2,0,L|246:138,1,48.0000018310548,2|0,0:0|0:0,0:0:0:0:
14,260,262296,6,0,L|37:258,1,24.0000009155274,4|0,0:2|0:0,0:0:0:0:
227,264,262359,2,0,L|271:262,1,24.0000009155274,0|0,0:0|0:0,0:0:0:0:
103,226,262423,2,0,L|100:160,1,48.0000018310548,0|0,0:0|0:0,0:0:0:0:
254,140,262551,2,0,L|256:82,1,48.0000018310548,4|0,0:0|0:0,0:0:0:0:
90,67,262679,6,0,L|62:67,1,24.0000009155274,8|0,0:0|0:0,0:0:0:0:
228,37,262742,2,0,L|257:37,1,24.0000009155274,0|0,0:0|0:0,0:0:0:0:
422,67,262806,2,0,L|450:67,1,24.0000009155274,0|0,0:0|0:0,0:0:0:0:
284,37,262869,2,0,L|255:37,1,24.0000009155274,0|0,0:0|0:0,0:0:0:0:
112,192,262934,6,0,L|16:192,1,96.0000036621095,4|0,0:2|0:0,0:0:0:0:
144,144,263093,1,0,0:0:0:0:
272,112,263125,1,0,0:0:0:0:
400,96,263157,1,0,0:0:0:0:
208,320,263189,6,0,L|112:320,1,96.0000036621095,8|0,0:0|0:0,0:0:0:0:
240,272,263348,1,0,0:0:0:0:
368,240,263380,1,0,0:0:0:0:
496,224,263412,1,0,0:0:0:0:
256,192,263445,5,2,0:0:0:0:
132,184,263461,1,0,0:0:0:0:
33,171,263476,1,0,0:0:0:0:
9,153,263492,1,0,0:0:0:0:
0,121,263508,1,0,0:0:0:0:
9,153,263524,1,0,0:0:0:0:
33,171,263540,1,0,0:0:0:0:
132,184,263556,1,0,0:0:0:0:
256,192,263572,5,4,0:0:0:0:
380,184,263588,1,0,0:0:0:0:
479,171,263603,1,0,0:0:0:0:
503,153,263619,1,0,0:0:0:0:
512,121,263635,1,0,0:0:0:0:
503,153,263651,1,0,0:0:0:0:
479,171,263667,1,0,0:0:0:0:
380,184,263683,1,0,0:0:0:0:
256,192,263700,5,4,0:0:0:0:
64,231,263764,1,0,0:0:0:0:
256,192,263828,1,8,0:0:0:0:
448,231,263892,1,8,0:0:0:0:
6,340,263955,6,0,B|7:44|7:44|8:223,1,460.7999859375,4|4,0:0|0:1,0:0:0:0:
502,334,265104,5,4,0:1:0:0:
5,340,265232,1,8,0:1:0:0:
401,287,265359,1,4,0:1:0:0:
106,273,265487,2,0,L|104:203,1,48.0000018310548,0|0,0:0|0:0,0:0:0:0:
256,224,265615,2,0,L|256:160,1,48.0000018310548,4|0,0:1|0:0,0:0:0:0:
431,143,265742,1,8,0:1:0:0:
81,143,265870,1,0,0:0:0:0:
506,340,265998,6,0,B|505:44|505:44|504:223,1,460.7999859375,2|4,0:0|0:1,0:0:0:0:
10,334,267147,5,4,0:1:0:0:
507,340,267275,1,8,0:1:0:0:
130,246,267402,1,4,0:1:0:0:
382,246,267530,1,0,0:0:0:0:
12,201,267657,1,4,0:1:0:0:
256,96,267785,1,8,0:1:0:0:
500,201,267913,1,0,0:0:0:0:
15,23,268040,6,0,L|9:133,1,96.0000036621095,4|0,0:0|0:0,0:0:0:0:
128,148,268296,1,8,0:1:0:0:
15,23,268423,2,0,B|8:120|8:120|135:123,2,192.000007324219,4|4|8,0:1|0:1|0:1,0:0:0:0:
388,113,269062,6,0,L|323:115,1,48.0000018310548,4|0,0:1|0:0,0:0:0:0:
124,113,269189,1,4,0:1:0:0:
414,185,269317,1,8,0:1:0:0:
80,267,269445,2,0,L|134:268,1,48.0000018310548,4|0,0:1|0:0,0:0:0:0:
432,267,269572,2,0,L|378:268,1,48.0000018310548,0|0,0:0|0:0,0:0:0:0:
202,259,269700,2,0,L|258:259,1,48.0000018310548,4|0,0:1|0:0,0:0:0:0:
439,214,269828,2,0,L|469:210,2,24.0000009155274,0|0|0,0:0|0:0|0:0,0:0:0:0:
256,192,269923,1,0,0:0:0:0:
73,214,269955,2,0,L|43:210,2,24.0000009155274,8|0|0,0:1|0:0|0:0,0:0:0:0:
497,23,270083,6,0,L|503:133,1,96.0000036621095,4|0,0:0|0:0,0:0:0:0:
384,148,270339,1,8,0:1:0:0:
497,23,270466,2,0,B|504:120|504:120|377:123,2,192.000007324219,4|4|8,0:1|0:1|0:1,0:0:0:0:
213,68,271104,5,2,0:0:0:0:
101,86,271120,1,0,0:0:0:0:
299,68,271232,1,0,0:0:0:0:
411,86,271248,1,0,0:0:0:0:
149,158,271359,1,2,0:0:0:0:
37,176,271375,1,0,0:0:0:0:
363,158,271487,1,2,0:0:0:0:
475,176,271503,1,0,0:0:0:0:
502,273,271615,5,0,0:0:0:0:
475,176,271742,1,2,0:0:0:0:
363,158,271758,1,0,0:0:0:0:
256,146,271870,1,0,0:0:0:0:
53,175,271998,1,2,0:0:0:0:
165,157,272014,1,0,0:0:0:0:
467,336,272125,6,0,L|474:203,1,96.0000036621095,4|0,0:2|0:0,0:0:0:0:
145,210,272381,1,8,0:0:0:0:
367,210,272508,1,0,0:0:0:0:
45,336,272636,1,2,0:0:0:0:
42,288,272699,1,0,0:0:0:0:
39,240,272763,1,0,0:0:0:0:
283,170,272891,1,8,0:0:0:0:
235,172,272954,1,0,0:0:0:0:
283,170,273018,1,0,0:0:0:0:
45,336,273147,6,0,L|38:203,1,96.0000036621095,4|0,0:0|0:0,0:0:0:0:
367,210,273403,1,8,0:0:0:0:
145,210,273530,1,0,0:0:0:0:
467,336,273658,1,2,0:0:0:0:
469,288,273721,1,0,0:0:0:0:
472,240,273785,1,0,0:0:0:0:
229,170,273913,1,8,0:0:0:0:
277,172,273976,1,0,0:0:0:0:
323,170,274040,1,0,0:0:0:0:
123,77,274168,6,0,L|21:75,1,96.0000036621095,4|0,0:2|0:0,0:0:0:0:
294,80,274423,1,8,0:0:0:0:
28,170,274551,1,0,0:0:0:0:
303,268,274679,2,0,L|367:269,2,48.0000018310548,2|0|0,0:0|0:0|0:0,0:0:0:0:
32,274,274934,2,0,L|96:275,2,48.0000018310548,8|0|0,0:0|0:0|0:0,0:0:0:0:
389,77,275189,6,0,L|491:75,1,96.0000036621095,4|0,0:0|0:0,0:0:0:0:
218,80,275444,1,8,0:0:0:0:
484,170,275572,2,0,L|353:171,1,96.0000036621095,0|2,0:0|0:0,0:0:0:0:
28,170,275828,2,0,L|83:171,1,48.0000018310548,0|0,0:0|0:0,0:0:0:0:
256,160,275955,1,8,0:0:0:0:
111,198,276019,1,0,0:0:0:0:
256,160,276083,1,0,0:0:0:0:
401,198,276147,1,0,0:0:0:0:
111,331,276211,6,0,L|30:330,1,48.0000018310548,4|0,0:2|0:0,0:0:0:0:
296,292,276338,2,0,L|379:288,1,48.0000018310548,0|0,0:0|0:0,0:0:0:0:
165,260,276466,2,0,L|84:259,1,48.0000018310548,8|0,0:0|0:0,0:0:0:0:
350,221,276593,2,0,L|433:217,1,48.0000018310548,0|0,0:0|0:0,0:0:0:0:
234,143,276721,5,2,0:0:0:0:
365,109,276785,1,0,0:0:0:0:
497,58,276849,2,0,L|432:56,1,48.0000018310548,0|0,0:0|0:0,0:0:0:0:
210,96,276976,1,8,0:0:0:0:
341,62,277040,1,0,0:0:0:0:
201,15,277104,2,0,L|136:13,1,48.0000018310548,0|0,0:0|0:0,0:0:0:0:
401,331,277232,6,0,L|482:330,1,48.0000018310548,4|0,0:0|0:0,0:0:0:0:
216,292,277359,2,0,L|133:288,1,48.0000018310548,0|0,0:0|0:0,0:0:0:0:
347,260,277487,2,0,L|428:259,1,48.0000018310548,8|0,0:0|0:0,0:0:0:0:
162,221,277614,2,0,L|79:217,1,48.0000018310548,0|0,0:0|0:0,0:0:0:0:
278,143,277742,5,2,0:0:0:0:
147,109,277806,1,0,0:0:0:0:
15,58,277870,2,0,L|80:56,1,48.0000018310548,0|0,0:0|0:0,0:0:0:0:
302,96,277997,1,8,0:0:0:0:
16,167,278125,1,8,0:0:0:0:
306,216,278253,5,4,0:0:0:0:
412,189,278285,2,0,L|417:158,1,24.0000009155274,0|0,0:0|0:0,0:0:0:0:
206,216,278381,1,0,0:0:0:0:
100,189,278413,2,0,L|95:158,1,24.0000009155274,0|0,0:0|0:0,0:0:0:0:
330,281,278508,5,8,0:0:0:0:
454,255,278540,2,0,L|459:224,1,24.0000009155274,0|0,0:0|0:0,0:0:0:0:
182,281,278636,1,0,0:0:0:0:
58,255,278668,2,0,L|53:224,1,24.0000009155274,0|0,0:0|0:0,0:0:0:0:
343,140,278764,5,2,0:0:0:0:
470,112,278796,2,0,L|479:78,2,24.0000009155274,0|0|0,0:0|0:0|0:0,0:0:0:0:
169,140,278891,1,0,0:0:0:0:
42,112,278923,2,0,L|33:78,2,24.0000009155274,0|0|0,0:0|0:0|0:0,0:0:0:0:
343,140,279019,5,8,0:0:0:0:
470,112,279051,2,0,L|479:78,2,24.0000009155274,0|0|0,0:0|0:0|0:0,0:0:0:0:
169,140,279147,1,0,0:0:0:0:
42,112,279179,2,0,L|33:78,2,24.0000009155274,0|0|0,0:0|0:0|0:0,0:0:0:0:
256,224,279274,6,0,L|373:221,2,96.0000036621095,2|0|0,0:0|0:0|0:0,0:0:0:0:
499,163,279657,2,0,L|291:159,1,192.000007324219,2|0,0:0|0:0,0:0:0:0:
13,141,280040,1,2,0:0:0:0:
496,80,280168,1,0,0:0:0:0:
63,278,280296,5,4,3:0:0:0:
235,247,280359,1,0,3:0:0:0:
410,206,280423,1,0,3:0:0:0:
217,174,280486,1,0,3:0:0:0:
20,131,280551,1,0,3:0:0:0:
449,278,280679,5,4,3:1:0:0:
277,247,280742,1,0,3:0:0:0:
102,206,280806,1,0,3:0:0:0:
295,174,280869,1,0,3:0:0:0:
492,131,280934,1,0,3:0:0:0:
509,73,280998,1,0,0:0:0:0:
477,23,281062,1,8,0:0:0:0:
412,17,281125,1,0,0:0:0:0:
298,16,281157,1,0,0:0:0:0:
126,58,281189,1,0,0:0:0:0:
256,32,281253,1,0,0:0:0:0:
416,97,281317,5,2,3:1:0:0:
286,71,281381,1,0,3:0:0:0:
96,97,281445,1,0,3:0:0:0:
226,71,281509,1,0,3:0:0:0:
488,183,281572,1,2,3:1:0:0:
390,166,281604,1,0,0:0:0:0:
292,147,281636,1,0,0:0:0:0:
24,183,281700,1,2,0:0:0:0:
122,166,281732,1,0,0:0:0:0:
220,147,281764,1,0,0:0:0:0:
466,272,281828,6,0,L|500:272,2,24.0000009155274,2|0|0,0:0|0:0|0:0,0:0:0:0:
256,256,281923,1,0,0:0:0:0:
46,272,281955,2,0,L|12:272,2,24.0000009155274,2|0|0,0:0|0:0|0:0,0:0:0:0:
256,256,282050,1,0,0:0:0:0:
474,336,282083,2,0,L|510:336,1,24.0000009155274,2|0,0:0|0:0,0:0:0:0:
38,336,282147,2,0,L|2:336,1,24.0000009155274,0|0,0:0|0:0,0:0:0:0:
474,336,282211,2,0,L|510:336,1,24.0000009155274,2|0,0:0|0:0,0:0:0:0:
38,336,282275,2,0,L|2:336,1,24.0000009155274,0|0,0:0|0:0,0:0:0:0:
256,336,282338,6,0,P|327:311|349:243,2,144.000005493164,8|0|0,0:0|0:0|0:0,0:0:0:0:
256,336,283359,6,0,P|185:311|163:243,2,144.000005493164,8|0|0,0:0|0:0|0:0,0:0:0:0:
256,208,284125,2,0,L|277:212,2,12.0000004577637,2|0|0,0:0|0:0|0:0,0:0:0:0:
256,160,284253,1,0,0:0:0:0:
474,184,284381,6,0,P|457:119|371:92,2,144.000005493164,8|0|0,0:0|0:0|0:0,0:0:0:0:
38,184,285402,6,0,P|55:119|141:92,2,144.000005493164,8|0|0,0:0|0:0|0:0,0:0:0:0:
256,208,286168,2,0,L|235:212,2,12.0000004577637,2|0|0,0:0|0:0|0:0,0:0:0:0:
256,160,286296,1,0,0:0:0:0:
179,262,286423,6,0,P|128:223|194:186,2,144.000005493164,8|0|0,0:0|0:0|0:0,0:0:0:0:
333,262,287445,6,0,P|384:223|318:186,2,144.000005493164,8|0|0,0:0|0:0|0:0,0:0:0:0:
226,141,288211,1,2,0:0:0:0:
256,128,288226,1,0,0:0:0:0:
286,141,288242,1,0,0:0:0:0:
256,128,288274,1,0,0:0:0:0:
130,136,288466,6,0,P|58:147|0:214,2,144.000005493164,8|0|0,0:0|0:0|0:0,0:0:0:0:
382,136,289487,6,0,P|454:147|512:214,2,144.000005493164,8|0|2,0:0|0:0|0:0,0:0:0:0:
356,140,289902,1,0,0:0:0:0:
225,154,289934,2,0,L|182:157,1,24.0000009155274,0|0,0:0|0:0,0:0:0:0:
342,236,289998,6,0,L|394:236,1,48.0000018310548,0|0,0:0|0:0,0:0:0:0:
130,330,290189,1,2,0:0:0:0:
256,320,290221,1,0,0:0:0:0:
382,330,290253,1,0,0:0:0:0:
314,221,290381,2,0,L|251:221,1,48.0000018310548,2|0,0:0|0:0,0:0:0:0:
458,170,290508,5,2,0:0:0:0:
370,123,290636,2,0,L|362:86,1,24.0000009155274,2|0,0:0|0:0,0:0:0:0:
221,70,290700,1,0,0:0:0:0:
200,163,290891,5,2,0:0:0:0:
69,202,290955,1,0,0:0:0:0:
58,295,291274,5,2,0:0:0:0:
2,314,291338,1,0,0:0:0:0:
34,313,291354,1,0,0:0:0:0:
