osu file format v14

[General]
AudioFilename: audio.mp3
AudioLeadIn: 0
PreviewTime: 85346
Countdown: 1
SampleSet: Normal
StackLeniency: 0.7
Mode: 3
LetterboxInBreaks: 0
SpecialStyle: 0
WidescreenStoryboard: 0

[Editor]
DistanceSpacing: 0.7
BeatDivisor: 4
GridSize: 4
TimelineZoom: 3.099999

[Metadata]
Title:GuarDina
TitleUnicode:γuarδina
Artist:Aoi
ArtistUnicode:アーティスト
Creator:Ibrahim
Version:Dawn
Source:Arcaea
Tags:
BeatmapID:1694021
BeatmapSetID:807113

[Difficulty]
HPDrainRate:8.3
CircleSize:4
OverallDifficulty:8.3
ApproachRate:5
SliderMultiplier:1.4
SliderTickRate:1

[Events]
//Background and Video events
0,0,"e.jpg",0,0
//Break Periods
//Storyboard Layer 0 (Background)
//Storyboard Layer 1 (Fail)
//Storyboard Layer 2 (Pass)
//Storyboard Layer 3 (Foreground)
//Storyboard Sound Samples

[TimingPoints]
4851,297.029702970297,4,1,0,100,1,0
23860,-71.4285714285714,4,1,0,100,0,0
24157,-166.666666666667,4,1,0,100,0,0
24306,-71.4285714285714,4,1,0,100,0,0
24603,-166.666666666667,4,1,0,100,0,0
24751,-71.4285714285714,4,1,0,100,0,0
24900,-166.666666666667,4,1,0,100,0,0
25049,-100,4,1,0,100,0,0
26237,-71.4285714285714,4,1,0,100,0,0
26534,-166.666666666667,4,1,0,100,0,0
26682,-71.4285714285714,4,1,0,100,0,0
26979,-166.666666666667,4,1,0,100,0,0
27128,-71.4285714285714,4,1,0,100,0,0
27202,-166.666666666667,4,1,0,100,0,0
27276,-100,4,1,0,100,0,0
28613,-71.4285714285714,4,1,0,100,0,0
28910,-166.666666666667,4,1,0,100,0,0
29058,-71.4285714285714,4,1,0,100,0,0
29355,-166.666666666667,4,1,0,100,0,0
29504,-71.4285714285714,4,1,0,100,0,0
29652,-166.666666666667,4,1,0,100,0,0
29801,-100,4,1,0,100,0,0
30989,-71.4285714285714,4,1,0,100,0,0
31286,-166.666666666667,4,1,0,100,0,0
31435,-71.4285714285714,4,1,0,100,0,0
31732,-166.666666666667,4,1,0,100,0,0
31880,-100,4,1,0,100,0,0
33365,-100,4,1,0,100,0,1
38118,-71.4285714285714,4,1,0,100,0,1
38229,-166.666666666667,4,1,0,100,0,1
38341,-71.4285714285714,4,1,0,100,0,1
38452,-166.666666666667,4,1,0,100,0,1
38563,-100,4,1,0,100,0,1
39306,-71.4285714285714,4,1,0,100,0,1
39417,-166.666666666667,4,1,0,100,0,1
39529,-71.4285714285714,4,1,0,100,0,1
39640,-166.666666666667,4,1,0,100,0,1
39751,-100,4,1,0,100,0,1
42870,-100,4,1,0,100,0,0
65445,-71.4285714285714,4,1,0,100,0,0
65556,-166.666666666667,4,1,0,100,0,0
65667,-71.4285714285714,4,1,0,100,0,0
65779,-166.666666666667,4,1,0,100,0,0
65890,-100,4,1,0,100,0,0
83860,-71.4285714285714,4,1,0,100,0,0
83898,-166.666666666667,4,1,0,100,0,0
83935,-71.4285714285714,4,1,0,100,0,0
83972,-166.666666666667,4,1,0,100,0,0
84009,-71.4285714285714,4,1,0,100,0,0
84046,-166.666666666667,4,1,0,100,0,0
84083,-71.4285714285714,4,1,0,100,0,0
84120,-166.666666666667,4,1,0,100,0,0
84157,-100,4,1,0,100,0,0
85346,-41.6666666666667,4,1,0,100,0,0
85420,-166.666666666667,4,1,0,100,0,0
85643,-100,4,1,0,100,0,1
91880,-71.4285714285714,4,1,0,100,0,1
92029,-166.666666666667,4,1,0,100,0,1
92177,-71.4285714285714,4,1,0,100,0,1
92289,-166.666666666667,4,1,0,100,0,1
92400,-71.4285714285714,4,1,0,100,0,1
92511,-166.666666666667,4,1,0,100,0,1
92623,-100,4,1,0,100,0,1
94553,-71.4285714285714,4,1,0,100,0,1
94665,-166.666666666667,4,1,0,100,0,1
94776,-71.4285714285714,4,1,0,100,0,1
94888,-166.666666666667,4,1,0,100,0,1
94999,-71.4285714285714,4,1,0,100,0,1
95073,-166.666666666667,4,1,0,100,0,1
95148,-100,4,1,0,100,0,1
97524,-71.4285714285714,4,1,0,100,0,1
97635,-166.666666666667,4,1,0,100,0,1
97747,-71.4285714285714,4,1,0,100,0,1
97858,-166.666666666667,4,1,0,100,0,1
97969,-71.4285714285714,4,1,0,100,0,1
98044,-166.666666666667,4,1,0,100,0,1
98118,-71.4285714285714,4,1,0,100,0,1
98229,-166.666666666667,4,1,0,100,0,1
98341,-100,4,1,0,100,0,1
98712,-71.4285714285714,4,1,0,100,0,1
98823,-166.666666666667,4,1,0,100,0,1
98935,-71.4285714285714,4,1,0,100,0,1
99046,-166.666666666667,4,1,0,100,0,1
99157,-71.4285714285714,4,1,0,100,0,1
99269,-166.666666666667,4,1,0,100,0,1
99380,-71.4285714285714,4,1,0,100,0,1
99492,-166.666666666667,4,1,0,100,0,1
99603,-100,4,1,0,100,0,1
103464,-71.4285714285714,4,1,0,100,0,1
103501,-166.666666666667,4,1,0,100,0,1
103539,-71.4285714285714,4,1,0,100,0,1
103576,-166.666666666667,4,1,0,100,0,1
103613,-71.4285714285714,4,1,0,100,0,1
103650,-166.666666666667,4,1,0,100,0,1
103687,-71.4285714285714,4,1,0,100,0,1
103724,-166.666666666667,4,1,0,100,0,1
103761,-71.4285714285714,4,1,0,100,0,1
103836,-166.666666666667,4,1,0,100,0,1
103910,-71.4285714285714,4,1,0,100,0,1
103947,-166.666666666667,4,1,0,100,0,1
103984,-71.4285714285714,4,1,0,100,0,1
104021,-166.666666666667,4,1,0,100,0,1
104058,-71.4285714285714,4,1,0,100,0,1
104096,-166.666666666667,4,1,0,100,0,1
104133,-71.4285714285714,4,1,0,100,0,1
104170,-166.666666666667,4,1,0,100,0,1
104207,-71.4285714285714,4,1,0,100,0,1
104281,-166.666666666667,4,1,0,100,0,1
104355,-71.4285714285714,4,1,0,100,0,1
104393,-166.666666666667,4,1,0,100,0,1
104430,-71.4285714285714,4,1,0,100,0,1
104467,-166.666666666667,4,1,0,100,0,1
104504,-71.4285714285714,4,1,0,100,0,1
104541,-166.666666666667,4,1,0,100,0,1
104578,-71.4285714285714,4,1,0,100,0,1
104615,-166.666666666667,4,1,0,100,0,0
104652,-100,4,1,0,100,0,0
108811,-66.6666666666667,4,1,0,100,0,0
108860,-200,4,1,0,100,0,0
108910,-66.6666666666667,4,1,0,100,0,0
108959,-200,4,1,0,100,0,0
109009,-66.6666666666667,4,1,0,100,0,0
109058,-200,4,1,0,100,0,0
109108,-40,4,1,0,100,0,0
109182,-200,4,1,0,100,0,0
109405,-100,4,1,0,100,0,0
113712,-71.4285714285714,4,1,0,100,0,0
113786,-166.666666666667,4,1,0,100,0,0
113860,-71.4285714285714,4,1,0,100,0,0
113935,-166.666666666667,4,1,0,100,0,0
114009,-71.4285714285714,4,1,0,100,0,0
114083,-166.666666666667,4,1,0,100,0,0
114157,-100,4,1,0,100,0,1
116534,-71.4285714285714,4,1,0,100,0,1
116645,-166.666666666667,4,1,0,100,0,1
116756,-71.4285714285714,4,1,0,100,0,1
116868,-166.666666666667,4,1,0,100,0,1
116979,-100,4,1,0,100,0,1
117128,-71.4285714285714,4,1,0,100,0,1
117239,-166.666666666667,4,1,0,100,0,1
117351,-100,4,1,0,100,0,1
117722,-71.4285714285714,4,1,0,100,0,1
117833,-166.666666666667,4,1,0,100,0,1
117945,-71.4285714285714,4,1,0,100,0,1
118056,-166.666666666667,4,1,0,100,0,1
118167,-71.4285714285714,4,1,0,100,0,1
118279,-166.666666666667,4,1,0,100,0,1
118390,-71.4285714285714,4,1,0,100,0,1
118501,-166.666666666667,4,1,0,100,0,1
118613,-100,4,1,0,100,0,1
123959,-100,4,1,0,100,0,0
125593,-71.4285714285714,4,1,0,100,0,0
125704,-166.666666666667,4,1,0,100,0,0
125816,-71.4285714285714,4,1,0,100,0,0
125927,-166.666666666667,4,1,0,100,0,0
126039,-100,4,1,0,100,0,0

[HitObjects]
64,192,2474,128,0,4851:0:0:0:0:
192,192,4702,1,0,0:0:0:0:
320,192,4776,1,0,0:0:0:0:
448,192,4851,1,0,0:0:0:0:
192,192,4851,1,0,0:0:0:0:
320,192,4999,1,0,0:0:0:0:
320,192,5148,1,0,0:0:0:0:
64,192,5296,1,0,0:0:0:0:
192,192,5593,1,0,0:0:0:0:
448,192,5890,1,0,0:0:0:0:
192,192,6633,1,0,0:0:0:0:
320,192,6930,1,0,0:0:0:0:
64,192,7227,1,0,0:0:0:0:
320,192,7375,1,0,0:0:0:0:
192,192,7524,1,0,0:0:0:0:
448,192,7672,1,0,0:0:0:0:
320,192,7969,1,0,0:0:0:0:
64,192,8266,1,0,0:0:0:0:
192,192,9009,1,0,0:0:0:0:
320,192,9306,1,0,0:0:0:0:
64,192,9603,1,0,0:0:0:0:
448,192,9751,1,0,0:0:0:0:
192,192,9900,1,0,0:0:0:0:
320,192,10049,1,0,0:0:0:0:
448,192,10123,1,0,0:0:0:0:
64,192,10346,1,0,0:0:0:0:
192,192,10494,1,0,0:0:0:0:
448,192,10643,1,0,0:0:0:0:
320,192,10940,1,0,0:0:0:0:
192,192,11014,1,0,0:0:0:0:
64,192,11088,1,0,0:0:0:0:
320,192,11237,1,0,0:0:0:0:
64,192,11385,1,0,0:0:0:0:
448,192,11534,1,0,0:0:0:0:
64,192,11682,1,0,0:0:0:0:
320,192,11831,1,0,0:0:0:0:
192,192,12128,1,0,0:0:0:0:
448,192,12276,1,0,0:0:0:0:
64,192,12425,1,0,0:0:0:0:
192,192,12425,1,0,0:0:0:0:
320,192,12722,1,0,0:0:0:0:
192,192,12870,1,0,0:0:0:0:
448,192,13019,1,0,0:0:0:0:
192,192,13316,1,0,0:0:0:0:
320,192,13464,1,0,0:0:0:0:
64,192,13613,1,0,0:0:0:0:
448,192,13613,1,0,0:0:0:0:
64,192,13910,1,0,0:0:0:0:
320,192,14058,1,0,0:0:0:0:
64,192,14207,1,0,0:0:0:0:
192,192,14281,1,0,0:0:0:0:
320,192,14355,1,0,0:0:0:0:
448,192,14355,1,0,0:0:0:0:
64,192,14355,1,0,0:0:0:0:
192,192,14504,1,0,0:0:0:0:
448,192,14652,1,0,0:0:0:0:
64,192,14801,1,0,0:0:0:0:
192,192,14950,1,0,0:0:0:0:
320,192,15024,1,0,0:0:0:0:
448,192,15098,1,0,0:0:0:0:
64,192,15247,1,0,0:0:0:0:
320,192,15395,1,0,0:0:0:0:
192,192,15544,1,0,0:0:0:0:
320,192,15618,1,0,0:0:0:0:
64,192,15692,1,0,0:0:0:0:
448,192,15841,1,0,0:0:0:0:
192,192,15989,1,0,0:0:0:0:
320,192,16138,1,0,0:0:0:0:
192,192,16212,1,0,0:0:0:0:
64,192,16286,1,0,0:0:0:0:
448,192,16435,1,0,0:0:0:0:
320,192,16583,1,0,0:0:0:0:
192,192,16583,1,0,0:0:0:0:
64,192,16583,1,0,0:0:0:0:
64,192,16732,1,0,0:0:0:0:
192,192,16732,1,0,0:0:0:0:
448,192,16732,1,0,0:0:0:0:
320,192,16880,1,0,0:0:0:0:
64,192,17029,1,0,0:0:0:0:
448,192,17177,1,0,0:0:0:0:
320,192,17326,1,0,0:0:0:0:
192,192,17400,1,0,0:0:0:0:
448,192,17474,1,0,0:0:0:0:
64,192,17623,1,0,0:0:0:0:
192,192,17697,1,0,0:0:0:0:
448,192,17771,1,0,0:0:0:0:
320,192,17846,1,0,0:0:0:0:
192,192,17920,1,0,0:0:0:0:
64,192,17920,1,0,0:0:0:0:
448,192,17920,1,0,0:0:0:0:
320,192,18068,1,0,0:0:0:0:
320,192,18217,1,0,0:0:0:0:
64,192,18365,1,0,0:0:0:0:
192,192,18365,1,0,0:0:0:0:
448,192,18365,1,0,0:0:0:0:
320,192,18514,1,0,0:0:0:0:
192,192,18588,1,0,0:0:0:0:
64,192,18662,1,0,0:0:0:0:
320,192,18662,1,0,0:0:0:0:
448,192,18662,1,0,0:0:0:0:
64,192,18811,1,0,0:0:0:0:
192,192,18811,1,0,0:0:0:0:
448,192,18848,1,0,0:0:0:0:
320,192,18885,1,0,0:0:0:0:
192,192,18922,1,0,0:0:0:0:
64,192,18959,1,0,0:0:0:0:
448,192,18997,1,0,0:0:0:0:
320,192,19034,1,0,0:0:0:0:
192,192,19071,1,0,0:0:0:0:
64,192,19108,1,0,0:0:0:0:
448,192,19108,1,0,0:0:0:0:
320,192,19256,1,0,0:0:0:0:
192,192,19256,1,0,0:0:0:0:
64,192,19405,1,0,0:0:0:0:
192,192,19405,1,0,0:0:0:0:
448,192,19405,1,0,0:0:0:0:
448,192,19553,1,0,0:0:0:0:
320,192,19553,1,0,0:0:0:0:
320,192,19702,1,0,0:0:0:0:
192,192,19702,1,0,0:0:0:0:
64,192,19702,1,0,0:0:0:0:
64,192,19851,1,0,0:0:0:0:
320,192,19851,1,0,0:0:0:0:
192,192,19925,1,0,0:0:0:0:
64,192,19999,1,0,0:0:0:0:
448,192,19999,1,0,0:0:0:0:
320,192,19999,1,0,0:0:0:0:
192,192,20073,1,0,0:0:0:0:
320,192,20148,1,0,0:0:0:0:
448,192,20148,1,0,0:0:0:0:
192,192,20222,1,0,0:0:0:0:
64,192,20296,1,0,0:0:0:0:
320,192,20296,1,0,0:0:0:0:
448,192,20296,1,0,0:0:0:0:
192,192,20445,1,0,0:0:0:0:
64,192,20445,1,0,0:0:0:0:
192,192,20593,1,0,0:0:0:0:
320,192,20593,1,0,0:0:0:0:
448,192,20593,1,0,0:0:0:0:
448,192,20742,1,0,0:0:0:0:
64,192,20742,1,0,0:0:0:0:
64,192,20890,1,0,0:0:0:0:
192,192,20890,1,0,0:0:0:0:
320,192,20890,1,0,0:0:0:0:
448,192,21039,1,0,0:0:0:0:
320,192,21039,1,0,0:0:0:0:
192,192,21113,1,0,0:0:0:0:
64,192,21187,1,0,0:0:0:0:
448,192,21187,1,0,0:0:0:0:
320,192,21187,1,0,0:0:0:0:
192,192,21261,1,0,0:0:0:0:
448,192,21336,1,0,0:0:0:0:
64,192,21336,1,0,0:0:0:0:
320,192,21410,1,0,0:0:0:0:
448,192,21484,1,0,0:0:0:0:
64,192,21484,1,0,0:0:0:0:
192,192,21484,1,0,0:0:0:0:
448,192,21633,1,0,0:0:0:0:
320,192,21633,1,0,0:0:0:0:
192,192,21633,1,0,0:0:0:0:
320,192,21781,1,0,0:0:0:0:
192,192,21781,1,0,0:0:0:0:
64,192,21781,1,0,0:0:0:0:
64,192,21930,1,0,0:0:0:0:
448,192,21930,1,0,0:0:0:0:
320,192,21967,1,0,0:0:0:0:
192,192,22004,1,0,0:0:0:0:
64,192,22041,1,0,0:0:0:0:
320,192,22078,1,0,0:0:0:0:
448,192,22078,1,0,0:0:0:0:
192,192,22152,1,0,0:0:0:0:
64,192,22152,1,0,0:0:0:0:
320,192,22227,1,0,0:0:0:0:
448,192,22227,1,0,0:0:0:0:
192,192,22301,1,0,0:0:0:0:
64,192,22301,1,0,0:0:0:0:
448,192,22375,1,0,0:0:0:0:
320,192,22375,1,0,0:0:0:0:
192,192,22450,1,0,0:0:0:0:
64,192,22450,1,0,0:0:0:0:
320,192,22524,1,0,0:0:0:0:
448,192,22524,1,0,0:0:0:0:
192,192,22598,1,0,0:0:0:0:
64,192,22672,1,0,0:0:0:0:
320,192,22672,1,0,0:0:0:0:
448,192,22672,1,0,0:0:0:0:
192,192,22821,1,0,0:0:0:0:
64,192,22969,1,0,0:0:0:0:
192,192,22969,1,0,0:0:0:0:
448,192,22969,1,0,0:0:0:0:
320,192,23118,1,0,0:0:0:0:
192,192,23192,1,0,0:0:0:0:
64,192,23266,1,0,0:0:0:0:
448,192,23266,1,0,0:0:0:0:
320,192,23266,1,0,0:0:0:0:
192,192,23341,1,0,0:0:0:0:
64,192,23415,1,0,0:0:0:0:
448,192,23415,1,0,0:0:0:0:
320,192,23489,1,0,0:0:0:0:
192,192,23489,1,0,0:0:0:0:
64,192,23563,1,0,0:0:0:0:
448,192,23563,1,0,0:0:0:0:
192,192,23638,1,0,0:0:0:0:
320,192,23712,1,0,0:0:0:0:
448,192,23786,1,0,0:0:0:0:
64,192,23860,1,0,0:0:0:0:
192,192,23860,1,0,0:0:0:0:
320,192,23860,1,0,0:0:0:0:
64,192,24306,1,0,0:0:0:0:
192,192,24306,1,0,0:0:0:0:
448,192,24306,1,0,0:0:0:0:
64,192,24751,1,0,0:0:0:0:
320,192,24751,1,0,0:0:0:0:
448,192,24751,1,0,0:0:0:0:
192,192,25049,1,0,0:0:0:0:
320,192,25049,1,0,0:0:0:0:
448,192,25049,1,0,0:0:0:0:
64,192,25197,1,0,0:0:0:0:
448,192,25271,1,0,0:0:0:0:
64,192,25346,1,0,0:0:0:0:
192,192,25494,1,0,0:0:0:0:
320,192,25494,1,0,0:0:0:0:
320,192,25643,1,0,0:0:0:0:
64,192,25643,128,0,25940:0:0:0:0:
448,192,25643,128,0,25940:0:0:0:0:
192,192,25791,128,0,26088:0:0:0:0:
320,192,25940,128,0,26237:0:0:0:0:
448,192,26088,128,0,26237:0:0:0:0:
192,192,26237,1,0,0:0:0:0:
64,192,26237,1,0,0:0:0:0:
64,192,26682,1,0,0:0:0:0:
320,192,26682,1,0,0:0:0:0:
448,192,26682,1,0,0:0:0:0:
64,192,27128,1,0,0:0:0:0:
192,192,27128,1,0,0:0:0:0:
320,192,27128,1,0,0:0:0:0:
64,192,27276,1,0,0:0:0:0:
320,192,27276,1,0,0:0:0:0:
448,192,27276,1,0,0:0:0:0:
192,192,27425,1,0,0:0:0:0:
320,192,27425,1,0,0:0:0:0:
448,192,27425,1,0,0:0:0:0:
64,192,27499,1,0,0:0:0:0:
320,192,27573,1,0,0:0:0:0:
192,192,27648,1,0,0:0:0:0:
448,192,27722,1,0,0:0:0:0:
64,192,27722,1,0,0:0:0:0:
320,192,27796,1,0,0:0:0:0:
192,192,27870,1,0,0:0:0:0:
64,192,27870,1,0,0:0:0:0:
320,192,27945,1,0,0:0:0:0:
448,192,28019,1,0,0:0:0:0:
192,192,28019,1,0,0:0:0:0:
64,192,28019,1,0,0:0:0:0:
64,192,28167,1,0,0:0:0:0:
320,192,28167,1,0,0:0:0:0:
192,192,28167,1,0,0:0:0:0:
320,192,28316,1,0,0:0:0:0:
448,192,28316,1,0,0:0:0:0:
64,192,28464,1,0,0:0:0:0:
64,192,28613,1,0,0:0:0:0:
320,192,28613,1,0,0:0:0:0:
448,192,28613,1,0,0:0:0:0:
64,192,29058,1,0,0:0:0:0:
448,192,29058,1,0,0:0:0:0:
192,192,29058,1,0,0:0:0:0:
64,192,29504,1,0,0:0:0:0:
192,192,29504,1,0,0:0:0:0:
320,192,29504,1,0,0:0:0:0:
448,192,29801,1,0,0:0:0:0:
320,192,29801,1,0,0:0:0:0:
192,192,29801,1,0,0:0:0:0:
64,192,29875,1,0,0:0:0:0:
320,192,29950,1,0,0:0:0:0:
192,192,30024,1,0,0:0:0:0:
448,192,30098,1,0,0:0:0:0:
320,192,30247,1,0,0:0:0:0:
64,192,30247,1,0,0:0:0:0:
64,192,30395,1,0,0:0:0:0:
192,192,30395,1,0,0:0:0:0:
448,192,30395,1,0,0:0:0:0:
320,192,30469,1,0,0:0:0:0:
192,192,30544,1,0,0:0:0:0:
64,192,30618,1,0,0:0:0:0:
320,192,30692,1,0,0:0:0:0:
448,192,30692,1,0,0:0:0:0:
192,192,30766,1,0,0:0:0:0:
64,192,30841,1,0,0:0:0:0:
448,192,30841,1,0,0:0:0:0:
320,192,30915,1,0,0:0:0:0:
448,192,30989,1,0,0:0:0:0:
192,192,30989,1,0,0:0:0:0:
64,192,30989,1,0,0:0:0:0:
64,192,31435,1,0,0:0:0:0:
320,192,31435,1,0,0:0:0:0:
448,192,31435,1,0,0:0:0:0:
64,192,31880,1,0,0:0:0:0:
192,192,31880,1,0,0:0:0:0:
320,192,31954,1,0,0:0:0:0:
448,192,31954,1,0,0:0:0:0:
192,192,32029,1,0,0:0:0:0:
64,192,32029,1,0,0:0:0:0:
320,192,32103,1,0,0:0:0:0:
448,192,32177,1,0,0:0:0:0:
192,192,32177,1,0,0:0:0:0:
64,192,32177,1,0,0:0:0:0:
320,192,32326,1,0,0:0:0:0:
320,192,32474,1,0,0:0:0:0:
64,192,32623,1,0,0:0:0:0:
64,192,32771,128,0,32920:0:0:0:0:
192,192,32846,128,0,32994:0:0:0:0:
320,192,32920,128,0,33068:0:0:0:0:
448,192,32994,128,0,33143:0:0:0:0:
64,192,33068,128,0,33217:0:0:0:0:
192,192,33068,128,0,33217:0:0:0:0:
320,192,33143,128,0,33291:0:0:0:0:
448,192,33217,128,0,33365:0:0:0:0:
64,192,33291,128,0,33365:0:0:0:0:
320,192,33365,1,0,0:0:0:0:
192,192,33365,1,0,0:0:0:0:
448,192,33514,1,0,0:0:0:0:
320,192,33588,1,0,0:0:0:0:
192,192,33662,1,0,0:0:0:0:
64,192,33662,1,0,0:0:0:0:
448,192,33662,1,0,0:0:0:0:
64,192,33811,1,0,0:0:0:0:
192,192,33959,1,0,0:0:0:0:
448,192,33959,1,0,0:0:0:0:
320,192,34034,1,0,0:0:0:0:
64,192,34108,1,0,0:0:0:0:
320,192,34182,1,0,0:0:0:0:
64,192,34256,1,0,0:0:0:0:
448,192,34256,1,0,0:0:0:0:
192,192,34256,1,0,0:0:0:0:
320,192,34331,1,0,0:0:0:0:
64,192,34405,1,0,0:0:0:0:
192,192,34479,1,0,0:0:0:0:
320,192,34553,1,0,0:0:0:0:
448,192,34553,1,0,0:0:0:0:
192,192,34702,1,0,0:0:0:0:
320,192,34776,1,0,0:0:0:0:
64,192,34851,1,0,0:0:0:0:
448,192,34851,1,0,0:0:0:0:
192,192,34851,1,0,0:0:0:0:
320,192,34999,1,0,0:0:0:0:
448,192,35148,1,0,0:0:0:0:
64,192,35148,1,0,0:0:0:0:
192,192,35222,1,0,0:0:0:0:
448,192,35296,1,0,0:0:0:0:
320,192,35370,1,0,0:0:0:0:
192,192,35445,1,0,0:0:0:0:
64,192,35445,1,0,0:0:0:0:
448,192,35445,1,0,0:0:0:0:
192,192,35593,1,0,0:0:0:0:
320,192,35742,1,0,0:0:0:0:
448,192,35742,1,0,0:0:0:0:
64,192,35890,1,0,0:0:0:0:
192,192,35964,1,0,0:0:0:0:
320,192,36039,1,0,0:0:0:0:
64,192,36039,1,0,0:0:0:0:
448,192,36039,1,0,0:0:0:0:
192,192,36187,1,0,0:0:0:0:
448,192,36336,1,0,0:0:0:0:
320,192,36336,1,0,0:0:0:0:
64,192,36410,1,0,0:0:0:0:
192,192,36484,1,0,0:0:0:0:
64,192,36633,1,0,0:0:0:0:
320,192,36633,1,0,0:0:0:0:
448,192,36633,1,0,0:0:0:0:
192,192,36707,1,0,0:0:0:0:
320,192,36781,1,0,0:0:0:0:
448,192,36855,1,0,0:0:0:0:
192,192,36930,1,0,0:0:0:0:
64,192,36930,1,0,0:0:0:0:
320,192,37078,1,0,0:0:0:0:
320,192,37227,1,0,0:0:0:0:
64,192,37227,1,0,0:0:0:0:
448,192,37227,1,0,0:0:0:0:
192,192,37301,1,0,0:0:0:0:
448,192,37375,1,0,0:0:0:0:
320,192,37450,1,0,0:0:0:0:
192,192,37524,1,0,0:0:0:0:
64,192,37524,1,0,0:0:0:0:
448,192,37672,1,0,0:0:0:0:
320,192,37747,1,0,0:0:0:0:
192,192,37821,1,0,0:0:0:0:
448,192,37821,1,0,0:0:0:0:
64,192,37821,1,0,0:0:0:0:
320,192,37969,1,0,0:0:0:0:
320,192,38118,1,0,0:0:0:0:
192,192,38118,1,0,0:0:0:0:
64,192,38118,1,0,0:0:0:0:
64,192,38341,1,0,0:0:0:0:
320,192,38341,1,0,0:0:0:0:
448,192,38341,1,0,0:0:0:0:
64,192,38563,1,0,0:0:0:0:
192,192,38563,1,0,0:0:0:0:
320,192,38563,1,0,0:0:0:0:
192,192,38712,1,0,0:0:0:0:
320,192,38712,1,0,0:0:0:0:
448,192,38712,1,0,0:0:0:0:
64,192,38860,1,0,0:0:0:0:
192,192,38860,1,0,0:0:0:0:
320,192,38935,1,0,0:0:0:0:
448,192,38935,1,0,0:0:0:0:
192,192,39009,1,0,0:0:0:0:
64,192,39009,1,0,0:0:0:0:
320,192,39083,1,0,0:0:0:0:
448,192,39157,1,0,0:0:0:0:
64,192,39157,1,0,0:0:0:0:
192,192,39232,1,0,0:0:0:0:
320,192,39306,1,0,0:0:0:0:
448,192,39306,1,0,0:0:0:0:
64,192,39306,1,0,0:0:0:0:
64,192,39529,1,0,0:0:0:0:
448,192,39529,1,0,0:0:0:0:
192,192,39529,1,0,0:0:0:0:
192,192,39751,1,0,0:0:0:0:
320,192,39751,1,0,0:0:0:0:
448,192,39751,1,0,0:0:0:0:
320,192,39900,1,0,0:0:0:0:
192,192,39900,1,0,0:0:0:0:
64,192,39900,1,0,0:0:0:0:
448,192,39999,1,0,0:0:0:0:
320,192,39999,1,0,0:0:0:0:
192,192,40049,1,0,0:0:0:0:
64,192,40049,1,0,0:0:0:0:
320,192,40123,1,0,0:0:0:0:
448,192,40197,1,0,0:0:0:0:
64,192,40197,1,0,0:0:0:0:
192,192,40271,1,0,0:0:0:0:
320,192,40271,1,0,0:0:0:0:
64,192,40346,1,0,0:0:0:0:
448,192,40346,1,0,0:0:0:0:
192,192,40420,1,0,0:0:0:0:
64,192,40494,1,0,0:0:0:0:
448,192,40494,1,0,0:0:0:0:
320,192,40494,1,0,0:0:0:0:
64,192,40717,1,0,0:0:0:0:
192,192,40717,1,0,0:0:0:0:
448,192,40754,1,0,0:0:0:0:
320,192,40791,1,0,0:0:0:0:
64,192,40828,1,0,0:0:0:0:
192,192,40865,1,0,0:0:0:0:
448,192,40902,1,0,0:0:0:0:
320,192,40940,1,0,0:0:0:0:
64,192,40940,1,0,0:0:0:0:
64,192,41088,1,0,0:0:0:0:
192,192,41088,1,0,0:0:0:0:
448,192,41088,1,0,0:0:0:0:
448,192,41311,1,0,0:0:0:0:
320,192,41311,1,0,0:0:0:0:
64,192,41348,1,0,0:0:0:0:
192,192,41385,1,0,0:0:0:0:
448,192,41422,1,0,0:0:0:0:
320,192,41459,1,0,0:0:0:0:
64,192,41497,1,0,0:0:0:0:
192,192,41534,1,0,0:0:0:0:
448,192,41534,1,0,0:0:0:0:
320,192,41608,1,0,0:0:0:0:
448,192,41682,1,0,0:0:0:0:
192,192,41682,1,0,0:0:0:0:
64,192,41682,1,0,0:0:0:0:
192,192,41831,1,0,0:0:0:0:
448,192,41831,1,0,0:0:0:0:
320,192,41905,1,0,0:0:0:0:
64,192,41905,1,0,0:0:0:0:
192,192,41979,1,0,0:0:0:0:
448,192,41979,1,0,0:0:0:0:
448,192,42128,1,0,0:0:0:0:
320,192,42128,1,0,0:0:0:0:
64,192,42276,1,0,0:0:0:0:
320,192,42276,1,0,0:0:0:0:
192,192,42351,1,0,0:0:0:0:
448,192,42351,1,0,0:0:0:0:
320,192,42425,1,0,0:0:0:0:
64,192,42425,1,0,0:0:0:0:
192,192,42499,1,0,0:0:0:0:
448,192,42499,1,0,0:0:0:0:
320,192,42573,1,0,0:0:0:0:
64,192,42573,1,0,0:0:0:0:
192,192,42648,1,0,0:0:0:0:
448,192,42722,1,0,0:0:0:0:
320,192,42796,1,0,0:0:0:0:
192,192,42870,1,0,0:0:0:0:
64,192,42870,1,0,0:0:0:0:
448,192,42870,1,0,0:0:0:0:
192,192,43019,1,0,0:0:0:0:
320,192,43167,1,0,0:0:0:0:
448,192,43316,1,0,0:0:0:0:
192,192,43464,1,0,0:0:0:0:
64,192,43464,1,0,0:0:0:0:
320,192,43613,1,0,0:0:0:0:
64,192,43761,1,0,0:0:0:0:
448,192,43910,1,0,0:0:0:0:
320,192,44058,1,0,0:0:0:0:
64,192,44207,1,0,0:0:0:0:
192,192,44355,1,0,0:0:0:0:
320,192,44504,1,0,0:0:0:0:
448,192,44504,1,0,0:0:0:0:
192,192,44578,1,0,0:0:0:0:
64,192,44578,1,0,0:0:0:0:
320,192,44652,1,0,0:0:0:0:
448,192,44652,1,0,0:0:0:0:
192,192,44801,1,0,0:0:0:0:
64,192,44950,1,0,0:0:0:0:
320,192,45098,1,0,0:0:0:0:
448,192,45247,1,0,0:0:0:0:
320,192,45247,1,0,0:0:0:0:
64,192,45247,1,0,0:0:0:0:
192,192,45395,1,0,0:0:0:0:
448,192,45544,1,0,0:0:0:0:
64,192,45692,1,0,0:0:0:0:
320,192,45841,1,0,0:0:0:0:
192,192,45841,1,0,0:0:0:0:
448,192,45989,1,0,0:0:0:0:
64,192,46138,1,0,0:0:0:0:
320,192,46286,1,0,0:0:0:0:
192,192,46435,1,0,0:0:0:0:
448,192,46583,1,0,0:0:0:0:
192,192,46732,1,0,0:0:0:0:
64,192,46880,1,0,0:0:0:0:
448,192,46880,1,0,0:0:0:0:
192,192,46954,1,0,0:0:0:0:
320,192,46954,1,0,0:0:0:0:
64,192,47029,1,0,0:0:0:0:
448,192,47029,1,0,0:0:0:0:
320,192,47177,1,0,0:0:0:0:
64,192,47326,1,0,0:0:0:0:
192,192,47474,1,0,0:0:0:0:
64,192,47623,1,0,0:0:0:0:
192,192,47623,1,0,0:0:0:0:
448,192,47623,1,0,0:0:0:0:
320,192,47771,1,0,0:0:0:0:
64,192,47920,1,0,0:0:0:0:
192,192,48068,1,0,0:0:0:0:
320,192,48143,1,0,0:0:0:0:
448,192,48217,1,0,0:0:0:0:
64,192,48217,1,0,0:0:0:0:
192,192,48365,1,0,0:0:0:0:
320,192,48514,1,0,0:0:0:0:
64,192,48662,1,0,0:0:0:0:
448,192,48811,1,0,0:0:0:0:
64,192,48959,1,0,0:0:0:0:
192,192,49034,1,0,0:0:0:0:
320,192,49108,1,0,0:0:0:0:
448,192,49108,1,0,0:0:0:0:
64,192,49182,1,0,0:0:0:0:
192,192,49256,1,0,0:0:0:0:
320,192,49256,1,0,0:0:0:0:
64,192,49331,1,0,0:0:0:0:
448,192,49331,1,0,0:0:0:0:
192,192,49405,1,0,0:0:0:0:
320,192,49405,1,0,0:0:0:0:
448,192,49553,1,0,0:0:0:0:
320,192,49702,1,0,0:0:0:0:
64,192,49702,1,0,0:0:0:0:
192,192,49851,1,0,0:0:0:0:
320,192,49851,1,0,0:0:0:0:
64,192,49999,1,0,0:0:0:0:
192,192,49999,1,0,0:0:0:0:
448,192,49999,1,0,0:0:0:0:
320,192,50148,1,0,0:0:0:0:
192,192,50296,1,0,0:0:0:0:
64,192,50445,1,0,0:0:0:0:
320,192,50593,1,0,0:0:0:0:
448,192,50593,1,0,0:0:0:0:
64,192,50742,1,0,0:0:0:0:
320,192,50890,1,0,0:0:0:0:
192,192,51039,1,0,0:0:0:0:
448,192,51187,1,0,0:0:0:0:
320,192,51336,1,0,0:0:0:0:
192,192,51484,1,0,0:0:0:0:
64,192,51484,1,0,0:0:0:0:
448,192,51633,1,0,0:0:0:0:
320,192,51633,1,0,0:0:0:0:
192,192,51707,1,0,0:0:0:0:
64,192,51707,1,0,0:0:0:0:
320,192,51781,1,0,0:0:0:0:
448,192,51781,1,0,0:0:0:0:
64,192,51930,1,0,0:0:0:0:
192,192,52078,1,0,0:0:0:0:
320,192,52227,1,0,0:0:0:0:
192,192,52301,1,0,0:0:0:0:
64,192,52375,1,0,0:0:0:0:
448,192,52375,1,0,0:0:0:0:
320,192,52375,1,0,0:0:0:0:
192,192,52524,1,0,0:0:0:0:
448,192,52672,1,0,0:0:0:0:
64,192,52821,1,0,0:0:0:0:
320,192,52969,1,0,0:0:0:0:
64,192,53118,1,0,0:0:0:0:
192,192,53155,1,0,0:0:0:0:
320,192,53192,1,0,0:0:0:0:
448,192,53229,1,0,0:0:0:0:
64,192,53266,1,0,0:0:0:0:
192,192,53415,1,0,0:0:0:0:
448,192,53563,1,0,0:0:0:0:
192,192,53712,1,0,0:0:0:0:
448,192,53860,1,0,0:0:0:0:
320,192,53860,1,0,0:0:0:0:
192,192,53935,1,0,0:0:0:0:
64,192,53935,1,0,0:0:0:0:
320,192,54009,1,0,0:0:0:0:
448,192,54009,1,0,0:0:0:0:
192,192,54083,1,0,0:0:0:0:
64,192,54083,1,0,0:0:0:0:
448,192,54157,1,0,0:0:0:0:
320,192,54157,1,0,0:0:0:0:
64,192,54306,1,0,0:0:0:0:
192,192,54454,1,0,0:0:0:0:
448,192,54454,1,0,0:0:0:0:
320,192,54603,1,0,0:0:0:0:
320,192,54751,1,0,0:0:0:0:
64,192,54751,1,0,0:0:0:0:
448,192,54751,1,0,0:0:0:0:
192,192,54900,1,0,0:0:0:0:
320,192,54974,1,0,0:0:0:0:
448,192,55049,1,0,0:0:0:0:
64,192,55197,1,0,0:0:0:0:
192,192,55234,1,0,0:0:0:0:
320,192,55271,1,0,0:0:0:0:
448,192,55308,1,0,0:0:0:0:
64,192,55346,1,0,0:0:0:0:
192,192,55346,1,0,0:0:0:0:
320,192,55494,1,0,0:0:0:0:
448,192,55643,1,0,0:0:0:0:
192,192,55643,1,0,0:0:0:0:
64,192,55791,1,0,0:0:0:0:
192,192,55865,1,0,0:0:0:0:
320,192,55940,1,0,0:0:0:0:
448,192,56088,1,0,0:0:0:0:
192,192,56237,1,0,0:0:0:0:
64,192,56237,1,0,0:0:0:0:
448,192,56385,1,0,0:0:0:0:
320,192,56385,1,0,0:0:0:0:
192,192,56459,1,0,0:0:0:0:
64,192,56459,1,0,0:0:0:0:
448,192,56534,1,0,0:0:0:0:
320,192,56534,1,0,0:0:0:0:
64,192,56682,1,0,0:0:0:0:
448,192,56831,1,0,0:0:0:0:
320,192,56868,1,0,0:0:0:0:
64,192,56905,1,0,0:0:0:0:
192,192,56942,1,0,0:0:0:0:
320,192,56979,1,0,0:0:0:0:
64,192,57128,1,0,0:0:0:0:
192,192,57128,1,0,0:0:0:0:
320,192,57128,1,0,0:0:0:0:
448,192,57276,1,0,0:0:0:0:
320,192,57313,1,0,0:0:0:0:
192,192,57351,1,0,0:0:0:0:
64,192,57388,1,0,0:0:0:0:
448,192,57425,1,0,0:0:0:0:
320,192,57425,1,0,0:0:0:0:
192,192,57573,1,0,0:0:0:0:
64,192,57722,1,0,0:0:0:0:
320,192,57722,1,0,0:0:0:0:
448,192,57870,1,0,0:0:0:0:
192,192,58019,1,0,0:0:0:0:
320,192,58167,1,0,0:0:0:0:
64,192,58316,1,0,0:0:0:0:
448,192,58464,1,0,0:0:0:0:
192,192,58613,1,0,0:0:0:0:
64,192,58613,1,0,0:0:0:0:
448,192,58761,1,0,0:0:0:0:
320,192,58761,1,0,0:0:0:0:
192,192,58836,1,0,0:0:0:0:
64,192,58836,1,0,0:0:0:0:
320,192,58910,1,0,0:0:0:0:
448,192,58910,1,0,0:0:0:0:
192,192,59058,1,0,0:0:0:0:
64,192,59207,1,0,0:0:0:0:
448,192,59207,1,0,0:0:0:0:
320,192,59281,1,0,0:0:0:0:
192,192,59355,1,0,0:0:0:0:
64,192,59430,1,0,0:0:0:0:
320,192,59504,1,0,0:0:0:0:
448,192,59504,1,0,0:0:0:0:
64,192,59652,1,0,0:0:0:0:
320,192,59801,1,0,0:0:0:0:
192,192,59950,1,0,0:0:0:0:
448,192,60098,1,0,0:0:0:0:
320,192,60247,1,0,0:0:0:0:
192,192,60395,1,0,0:0:0:0:
64,192,60544,1,0,0:0:0:0:
448,192,60692,1,0,0:0:0:0:
320,192,60766,1,0,0:0:0:0:
192,192,60841,1,0,0:0:0:0:
64,192,60915,1,0,0:0:0:0:
320,192,60989,1,0,0:0:0:0:
192,192,61063,1,0,0:0:0:0:
448,192,61138,1,0,0:0:0:0:
320,192,61212,1,0,0:0:0:0:
64,192,61286,1,0,0:0:0:0:
192,192,61360,1,0,0:0:0:0:
320,192,61435,1,0,0:0:0:0:
448,192,61509,1,0,0:0:0:0:
64,192,61583,1,0,0:0:0:0:
320,192,61657,1,0,0:0:0:0:
192,192,61732,1,0,0:0:0:0:
448,192,61806,1,0,0:0:0:0:
320,192,61880,1,0,0:0:0:0:
192,192,61880,1,0,0:0:0:0:
64,192,61880,1,0,0:0:0:0:
320,192,62029,1,0,0:0:0:0:
192,192,62177,1,0,0:0:0:0:
64,192,62326,1,0,0:0:0:0:
192,192,62326,1,0,0:0:0:0:
448,192,62326,1,0,0:0:0:0:
320,192,62474,1,0,0:0:0:0:
192,192,62549,1,0,0:0:0:0:
448,192,62623,1,0,0:0:0:0:
64,192,62697,1,0,0:0:0:0:
192,192,62771,1,0,0:0:0:0:
320,192,62846,1,0,0:0:0:0:
448,192,62920,1,0,0:0:0:0:
64,192,63068,1,0,0:0:0:0:
192,192,63068,1,0,0:0:0:0:
448,192,63068,1,0,0:0:0:0:
192,192,63217,1,0,0:0:0:0:
448,192,63365,1,0,0:0:0:0:
448,192,63514,1,0,0:0:0:0:
320,192,63514,1,0,0:0:0:0:
64,192,63514,1,0,0:0:0:0:
192,192,63662,1,0,0:0:0:0:
448,192,63737,1,0,0:0:0:0:
64,192,63811,1,0,0:0:0:0:
320,192,63885,1,0,0:0:0:0:
192,192,63959,1,0,0:0:0:0:
448,192,64034,1,0,0:0:0:0:
64,192,64108,1,0,0:0:0:0:
192,192,64182,1,0,0:0:0:0:
320,192,64256,1,0,0:0:0:0:
448,192,64256,1,0,0:0:0:0:
64,192,64256,1,0,0:0:0:0:
320,192,64405,1,0,0:0:0:0:
64,192,64553,1,0,0:0:0:0:
64,192,64702,1,0,0:0:0:0:
192,192,64702,1,0,0:0:0:0:
448,192,64702,1,0,0:0:0:0:
320,192,64851,1,0,0:0:0:0:
192,192,64925,1,0,0:0:0:0:
64,192,64999,1,0,0:0:0:0:
448,192,65073,1,0,0:0:0:0:
320,192,65148,1,0,0:0:0:0:
64,192,65222,1,0,0:0:0:0:
192,192,65296,1,0,0:0:0:0:
320,192,65370,1,0,0:0:0:0:
448,192,65445,1,0,0:0:0:0:
64,192,65445,1,0,0:0:0:0:
192,192,65445,1,0,0:0:0:0:
320,192,65667,1,0,0:0:0:0:
448,192,65667,1,0,0:0:0:0:
192,192,65667,1,0,0:0:0:0:
448,192,65890,1,0,0:0:0:0:
192,192,65890,1,0,0:0:0:0:
64,192,65890,1,0,0:0:0:0:
192,192,66039,1,0,0:0:0:0:
64,192,66039,1,0,0:0:0:0:
448,192,66076,1,0,0:0:0:0:
320,192,66113,1,0,0:0:0:0:
192,192,66150,1,0,0:0:0:0:
64,192,66187,1,0,0:0:0:0:
448,192,66224,1,0,0:0:0:0:
320,192,66261,1,0,0:0:0:0:
192,192,66299,1,0,0:0:0:0:
64,192,66336,1,0,0:0:0:0:
448,192,66336,1,0,0:0:0:0:
320,192,66410,1,0,0:0:0:0:
192,192,66410,1,0,0:0:0:0:
64,192,66484,1,0,0:0:0:0:
448,192,66484,1,0,0:0:0:0:
192,192,66558,1,0,0:0:0:0:
64,192,66633,1,0,0:0:0:0:
448,192,66633,1,0,0:0:0:0:
320,192,66633,1,0,0:0:0:0:
192,192,66707,1,0,0:0:0:0:
320,192,66781,1,0,0:0:0:0:
448,192,66855,1,0,0:0:0:0:
192,192,66930,1,0,0:0:0:0:
320,192,67004,1,0,0:0:0:0:
64,192,67078,1,0,0:0:0:0:
192,192,67152,1,0,0:0:0:0:
448,192,67227,1,0,0:0:0:0:
320,192,67227,1,0,0:0:0:0:
64,192,67227,1,0,0:0:0:0:
192,192,67301,1,0,0:0:0:0:
448,192,67375,1,0,0:0:0:0:
320,192,67450,1,0,0:0:0:0:
192,192,67524,1,0,0:0:0:0:
64,192,67598,1,0,0:0:0:0:
320,192,67672,1,0,0:0:0:0:
192,192,67747,1,0,0:0:0:0:
448,192,67821,1,0,0:0:0:0:
64,192,67821,1,0,0:0:0:0:
320,192,67821,1,0,0:0:0:0:
192,192,67895,1,0,0:0:0:0:
320,192,67969,1,0,0:0:0:0:
448,192,68044,1,0,0:0:0:0:
64,192,68118,1,0,0:0:0:0:
320,192,68192,1,0,0:0:0:0:
192,192,68266,1,0,0:0:0:0:
448,192,68341,1,0,0:0:0:0:
320,192,68415,1,0,0:0:0:0:
64,192,68415,1,0,0:0:0:0:
192,192,68415,1,0,0:0:0:0:
448,192,68489,1,0,0:0:0:0:
64,192,68563,1,0,0:0:0:0:
192,192,68638,1,0,0:0:0:0:
320,192,68712,1,0,0:0:0:0:
448,192,68786,1,0,0:0:0:0:
192,192,68860,1,0,0:0:0:0:
320,192,68935,1,0,0:0:0:0:
64,192,69009,1,0,0:0:0:0:
192,192,69009,1,0,0:0:0:0:
448,192,69009,1,0,0:0:0:0:
320,192,69083,1,0,0:0:0:0:
448,192,69157,1,0,0:0:0:0:
64,192,69157,1,0,0:0:0:0:
192,192,69232,1,0,0:0:0:0:
320,192,69306,1,0,0:0:0:0:
448,192,69306,1,0,0:0:0:0:
192,192,69380,1,0,0:0:0:0:
64,192,69454,1,0,0:0:0:0:
448,192,69454,1,0,0:0:0:0:
320,192,69529,1,0,0:0:0:0:
192,192,69603,1,0,0:0:0:0:
64,192,69603,1,0,0:0:0:0:
320,192,69677,1,0,0:0:0:0:
448,192,69677,1,0,0:0:0:0:
192,192,69751,1,0,0:0:0:0:
64,192,69751,1,0,0:0:0:0:
320,192,69826,1,0,0:0:0:0:
448,192,69826,1,0,0:0:0:0:
192,192,69900,1,0,0:0:0:0:
64,192,69900,1,0,0:0:0:0:
320,192,69974,1,0,0:0:0:0:
448,192,69974,1,0,0:0:0:0:
192,192,70049,1,0,0:0:0:0:
64,192,70049,1,0,0:0:0:0:
320,192,70123,1,0,0:0:0:0:
448,192,70123,1,0,0:0:0:0:
192,192,70197,1,0,0:0:0:0:
64,192,70197,1,0,0:0:0:0:
320,192,70271,1,0,0:0:0:0:
448,192,70271,1,0,0:0:0:0:
64,192,70346,1,0,0:0:0:0:
192,192,70346,1,0,0:0:0:0:
448,192,70383,1,0,0:0:0:0:
320,192,70420,1,0,0:0:0:0:
192,192,70457,1,0,0:0:0:0:
64,192,70494,1,0,0:0:0:0:
448,192,70494,1,0,0:0:0:0:
192,192,70568,1,0,0:0:0:0:
320,192,70568,1,0,0:0:0:0:
64,192,70643,1,0,0:0:0:0:
448,192,70643,1,0,0:0:0:0:
192,192,70680,1,0,0:0:0:0:
320,192,70717,1,0,0:0:0:0:
448,192,70754,1,0,0:0:0:0:
64,192,70791,1,0,0:0:0:0:
192,192,70828,1,0,0:0:0:0:
320,192,70865,1,0,0:0:0:0:
448,192,70902,1,0,0:0:0:0:
64,192,70940,1,0,0:0:0:0:
192,192,70940,1,0,0:0:0:0:
320,192,71014,1,0,0:0:0:0:
448,192,71014,1,0,0:0:0:0:
192,192,71088,1,0,0:0:0:0:
64,192,71088,1,0,0:0:0:0:
448,192,71125,1,0,0:0:0:0:
320,192,71162,1,0,0:0:0:0:
64,192,71200,1,0,0:0:0:0:
192,192,71237,1,0,0:0:0:0:
448,192,71274,1,0,0:0:0:0:
320,192,71311,1,0,0:0:0:0:
64,192,71348,1,0,0:0:0:0:
192,192,71385,1,0,0:0:0:0:
448,192,71385,1,0,0:0:0:0:
448,192,74207,1,0,0:0:0:0:
64,192,74281,1,0,0:0:0:0:
320,192,74355,1,0,0:0:0:0:
192,192,74430,1,0,0:0:0:0:
448,192,74504,1,0,0:0:0:0:
64,192,74578,1,0,0:0:0:0:
192,192,74652,1,0,0:0:0:0:
448,192,74727,1,0,0:0:0:0:
320,192,74801,1,0,0:0:0:0:
64,192,74875,1,0,0:0:0:0:
192,192,74950,1,0,0:0:0:0:
448,192,74950,1,0,0:0:0:0:
320,192,74950,1,0,0:0:0:0:
64,192,75098,1,0,0:0:0:0:
448,192,75247,1,0,0:0:0:0:
192,192,75469,1,0,0:0:0:0:
448,192,75618,1,0,0:0:0:0:
64,192,75841,1,0,0:0:0:0:
192,192,76138,1,0,0:0:0:0:
448,192,76138,1,0,0:0:0:0:
320,192,76385,1,0,0:0:0:0:
192,192,76583,1,0,0:0:0:0:
448,192,76806,1,0,0:0:0:0:
320,192,76880,1,0,0:0:0:0:
64,192,76954,1,0,0:0:0:0:
192,192,77029,1,0,0:0:0:0:
320,192,77103,1,0,0:0:0:0:
448,192,77177,1,0,0:0:0:0:
192,192,77251,1,0,0:0:0:0:
64,192,77326,1,0,0:0:0:0:
320,192,77474,1,0,0:0:0:0:
192,192,77672,1,0,0:0:0:0:
448,192,77920,1,0,0:0:0:0:
192,192,77994,1,0,0:0:0:0:
320,192,78068,1,0,0:0:0:0:
64,192,78143,1,0,0:0:0:0:
192,192,78217,1,0,0:0:0:0:
448,192,78365,1,0,0:0:0:0:
64,192,78440,1,0,0:0:0:0:
192,192,78514,1,0,0:0:0:0:
448,192,78737,1,0,0:0:0:0:
192,192,78959,1,0,0:0:0:0:
320,192,79182,1,0,0:0:0:0:
192,192,79256,1,0,0:0:0:0:
320,192,79331,1,0,0:0:0:0:
64,192,79405,1,0,0:0:0:0:
192,192,79479,1,0,0:0:0:0:
320,192,79553,1,0,0:0:0:0:
448,192,79628,1,0,0:0:0:0:
64,192,79702,1,0,0:0:0:0:
320,192,79851,1,0,0:0:0:0:
192,192,79999,1,0,0:0:0:0:
448,192,80148,1,0,0:0:0:0:
320,192,80370,1,0,0:0:0:0:
64,192,80593,1,0,0:0:0:0:
192,192,80667,1,0,0:0:0:0:
448,192,80742,1,0,0:0:0:0:
320,192,80816,1,0,0:0:0:0:
192,192,80890,1,0,0:0:0:0:
64,192,80890,1,0,0:0:0:0:
448,192,80890,1,0,0:0:0:0:
320,192,81113,1,0,0:0:0:0:
192,192,81336,1,0,0:0:0:0:
64,192,81336,1,0,0:0:0:0:
64,192,81484,1,0,0:0:0:0:
320,192,81484,1,0,0:0:0:0:
448,192,81484,1,0,0:0:0:0:
192,192,81558,1,0,0:0:0:0:
448,192,81633,1,0,0:0:0:0:
320,192,81707,1,0,0:0:0:0:
192,192,81781,1,0,0:0:0:0:
64,192,81855,1,0,0:0:0:0:
192,192,81930,1,0,0:0:0:0:
320,192,82004,1,0,0:0:0:0:
448,192,82078,1,0,0:0:0:0:
64,192,82078,1,0,0:0:0:0:
320,192,82227,1,0,0:0:0:0:
64,192,82301,1,0,0:0:0:0:
448,192,82375,1,0,0:0:0:0:
192,192,82375,1,0,0:0:0:0:
64,192,82524,1,0,0:0:0:0:
64,192,82672,1,0,0:0:0:0:
192,192,82672,1,0,0:0:0:0:
448,192,82672,1,0,0:0:0:0:
320,192,82747,1,0,0:0:0:0:
64,192,82821,1,0,0:0:0:0:
192,192,82895,1,0,0:0:0:0:
320,192,82969,1,0,0:0:0:0:
448,192,82969,1,0,0:0:0:0:
192,192,83044,1,0,0:0:0:0:
64,192,83118,1,0,0:0:0:0:
448,192,83118,1,0,0:0:0:0:
320,192,83192,1,0,0:0:0:0:
192,192,83266,1,0,0:0:0:0:
64,192,83266,1,0,0:0:0:0:
448,192,83415,1,0,0:0:0:0:
320,192,83489,1,0,0:0:0:0:
192,192,83563,1,0,0:0:0:0:
64,192,83563,1,0,0:0:0:0:
192,192,83712,1,0,0:0:0:0:
320,192,83712,1,0,0:0:0:0:
192,192,83860,1,0,0:0:0:0:
64,192,83860,1,0,0:0:0:0:
320,192,83935,1,0,0:0:0:0:
448,192,83935,1,0,0:0:0:0:
192,192,84009,1,0,0:0:0:0:
64,192,84009,1,0,0:0:0:0:
320,192,84083,1,0,0:0:0:0:
448,192,84083,1,0,0:0:0:0:
64,192,84157,1,0,0:0:0:0:
192,192,84157,128,0,84454:0:0:0:0:
64,192,84454,128,0,85346:0:0:0:0:
320,192,84454,128,0,84603:0:0:0:0:
448,192,84603,128,0,84751:0:0:0:0:
192,192,84751,128,0,84900:0:0:0:0:
320,192,84900,128,0,85049:0:0:0:0:
448,192,85049,1,0,0:0:0:0:
192,192,85123,1,0,0:0:0:0:
320,192,85197,1,0,0:0:0:0:
448,192,85271,1,0,0:0:0:0:
320,192,85346,1,0,0:0:0:0:
192,192,85346,1,0,0:0:0:0:
192,192,85643,1,0,0:0:0:0:
64,192,85643,1,0,0:0:0:0:
448,192,85643,1,0,0:0:0:0:
320,192,85791,1,0,0:0:0:0:
192,192,85865,1,0,0:0:0:0:
64,192,85940,1,0,0:0:0:0:
320,192,85940,1,0,0:0:0:0:
448,192,85940,1,0,0:0:0:0:
192,192,86088,1,0,0:0:0:0:
64,192,86237,1,0,0:0:0:0:
320,192,86237,1,0,0:0:0:0:
448,192,86311,1,0,0:0:0:0:
192,192,86385,1,0,0:0:0:0:
320,192,86459,1,0,0:0:0:0:
64,192,86534,1,0,0:0:0:0:
192,192,86534,1,0,0:0:0:0:
448,192,86534,1,0,0:0:0:0:
320,192,86608,1,0,0:0:0:0:
192,192,86682,1,0,0:0:0:0:
64,192,86756,1,0,0:0:0:0:
320,192,86831,1,0,0:0:0:0:
448,192,86831,1,0,0:0:0:0:
192,192,86979,1,0,0:0:0:0:
320,192,87053,1,0,0:0:0:0:
64,192,87128,1,0,0:0:0:0:
448,192,87128,1,0,0:0:0:0:
192,192,87128,1,0,0:0:0:0:
320,192,87202,1,0,0:0:0:0:
64,192,87276,1,0,0:0:0:0:
448,192,87425,1,0,0:0:0:0:
320,192,87425,1,0,0:0:0:0:
64,192,87499,1,0,0:0:0:0:
448,192,87573,1,0,0:0:0:0:
192,192,87648,1,0,0:0:0:0:
320,192,87722,1,0,0:0:0:0:
64,192,87722,1,0,0:0:0:0:
448,192,87722,1,0,0:0:0:0:
448,192,87870,1,0,0:0:0:0:
320,192,87945,1,0,0:0:0:0:
192,192,88019,1,0,0:0:0:0:
64,192,88019,1,0,0:0:0:0:
64,192,88167,1,0,0:0:0:0:
192,192,88242,1,0,0:0:0:0:
64,192,88316,1,0,0:0:0:0:
448,192,88316,1,0,0:0:0:0:
320,192,88316,1,0,0:0:0:0:
192,192,88464,1,0,0:0:0:0:
64,192,88613,1,0,0:0:0:0:
320,192,88613,1,0,0:0:0:0:
448,192,88687,1,0,0:0:0:0:
192,192,88761,1,0,0:0:0:0:
320,192,88836,1,0,0:0:0:0:
64,192,88910,1,0,0:0:0:0:
448,192,88910,1,0,0:0:0:0:
192,192,88910,1,0,0:0:0:0:
320,192,88984,1,0,0:0:0:0:
192,192,89058,1,0,0:0:0:0:
64,192,89133,1,0,0:0:0:0:
320,192,89207,1,0,0:0:0:0:
448,192,89207,1,0,0:0:0:0:
192,192,89355,1,0,0:0:0:0:
320,192,89430,1,0,0:0:0:0:
64,192,89504,1,0,0:0:0:0:
448,192,89504,1,0,0:0:0:0:
192,192,89504,1,0,0:0:0:0:
320,192,89652,1,0,0:0:0:0:
192,192,89801,1,0,0:0:0:0:
64,192,89801,1,0,0:0:0:0:
448,192,89950,1,0,0:0:0:0:
320,192,90024,1,0,0:0:0:0:
64,192,90024,1,0,0:0:0:0:
192,192,90098,1,0,0:0:0:0:
448,192,90098,1,0,0:0:0:0:
192,192,90247,1,0,0:0:0:0:
320,192,90247,1,0,0:0:0:0:
320,192,90395,1,0,0:0:0:0:
64,192,90395,1,0,0:0:0:0:
192,192,90544,1,0,0:0:0:0:
320,192,90618,1,0,0:0:0:0:
448,192,90692,1,0,0:0:0:0:
192,192,90692,1,0,0:0:0:0:
64,192,90692,1,0,0:0:0:0:
320,192,90841,1,0,0:0:0:0:
192,192,90989,1,0,0:0:0:0:
64,192,90989,1,0,0:0:0:0:
448,192,91063,1,0,0:0:0:0:
320,192,91138,1,0,0:0:0:0:
192,192,91212,1,0,0:0:0:0:
64,192,91286,1,0,0:0:0:0:
448,192,91286,1,0,0:0:0:0:
320,192,91286,1,0,0:0:0:0:
192,192,91360,1,0,0:0:0:0:
320,192,91435,1,0,0:0:0:0:
448,192,91435,1,0,0:0:0:0:
192,192,91509,1,0,0:0:0:0:
64,192,91509,1,0,0:0:0:0:
448,192,91583,1,0,0:0:0:0:
320,192,91583,1,0,0:0:0:0:
192,192,91657,1,0,0:0:0:0:
64,192,91657,1,0,0:0:0:0:
320,192,91732,1,0,0:0:0:0:
448,192,91732,1,0,0:0:0:0:
192,192,91806,1,0,0:0:0:0:
448,192,91880,1,0,0:0:0:0:
320,192,91880,1,0,0:0:0:0:
64,192,91880,1,0,0:0:0:0:
64,192,92177,1,0,0:0:0:0:
448,192,92177,1,0,0:0:0:0:
320,192,92177,1,0,0:0:0:0:
448,192,92400,1,0,0:0:0:0:
64,192,92400,1,0,0:0:0:0:
192,192,92400,1,0,0:0:0:0:
64,192,92623,1,0,0:0:0:0:
320,192,92623,1,0,0:0:0:0:
448,192,92623,1,0,0:0:0:0:
320,192,92771,1,0,0:0:0:0:
448,192,92771,1,0,0:0:0:0:
192,192,92846,1,0,0:0:0:0:
64,192,92846,1,0,0:0:0:0:
320,192,92920,1,0,0:0:0:0:
448,192,92920,1,0,0:0:0:0:
192,192,92994,1,0,0:0:0:0:
64,192,93068,1,0,0:0:0:0:
320,192,93068,1,0,0:0:0:0:
448,192,93068,1,0,0:0:0:0:
64,192,93217,1,0,0:0:0:0:
192,192,93217,1,0,0:0:0:0:
448,192,93217,1,0,0:0:0:0:
320,192,93291,1,0,0:0:0:0:
448,192,93365,1,0,0:0:0:0:
64,192,93365,1,0,0:0:0:0:
192,192,93440,1,0,0:0:0:0:
320,192,93440,1,0,0:0:0:0:
64,192,93514,1,0,0:0:0:0:
448,192,93514,1,0,0:0:0:0:
64,192,93662,1,0,0:0:0:0:
192,192,93662,1,0,0:0:0:0:
320,192,93737,1,0,0:0:0:0:
448,192,93811,1,0,0:0:0:0:
64,192,93811,1,0,0:0:0:0:
192,192,93885,1,0,0:0:0:0:
320,192,93885,1,0,0:0:0:0:
64,192,93959,1,0,0:0:0:0:
448,192,93959,1,0,0:0:0:0:
192,192,94034,1,0,0:0:0:0:
320,192,94108,1,0,0:0:0:0:
448,192,94108,1,0,0:0:0:0:
192,192,94182,1,0,0:0:0:0:
64,192,94256,1,0,0:0:0:0:
448,192,94256,1,0,0:0:0:0:
320,192,94331,1,0,0:0:0:0:
192,192,94405,1,0,0:0:0:0:
64,192,94405,1,0,0:0:0:0:
320,192,94479,1,0,0:0:0:0:
448,192,94553,1,0,0:0:0:0:
64,192,94553,1,0,0:0:0:0:
192,192,94553,1,0,0:0:0:0:
64,192,94776,1,0,0:0:0:0:
320,192,94776,1,0,0:0:0:0:
448,192,94776,1,0,0:0:0:0:
448,192,94999,1,0,0:0:0:0:
64,192,94999,1,0,0:0:0:0:
192,192,94999,1,0,0:0:0:0:
64,192,95148,128,0,95370:0:0:0:0:
192,192,95148,128,0,95370:0:0:0:0:
448,192,95148,128,0,95370:0:0:0:0:
64,192,95445,1,0,0:0:0:0:
192,192,95445,1,0,0:0:0:0:
448,192,95445,1,0,0:0:0:0:
320,192,95445,1,0,0:0:0:0:
320,192,95593,1,0,0:0:0:0:
64,192,95742,1,0,0:0:0:0:
192,192,95742,1,0,0:0:0:0:
448,192,95742,1,0,0:0:0:0:
64,192,95890,1,0,0:0:0:0:
192,192,96039,1,0,0:0:0:0:
320,192,96039,1,0,0:0:0:0:
448,192,96039,1,0,0:0:0:0:
64,192,96187,1,0,0:0:0:0:
192,192,96261,1,0,0:0:0:0:
320,192,96336,1,0,0:0:0:0:
64,192,96336,1,0,0:0:0:0:
448,192,96336,1,0,0:0:0:0:
192,192,96484,1,0,0:0:0:0:
192,192,96633,1,0,0:0:0:0:
320,192,96633,1,0,0:0:0:0:
448,192,96633,1,0,0:0:0:0:
64,192,96707,1,0,0:0:0:0:
448,192,96781,1,0,0:0:0:0:
320,192,96930,1,0,0:0:0:0:
64,192,96930,1,0,0:0:0:0:
192,192,96930,1,0,0:0:0:0:
448,192,97004,1,0,0:0:0:0:
320,192,97078,1,0,0:0:0:0:
192,192,97152,1,0,0:0:0:0:
64,192,97227,1,0,0:0:0:0:
320,192,97227,1,0,0:0:0:0:
448,192,97227,1,0,0:0:0:0:
192,192,97375,1,0,0:0:0:0:
192,192,97524,1,0,0:0:0:0:
64,192,97524,1,0,0:0:0:0:
448,192,97524,1,0,0:0:0:0:
448,192,97747,1,0,0:0:0:0:
320,192,97747,1,0,0:0:0:0:
64,192,97747,1,0,0:0:0:0:
64,192,97969,1,0,0:0:0:0:
192,192,97969,1,0,0:0:0:0:
320,192,97969,1,0,0:0:0:0:
192,192,98118,1,0,0:0:0:0:
320,192,98118,1,0,0:0:0:0:
448,192,98118,1,0,0:0:0:0:
448,192,98341,1,0,0:0:0:0:
320,192,98341,1,0,0:0:0:0:
64,192,98341,1,0,0:0:0:0:
320,192,98489,1,0,0:0:0:0:
192,192,98489,1,0,0:0:0:0:
448,192,98563,1,0,0:0:0:0:
64,192,98563,1,0,0:0:0:0:
192,192,98638,1,0,0:0:0:0:
320,192,98712,1,0,0:0:0:0:
448,192,98712,1,0,0:0:0:0:
64,192,98712,1,0,0:0:0:0:
64,192,98935,1,0,0:0:0:0:
192,192,98935,1,0,0:0:0:0:
448,192,98935,1,0,0:0:0:0:
448,192,99157,1,0,0:0:0:0:
320,192,99157,1,0,0:0:0:0:
64,192,99157,1,0,0:0:0:0:
64,192,99380,1,0,0:0:0:0:
192,192,99380,1,0,0:0:0:0:
320,192,99380,1,0,0:0:0:0:
448,192,99603,1,0,0:0:0:0:
320,192,99603,1,0,0:0:0:0:
192,192,99677,1,0,0:0:0:0:
64,192,99677,1,0,0:0:0:0:
320,192,99751,1,0,0:0:0:0:
448,192,99751,1,0,0:0:0:0:
192,192,99826,1,0,0:0:0:0:
64,192,99900,1,0,0:0:0:0:
448,192,99900,1,0,0:0:0:0:
320,192,99900,1,0,0:0:0:0:
320,192,100049,1,0,0:0:0:0:
64,192,100049,1,0,0:0:0:0:
192,192,100123,1,0,0:0:0:0:
64,192,100197,1,0,0:0:0:0:
448,192,100197,1,0,0:0:0:0:
320,192,100197,1,0,0:0:0:0:
192,192,100271,1,0,0:0:0:0:
320,192,100346,1,0,0:0:0:0:
448,192,100346,1,0,0:0:0:0:
192,192,100420,1,0,0:0:0:0:
64,192,100494,1,0,0:0:0:0:
320,192,100494,1,0,0:0:0:0:
448,192,100494,1,0,0:0:0:0:
192,192,100568,1,0,0:0:0:0:
64,192,100643,1,0,0:0:0:0:
448,192,100643,1,0,0:0:0:0:
320,192,100717,1,0,0:0:0:0:
192,192,100791,1,0,0:0:0:0:
64,192,100791,1,0,0:0:0:0:
448,192,100791,1,0,0:0:0:0:
320,192,100865,1,0,0:0:0:0:
192,192,100940,1,0,0:0:0:0:
64,192,100940,1,0,0:0:0:0:
320,192,101014,1,0,0:0:0:0:
448,192,101088,1,0,0:0:0:0:
64,192,101088,1,0,0:0:0:0:
192,192,101088,1,0,0:0:0:0:
320,192,101162,1,0,0:0:0:0:
192,192,101237,1,0,0:0:0:0:
448,192,101237,1,0,0:0:0:0:
320,192,101311,1,0,0:0:0:0:
192,192,101385,1,0,0:0:0:0:
64,192,101385,1,0,0:0:0:0:
448,192,101385,1,0,0:0:0:0:
320,192,101459,1,0,0:0:0:0:
64,192,101534,1,0,0:0:0:0:
448,192,101534,1,0,0:0:0:0:
192,192,101608,1,0,0:0:0:0:
320,192,101682,1,0,0:0:0:0:
448,192,101682,1,0,0:0:0:0:
64,192,101682,1,0,0:0:0:0:
192,192,101756,1,0,0:0:0:0:
320,192,101831,1,0,0:0:0:0:
448,192,101831,1,0,0:0:0:0:
192,192,101905,1,0,0:0:0:0:
64,192,101979,1,0,0:0:0:0:
448,192,101979,1,0,0:0:0:0:
320,192,101979,1,0,0:0:0:0:
192,192,102053,1,0,0:0:0:0:
64,192,102128,1,0,0:0:0:0:
448,192,102128,1,0,0:0:0:0:
320,192,102202,1,0,0:0:0:0:
192,192,102276,1,0,0:0:0:0:
64,192,102276,1,0,0:0:0:0:
320,192,102351,1,0,0:0:0:0:
448,192,102351,1,0,0:0:0:0:
192,192,102425,1,0,0:0:0:0:
64,192,102425,1,0,0:0:0:0:
320,192,102499,1,0,0:0:0:0:
448,192,102499,1,0,0:0:0:0:
192,192,102573,1,0,0:0:0:0:
64,192,102573,1,0,0:0:0:0:
320,192,102648,1,0,0:0:0:0:
448,192,102648,1,0,0:0:0:0:
192,192,102722,1,0,0:0:0:0:
64,192,102722,1,0,0:0:0:0:
320,192,102796,1,0,0:0:0:0:
448,192,102796,1,0,0:0:0:0:
64,192,102870,1,0,0:0:0:0:
192,192,102870,1,0,0:0:0:0:
448,192,102907,1,0,0:0:0:0:
320,192,102945,1,0,0:0:0:0:
192,192,102982,1,0,0:0:0:0:
64,192,103019,1,0,0:0:0:0:
448,192,103019,1,0,0:0:0:0:
320,192,103093,1,0,0:0:0:0:
192,192,103093,1,0,0:0:0:0:
64,192,103167,1,0,0:0:0:0:
448,192,103167,1,0,0:0:0:0:
320,192,103242,1,0,0:0:0:0:
192,192,103242,1,0,0:0:0:0:
64,192,103316,1,0,0:0:0:0:
448,192,103316,1,0,0:0:0:0:
320,192,103390,1,0,0:0:0:0:
192,192,103464,1,0,0:0:0:0:
64,192,103464,1,0,0:0:0:0:
192,192,103539,1,0,0:0:0:0:
64,192,103539,1,0,0:0:0:0:
320,192,103613,1,0,0:0:0:0:
448,192,103613,1,0,0:0:0:0:
320,192,103687,1,0,0:0:0:0:
448,192,103687,1,0,0:0:0:0:
192,192,103761,1,0,0:0:0:0:
64,192,103761,1,0,0:0:0:0:
448,192,103761,1,0,0:0:0:0:
448,192,103910,1,0,0:0:0:0:
320,192,103910,1,0,0:0:0:0:
448,192,103984,1,0,0:0:0:0:
320,192,103984,1,0,0:0:0:0:
192,192,104058,1,0,0:0:0:0:
64,192,104058,1,0,0:0:0:0:
64,192,104133,1,0,0:0:0:0:
192,192,104133,1,0,0:0:0:0:
320,192,104207,1,0,0:0:0:0:
448,192,104207,1,0,0:0:0:0:
64,192,104207,1,0,0:0:0:0:
64,192,104355,1,0,0:0:0:0:
192,192,104355,1,0,0:0:0:0:
192,192,104430,1,0,0:0:0:0:
320,192,104430,1,0,0:0:0:0:
320,192,104504,1,0,0:0:0:0:
448,192,104504,1,0,0:0:0:0:
192,192,104578,1,0,0:0:0:0:
64,192,104578,1,0,0:0:0:0:
320,192,104652,1,0,0:0:0:0:
448,192,104652,1,0,0:0:0:0:
64,192,104652,1,0,0:0:0:0:
192,192,104875,1,0,0:0:0:0:
320,192,105098,1,0,0:0:0:0:
448,192,105395,1,0,0:0:0:0:
320,192,105544,1,0,0:0:0:0:
64,192,105692,1,0,0:0:0:0:
192,192,105766,1,0,0:0:0:0:
320,192,105841,1,0,0:0:0:0:
448,192,106063,1,0,0:0:0:0:
448,192,106286,1,0,0:0:0:0:
320,192,106583,1,0,0:0:0:0:
192,192,106732,1,0,0:0:0:0:
448,192,106880,1,0,0:0:0:0:
64,192,107029,1,0,0:0:0:0:
192,192,107251,1,0,0:0:0:0:
320,192,107474,1,0,0:0:0:0:
448,192,107920,1,0,0:0:0:0:
64,192,108068,1,0,0:0:0:0:
192,192,108365,1,0,0:0:0:0:
448,192,108514,1,0,0:0:0:0:
64,192,108662,1,0,0:0:0:0:
448,192,108811,1,0,0:0:0:0:
320,192,108811,1,0,0:0:0:0:
320,192,108910,1,0,0:0:0:0:
192,192,108910,1,0,0:0:0:0:
192,192,109009,1,0,0:0:0:0:
64,192,109009,1,0,0:0:0:0:
64,192,109108,1,0,0:0:0:0:
320,192,109108,1,0,0:0:0:0:
448,192,109108,128,0,109405:0:0:0:0:
192,192,109405,1,0,0:0:0:0:
64,192,109405,1,0,0:0:0:0:
320,192,109405,1,0,0:0:0:0:
448,192,109479,1,0,0:0:0:0:
64,192,109553,1,0,0:0:0:0:
320,192,109628,1,0,0:0:0:0:
192,192,109702,1,0,0:0:0:0:
64,192,109776,1,0,0:0:0:0:
320,192,109851,1,0,0:0:0:0:
448,192,109925,1,0,0:0:0:0:
64,192,109999,1,0,0:0:0:0:
192,192,110073,1,0,0:0:0:0:
448,192,110148,1,0,0:0:0:0:
320,192,110222,1,0,0:0:0:0:
192,192,110296,1,0,0:0:0:0:
64,192,110370,1,0,0:0:0:0:
320,192,110445,1,0,0:0:0:0:
192,192,110519,1,0,0:0:0:0:
448,192,110593,1,0,0:0:0:0:
320,192,110593,1,0,0:0:0:0:
64,192,110593,1,0,0:0:0:0:
192,192,110667,1,0,0:0:0:0:
448,192,110742,1,0,0:0:0:0:
64,192,110816,1,0,0:0:0:0:
320,192,110890,1,0,0:0:0:0:
192,192,110964,1,0,0:0:0:0:
448,192,111039,1,0,0:0:0:0:
320,192,111113,1,0,0:0:0:0:
64,192,111187,1,0,0:0:0:0:
192,192,111261,1,0,0:0:0:0:
320,192,111336,1,0,0:0:0:0:
448,192,111410,1,0,0:0:0:0:
192,192,111484,1,0,0:0:0:0:
320,192,111558,1,0,0:0:0:0:
64,192,111633,1,0,0:0:0:0:
448,192,111707,1,0,0:0:0:0:
192,192,111781,1,0,0:0:0:0:
320,192,111781,1,0,0:0:0:0:
64,192,111781,1,0,0:0:0:0:
448,192,111855,1,0,0:0:0:0:
320,192,111930,1,0,0:0:0:0:
192,192,112004,1,0,0:0:0:0:
64,192,112078,1,0,0:0:0:0:
448,192,112152,1,0,0:0:0:0:
192,192,112227,1,0,0:0:0:0:
320,192,112301,1,0,0:0:0:0:
64,192,112375,1,0,0:0:0:0:
192,192,112375,1,0,0:0:0:0:
448,192,112375,1,0,0:0:0:0:
320,192,112450,1,0,0:0:0:0:
192,192,112524,1,0,0:0:0:0:
64,192,112598,1,0,0:0:0:0:
448,192,112672,1,0,0:0:0:0:
192,192,112747,1,0,0:0:0:0:
320,192,112821,1,0,0:0:0:0:
64,192,112895,1,0,0:0:0:0:
192,192,112969,1,0,0:0:0:0:
320,192,112969,1,0,0:0:0:0:
448,192,112969,128,0,113118:0:0:0:0:
64,192,113118,128,0,113266:0:0:0:0:
320,192,113266,128,0,113415:0:0:0:0:
192,192,113415,1,0,0:0:0:0:
448,192,113489,1,0,0:0:0:0:
64,192,113563,128,0,113712:0:0:0:0:
192,192,113712,1,0,0:0:0:0:
320,192,113712,1,0,0:0:0:0:
448,192,113712,1,0,0:0:0:0:
448,192,113860,1,0,0:0:0:0:
320,192,113860,1,0,0:0:0:0:
192,192,113860,1,0,0:0:0:0:
320,192,114009,1,0,0:0:0:0:
192,192,114009,1,0,0:0:0:0:
64,192,114009,1,0,0:0:0:0:
64,192,114157,1,0,0:0:0:0:
192,192,114157,1,0,0:0:0:0:
448,192,114157,1,0,0:0:0:0:
320,192,114232,1,0,0:0:0:0:
192,192,114306,1,0,0:0:0:0:
448,192,114306,1,0,0:0:0:0:
320,192,114454,1,0,0:0:0:0:
192,192,114454,1,0,0:0:0:0:
64,192,114454,1,0,0:0:0:0:
448,192,114603,1,0,0:0:0:0:
320,192,114603,1,0,0:0:0:0:
448,192,114751,1,0,0:0:0:0:
192,192,114751,1,0,0:0:0:0:
64,192,114751,1,0,0:0:0:0:
320,192,114826,1,0,0:0:0:0:
64,192,114900,1,0,0:0:0:0:
448,192,114900,1,0,0:0:0:0:
192,192,114974,1,0,0:0:0:0:
448,192,115049,1,0,0:0:0:0:
320,192,115049,1,0,0:0:0:0:
64,192,115086,1,0,0:0:0:0:
192,192,115123,1,0,0:0:0:0:
320,192,115160,1,0,0:0:0:0:
448,192,115197,1,0,0:0:0:0:
64,192,115197,1,0,0:0:0:0:
320,192,115271,1,0,0:0:0:0:
192,192,115271,1,0,0:0:0:0:
64,192,115346,1,0,0:0:0:0:
448,192,115346,1,0,0:0:0:0:
320,192,115420,1,0,0:0:0:0:
192,192,115494,1,0,0:0:0:0:
64,192,115494,1,0,0:0:0:0:
320,192,115568,1,0,0:0:0:0:
448,192,115643,1,0,0:0:0:0:
64,192,115643,1,0,0:0:0:0:
192,192,115680,1,0,0:0:0:0:
320,192,115717,1,0,0:0:0:0:
448,192,115754,1,0,0:0:0:0:
192,192,115791,1,0,0:0:0:0:
64,192,115791,1,0,0:0:0:0:
320,192,115865,1,0,0:0:0:0:
448,192,115865,1,0,0:0:0:0:
192,192,115940,1,0,0:0:0:0:
64,192,115940,1,0,0:0:0:0:
320,192,116014,1,0,0:0:0:0:
448,192,116088,1,0,0:0:0:0:
64,192,116088,1,0,0:0:0:0:
192,192,116125,1,0,0:0:0:0:
320,192,116162,1,0,0:0:0:0:
448,192,116200,1,0,0:0:0:0:
192,192,116237,1,0,0:0:0:0:
64,192,116237,1,0,0:0:0:0:
320,192,116311,1,0,0:0:0:0:
448,192,116311,1,0,0:0:0:0:
192,192,116385,1,0,0:0:0:0:
64,192,116385,1,0,0:0:0:0:
320,192,116459,1,0,0:0:0:0:
448,192,116534,1,0,0:0:0:0:
64,192,116534,1,0,0:0:0:0:
192,192,116534,1,0,0:0:0:0:
448,192,116756,1,0,0:0:0:0:
64,192,116756,1,0,0:0:0:0:
320,192,116756,1,0,0:0:0:0:
64,192,116979,1,0,0:0:0:0:
192,192,116979,1,0,0:0:0:0:
448,192,117016,1,0,0:0:0:0:
320,192,117053,1,0,0:0:0:0:
192,192,117091,1,0,0:0:0:0:
448,192,117128,1,0,0:0:0:0:
64,192,117128,1,0,0:0:0:0:
448,192,117351,1,0,0:0:0:0:
320,192,117351,1,0,0:0:0:0:
64,192,117351,1,0,0:0:0:0:
64,192,117499,1,0,0:0:0:0:
192,192,117499,1,0,0:0:0:0:
448,192,117573,1,0,0:0:0:0:
320,192,117573,1,0,0:0:0:0:
64,192,117610,1,0,0:0:0:0:
192,192,117648,1,0,0:0:0:0:
320,192,117685,1,0,0:0:0:0:
448,192,117722,1,0,0:0:0:0:
64,192,117722,1,0,0:0:0:0:
64,192,117945,1,0,0:0:0:0:
192,192,117945,1,0,0:0:0:0:
320,192,117945,1,0,0:0:0:0:
192,192,118167,1,0,0:0:0:0:
320,192,118167,1,0,0:0:0:0:
448,192,118167,1,0,0:0:0:0:
448,192,118390,1,0,0:0:0:0:
192,192,118390,1,0,0:0:0:0:
64,192,118390,1,0,0:0:0:0:
448,192,118613,1,0,0:0:0:0:
320,192,118613,1,0,0:0:0:0:
64,192,118613,1,0,0:0:0:0:
192,192,118687,1,0,0:0:0:0:
320,192,118761,1,0,0:0:0:0:
448,192,118761,1,0,0:0:0:0:
192,192,118836,1,0,0:0:0:0:
64,192,118910,1,0,0:0:0:0:
448,192,118910,1,0,0:0:0:0:
320,192,118910,1,0,0:0:0:0:
192,192,118984,1,0,0:0:0:0:
64,192,119058,1,0,0:0:0:0:
448,192,119058,1,0,0:0:0:0:
320,192,119133,1,0,0:0:0:0:
192,192,119207,1,0,0:0:0:0:
64,192,119207,1,0,0:0:0:0:
448,192,119207,1,0,0:0:0:0:
320,192,119281,1,0,0:0:0:0:
192,192,119355,1,0,0:0:0:0:
64,192,119355,1,0,0:0:0:0:
320,192,119430,1,0,0:0:0:0:
448,192,119504,1,0,0:0:0:0:
64,192,119504,1,0,0:0:0:0:
192,192,119504,1,0,0:0:0:0:
320,192,119578,1,0,0:0:0:0:
448,192,119652,1,0,0:0:0:0:
64,192,119652,1,0,0:0:0:0:
192,192,119690,1,0,0:0:0:0:
320,192,119727,1,0,0:0:0:0:
448,192,119764,1,0,0:0:0:0:
192,192,119801,1,0,0:0:0:0:
64,192,119801,1,0,0:0:0:0:
320,192,119875,1,0,0:0:0:0:
448,192,119950,1,0,0:0:0:0:
64,192,119950,1,0,0:0:0:0:
192,192,120024,1,0,0:0:0:0:
320,192,120098,1,0,0:0:0:0:
448,192,120098,1,0,0:0:0:0:
64,192,120098,1,0,0:0:0:0:
192,192,120172,1,0,0:0:0:0:
448,192,120247,1,0,0:0:0:0:
64,192,120247,1,0,0:0:0:0:
320,192,120321,1,0,0:0:0:0:
192,192,120395,1,0,0:0:0:0:
64,192,120395,1,0,0:0:0:0:
448,192,120395,1,0,0:0:0:0:
320,192,120469,1,0,0:0:0:0:
192,192,120544,1,0,0:0:0:0:
448,192,120544,1,0,0:0:0:0:
64,192,120618,1,0,0:0:0:0:
320,192,120692,1,0,0:0:0:0:
448,192,120692,1,0,0:0:0:0:
64,192,120729,1,0,0:0:0:0:
192,192,120766,1,0,0:0:0:0:
320,192,120803,1,0,0:0:0:0:
448,192,120841,1,0,0:0:0:0:
64,192,120841,1,0,0:0:0:0:
192,192,120915,1,0,0:0:0:0:
320,192,120989,1,0,0:0:0:0:
448,192,120989,1,0,0:0:0:0:
64,192,121026,1,0,0:0:0:0:
192,192,121063,1,0,0:0:0:0:
448,192,121101,1,0,0:0:0:0:
320,192,121138,1,0,0:0:0:0:
64,192,121175,1,0,0:0:0:0:
192,192,121212,1,0,0:0:0:0:
448,192,121249,1,0,0:0:0:0:
320,192,121286,1,0,0:0:0:0:
64,192,121286,1,0,0:0:0:0:
64,192,121435,1,0,0:0:0:0:
192,192,121435,1,0,0:0:0:0:
448,192,121435,1,0,0:0:0:0:
448,192,121583,1,0,0:0:0:0:
320,192,121583,1,0,0:0:0:0:
64,192,121583,1,0,0:0:0:0:
64,192,121732,1,0,0:0:0:0:
192,192,121732,1,0,0:0:0:0:
320,192,121732,1,0,0:0:0:0:
320,192,121880,1,0,0:0:0:0:
448,192,121880,1,0,0:0:0:0:
192,192,121880,1,0,0:0:0:0:
448,192,122029,1,0,0:0:0:0:
320,192,122029,1,0,0:0:0:0:
64,192,122029,1,0,0:0:0:0:
64,192,122177,1,0,0:0:0:0:
192,192,122177,1,0,0:0:0:0:
448,192,122177,1,0,0:0:0:0:
448,192,122326,1,0,0:0:0:0:
320,192,122326,1,0,0:0:0:0:
192,192,122326,1,0,0:0:0:0:
64,192,122474,1,0,0:0:0:0:
448,192,122474,1,0,0:0:0:0:
192,192,122549,1,0,0:0:0:0:
320,192,122549,1,0,0:0:0:0:
448,192,122623,1,0,0:0:0:0:
64,192,122623,1,0,0:0:0:0:
192,192,122697,1,0,0:0:0:0:
320,192,122697,1,0,0:0:0:0:
64,192,122771,1,0,0:0:0:0:
448,192,122771,1,0,0:0:0:0:
320,192,122920,1,0,0:0:0:0:
192,192,122920,1,0,0:0:0:0:
64,192,122994,1,0,0:0:0:0:
448,192,122994,1,0,0:0:0:0:
320,192,123068,1,0,0:0:0:0:
192,192,123068,1,0,0:0:0:0:
64,192,123143,1,0,0:0:0:0:
448,192,123143,1,0,0:0:0:0:
320,192,123217,1,0,0:0:0:0:
192,192,123217,1,0,0:0:0:0:
64,192,123365,1,0,0:0:0:0:
448,192,123365,1,0,0:0:0:0:
192,192,123440,1,0,0:0:0:0:
320,192,123440,1,0,0:0:0:0:
64,192,123514,1,0,0:0:0:0:
448,192,123514,1,0,0:0:0:0:
320,192,123588,1,0,0:0:0:0:
192,192,123588,1,0,0:0:0:0:
448,192,123959,128,0,126039:0:0:0:0:
192,192,123959,128,0,125519:0:0:0:0:
64,192,123959,128,0,125519:0:0:0:0:
320,192,123959,128,0,125519:0:0:0:0:
64,192,125593,128,0,125742:0:0:0:0:
320,192,125593,128,0,125742:0:0:0:0:
192,192,125593,128,0,125742:0:0:0:0:
64,192,125816,128,0,125964:0:0:0:0:
192,192,125816,128,0,125964:0:0:0:0:
320,192,125816,128,0,125964:0:0:0:0:
64,192,126039,1,0,0:0:0:0:
192,192,126039,1,0,0:0:0:0:
320,192,126039,1,0,0:0:0:0:
