osu file format v14

[General]
AudioFilename: audio.mp3
AudioLeadIn: 0
PreviewTime: 60022
Countdown: 0
SampleSet: Soft
StackLeniency: 0.7
Mode: 3
LetterboxInBreaks: 0
SpecialStyle: 0
WidescreenStoryboard: 1

[Editor]
DistanceSpacing: 0.8
BeatDivisor: 4
GridSize: 8
TimelineZoom: 3.300004

[Metadata]
Title:Caelum-DESTRUCTIO-
TitleUnicode:Caelum-DESTRUCTIO-
Artist:Aoi
ArtistUnicode:Aoi
Creator:akuma123
Version:Extinction
Source:
Tags:K-Shoot MANIA ksm breakcore remix noup piano soundcloud
BeatmapID:1713439
BeatmapSetID:817130

[Difficulty]
HPDrainRate:9.2
CircleSize:4
OverallDifficulty:9.2
ApproachRate:5
SliderMultiplier:1.4
SliderTickRate:1

[Events]
//Background and Video events
0,0,"Background.png",0,0
//Break Periods
//Storyboard Layer 0 (Background)
//Storyboard Layer 1 (Fail)
//Storyboard Layer 2 (Pass)
//Storyboard Layer 3 (Foreground)
//Storyboard Sound Samples

[TimingPoints]
22,250,4,2,1,45,1,0
60022,-100,4,2,1,45,0,1
67022,-100,4,2,1,45,0,0
68022,-100,4,2,1,45,0,1
92022,-100,4,2,1,45,0,0

[HitObjects]
64,192,22,5,0,0:0:0:0:
192,192,22,1,0,0:0:0:0:
448,192,22,1,4,0:0:0:0:
320,192,397,1,0,0:0:0:0:
192,192,459,1,0,0:0:0:0:
448,192,522,1,0,0:0:0:0:
320,192,584,1,0,0:0:0:0:
448,192,647,1,0,0:0:0:0:
64,192,709,1,0,0:0:0:0:
192,192,772,1,0,0:0:0:0:
448,192,834,1,0,0:0:0:0:
64,192,897,1,0,0:0:0:0:
320,192,959,1,0,0:0:0:0:
448,192,1022,1,4,0:0:0:0:
192,192,1022,1,0,0:0:0:0:
64,192,1022,1,0,0:0:0:0:
192,192,1397,1,0,0:0:0:0:
320,192,1459,1,0,0:0:0:0:
64,192,1522,1,0,0:0:0:0:
192,192,1584,1,0,0:0:0:0:
64,192,1647,1,0,0:0:0:0:
448,192,1709,1,0,0:0:0:0:
320,192,1772,1,0,0:0:0:0:
64,192,1834,1,0,0:0:0:0:
448,192,1897,1,0,0:0:0:0:
192,192,1959,1,0,0:0:0:0:
64,192,2022,1,0,0:0:0:0:
320,192,2022,1,0,0:0:0:0:
448,192,2022,1,4,0:0:0:0:
320,192,2397,1,0,0:0:0:0:
192,192,2459,1,0,0:0:0:0:
448,192,2522,1,0,0:0:0:0:
320,192,2584,1,0,0:0:0:0:
448,192,2647,1,0,0:0:0:0:
64,192,2709,1,0,0:0:0:0:
192,192,2772,1,0,0:0:0:0:
448,192,2834,1,0,0:0:0:0:
64,192,2897,1,0,0:0:0:0:
320,192,2959,1,0,0:0:0:0:
448,192,3022,1,0,0:0:0:0:
192,192,3053,1,0,0:0:0:0:
64,192,3084,1,0,0:0:0:0:
320,192,3147,1,0,0:0:0:0:
192,192,3209,1,0,0:0:0:0:
448,192,3272,1,0,0:0:0:0:
320,192,3303,1,0,0:0:0:0:
64,192,3334,1,0,0:0:0:0:
192,192,3397,1,0,0:0:0:0:
320,192,3459,1,0,0:0:0:0:
64,192,3522,128,0,3584:0:0:0:0:
448,192,3537,128,0,3600:0:0:0:0:
64,192,3647,128,0,3709:0:0:0:0:
448,192,3662,128,0,3725:0:0:0:0:
64,192,3772,1,0,0:0:0:0:
192,192,3792,1,0,0:0:0:0:
320,192,3813,1,0,0:0:0:0:
448,192,3834,1,0,0:0:0:0:
448,192,4022,1,4,0:0:0:0:
320,192,4022,1,0,0:0:0:0:
64,192,4022,1,0,0:0:0:0:
192,192,4397,1,0,0:0:0:0:
320,192,4459,1,0,0:0:0:0:
64,192,4522,1,0,0:0:0:0:
192,192,4584,1,0,0:0:0:0:
64,192,4647,1,0,0:0:0:0:
448,192,4709,1,0,0:0:0:0:
320,192,4772,1,0,0:0:0:0:
64,192,4834,1,0,0:0:0:0:
448,192,4897,1,0,0:0:0:0:
192,192,4959,1,0,0:0:0:0:
320,192,5022,1,0,0:0:0:0:
64,192,5022,1,0,0:0:0:0:
448,192,5022,1,4,0:0:0:0:
448,192,5397,1,0,0:0:0:0:
320,192,5459,1,0,0:0:0:0:
192,192,5522,1,0,0:0:0:0:
64,192,5522,1,0,0:0:0:0:
448,192,5522,1,4,0:0:0:0:
64,192,5897,1,0,0:0:0:0:
192,192,5959,1,0,0:0:0:0:
64,192,6022,1,4,0:0:0:0:
320,192,6022,1,2,0:0:0:0:
448,192,6022,1,0,0:0:0:0:
192,192,6084,1,0,0:0:0:0:
320,192,6147,1,2,0:0:0:0:
448,192,6147,1,0,0:0:0:0:
192,192,6209,1,0,0:0:0:0:
320,192,6272,1,2,0:0:0:0:
448,192,6272,1,0,0:0:0:0:
192,192,6334,1,0,0:0:0:0:
448,192,6397,1,0,0:0:0:0:
320,192,6397,1,2,0:0:0:0:
192,192,6459,1,0,0:0:0:0:
320,192,6522,1,2,0:0:0:0:
448,192,6522,1,0,0:0:0:0:
192,192,6584,1,0,0:0:0:0:
320,192,6647,1,2,0:0:0:0:
448,192,6647,1,0,0:0:0:0:
192,192,6709,1,0,0:0:0:0:
448,192,6772,1,0,0:0:0:0:
64,192,6772,1,2,0:0:0:0:
192,192,6834,1,0,0:0:0:0:
320,192,6834,1,2,0:0:0:0:
64,192,6897,1,2,0:0:0:0:
448,192,6897,1,0,0:0:0:0:
320,192,6959,1,2,0:0:0:0:
192,192,7022,1,0,0:0:0:0:
64,192,7022,1,2,0:0:0:0:
448,192,7022,1,4,0:0:0:0:
192,192,7147,1,0,0:0:0:0:
64,192,7272,1,0,0:0:0:0:
192,192,7272,1,0,0:0:0:0:
64,192,7397,1,0,0:0:0:0:
448,192,7397,1,0,0:0:0:0:
192,192,7459,1,0,0:0:0:0:
320,192,7522,1,0,0:0:0:0:
448,192,7522,1,0,0:0:0:0:
320,192,7584,1,0,0:0:0:0:
448,192,7584,1,0,0:0:0:0:
192,192,7647,1,0,0:0:0:0:
64,192,7647,1,0,0:0:0:0:
192,192,7709,1,0,0:0:0:0:
64,192,7709,1,0,0:0:0:0:
448,192,7772,128,0,7897:0:0:0:0:
320,192,7772,128,0,8022:0:0:0:0:
64,192,8022,1,2,0:0:0:0:
192,192,8022,1,0,0:0:0:0:
448,192,8022,1,4,0:0:0:0:
320,192,8084,1,0,0:0:0:0:
64,192,8147,1,0,0:0:0:0:
192,192,8209,1,0,0:0:0:0:
448,192,8272,1,2,0:0:0:0:
320,192,8272,1,0,0:0:0:0:
64,192,8334,1,0,0:0:0:0:
192,192,8397,1,0,0:0:0:0:
448,192,8459,1,0,0:0:0:0:
64,192,8522,1,2,0:0:0:0:
192,192,8522,1,0,0:0:0:0:
448,192,8584,1,0,0:0:0:0:
192,192,8647,1,0,0:0:0:0:
320,192,8709,1,0,0:0:0:0:
64,192,8772,1,2,0:0:0:0:
448,192,8772,1,0,0:0:0:0:
192,192,8834,1,0,0:0:0:0:
448,192,8897,1,0,0:0:0:0:
320,192,8959,1,0,0:0:0:0:
192,192,9022,1,2,0:0:0:0:
64,192,9022,1,0,0:0:0:0:
448,192,9084,1,0,0:0:0:0:
320,192,9147,1,0,0:0:0:0:
64,192,9209,1,0,0:0:0:0:
192,192,9272,1,2,0:0:0:0:
448,192,9272,1,0,0:0:0:0:
64,192,9334,1,0,0:0:0:0:
320,192,9397,1,0,0:0:0:0:
192,192,9459,1,0,0:0:0:0:
64,192,9522,1,2,0:0:0:0:
320,192,9522,1,0,0:0:0:0:
192,192,9584,1,0,0:0:0:0:
448,192,9647,1,0,0:0:0:0:
320,192,9709,1,0,0:0:0:0:
192,192,9772,1,0,0:0:0:0:
64,192,9772,1,2,0:0:0:0:
448,192,9834,1,0,0:0:0:0:
320,192,9834,1,0,0:0:0:0:
192,192,9897,1,0,0:0:0:0:
64,192,9897,1,0,0:0:0:0:
320,192,9959,1,0,0:0:0:0:
448,192,9959,1,0,0:0:0:0:
192,192,10022,1,0,0:0:0:0:
64,192,10022,1,2,0:0:0:0:
448,192,10084,1,0,0:0:0:0:
320,192,10147,1,0,0:0:0:0:
192,192,10209,1,0,0:0:0:0:
64,192,10272,1,2,0:0:0:0:
448,192,10272,1,0,0:0:0:0:
192,192,10334,1,0,0:0:0:0:
320,192,10397,1,0,0:0:0:0:
64,192,10459,1,0,0:0:0:0:
320,192,10522,1,0,0:0:0:0:
448,192,10522,1,2,0:0:0:0:
64,192,10584,1,0,0:0:0:0:
320,192,10647,1,0,0:0:0:0:
448,192,10709,1,0,0:0:0:0:
64,192,10772,1,2,0:0:0:0:
192,192,10772,1,0,0:0:0:0:
320,192,10834,1,0,0:0:0:0:
192,192,10897,1,0,0:0:0:0:
64,192,10959,1,0,0:0:0:0:
448,192,11022,1,2,0:0:0:0:
192,192,11022,1,0,0:0:0:0:
320,192,11084,1,0,0:0:0:0:
448,192,11147,1,0,0:0:0:0:
192,192,11209,1,0,0:0:0:0:
320,192,11272,1,0,0:0:0:0:
64,192,11272,1,2,0:0:0:0:
448,192,11334,1,0,0:0:0:0:
192,192,11397,1,0,0:0:0:0:
320,192,11459,1,0,0:0:0:0:
192,192,11522,1,0,0:0:0:0:
64,192,11522,1,2,0:0:0:0:
320,192,11584,1,0,0:0:0:0:
448,192,11647,1,0,0:0:0:0:
192,192,11709,1,0,0:0:0:0:
64,192,11772,1,2,0:0:0:0:
448,192,11772,1,0,0:0:0:0:
320,192,11834,1,0,0:0:0:0:
192,192,11834,1,0,0:0:0:0:
64,192,11897,1,0,0:0:0:0:
448,192,11897,1,0,0:0:0:0:
320,192,11959,1,0,0:0:0:0:
64,192,12022,1,2,0:0:0:0:
448,192,12022,1,4,0:0:0:0:
192,192,12022,1,0,0:0:0:0:
320,192,12084,1,0,0:0:0:0:
64,192,12147,1,0,0:0:0:0:
448,192,12209,1,0,0:0:0:0:
320,192,12272,1,0,0:0:0:0:
192,192,12272,1,2,0:0:0:0:
64,192,12334,1,0,0:0:0:0:
448,192,12397,1,0,0:0:0:0:
192,192,12459,1,0,0:0:0:0:
320,192,12522,1,2,0:0:0:0:
448,192,12522,1,0,0:0:0:0:
192,192,12584,1,0,0:0:0:0:
448,192,12647,1,0,0:0:0:0:
320,192,12709,1,0,0:0:0:0:
192,192,12772,1,0,0:0:0:0:
64,192,12772,1,2,0:0:0:0:
448,192,12834,1,0,0:0:0:0:
320,192,12897,1,0,0:0:0:0:
64,192,12959,1,0,0:0:0:0:
448,192,13022,1,2,0:0:0:0:
192,192,13022,1,0,0:0:0:0:
320,192,13084,1,0,0:0:0:0:
64,192,13147,1,0,0:0:0:0:
192,192,13209,1,0,0:0:0:0:
320,192,13272,1,0,0:0:0:0:
448,192,13272,1,2,0:0:0:0:
192,192,13334,1,0,0:0:0:0:
64,192,13397,1,0,0:0:0:0:
320,192,13459,1,0,0:0:0:0:
64,192,13522,1,2,0:0:0:0:
192,192,13522,1,0,0:0:0:0:
320,192,13584,1,0,0:0:0:0:
448,192,13647,1,0,0:0:0:0:
320,192,13709,1,0,0:0:0:0:
192,192,13772,1,0,0:0:0:0:
64,192,13772,1,2,0:0:0:0:
320,192,13834,1,0,0:0:0:0:
448,192,13834,1,0,0:0:0:0:
192,192,13897,1,0,0:0:0:0:
64,192,13897,1,0,0:0:0:0:
320,192,13959,1,0,0:0:0:0:
192,192,14022,1,0,0:0:0:0:
64,192,14022,1,2,0:0:0:0:
448,192,14022,1,4,0:0:0:0:
320,192,14084,1,0,0:0:0:0:
64,192,14147,1,0,0:0:0:0:
448,192,14209,1,0,0:0:0:0:
320,192,14272,1,0,0:0:0:0:
192,192,14272,1,2,0:0:0:0:
64,192,14334,1,0,0:0:0:0:
448,192,14397,1,0,0:0:0:0:
192,192,14459,1,0,0:0:0:0:
448,192,14522,1,0,0:0:0:0:
320,192,14522,1,2,0:0:0:0:
192,192,14584,1,0,0:0:0:0:
448,192,14647,1,0,0:0:0:0:
320,192,14709,1,0,0:0:0:0:
192,192,14772,1,0,0:0:0:0:
64,192,14772,1,2,0:0:0:0:
448,192,14834,1,0,0:0:0:0:
320,192,14897,1,0,0:0:0:0:
192,192,14959,1,0,0:0:0:0:
320,192,15022,1,0,0:0:0:0:
448,192,15022,1,4,0:0:0:0:
64,192,15022,1,2,0:0:0:0:
192,192,15084,1,0,0:0:0:0:
448,192,15147,1,0,0:0:0:0:
320,192,15209,1,0,0:0:0:0:
192,192,15272,1,0,0:0:0:0:
64,192,15272,1,2,0:0:0:0:
320,192,15334,1,0,0:0:0:0:
448,192,15397,1,0,0:0:0:0:
192,192,15459,1,0,0:0:0:0:
448,192,15522,1,4,0:0:0:0:
320,192,15522,1,0,0:0:0:0:
64,192,15522,1,2,0:0:0:0:
192,192,15584,1,0,0:0:0:0:
320,192,15647,1,0,0:0:0:0:
192,192,15709,1,0,0:0:0:0:
448,192,15709,1,4,0:0:0:0:
64,192,15709,1,0,0:0:0:0:
320,192,15772,1,0,0:0:0:0:
192,192,15834,1,0,0:0:0:0:
64,192,15897,1,0,0:0:0:0:
448,192,15897,1,4,0:0:0:0:
320,192,15897,1,0,0:0:0:0:
192,192,15959,1,0,0:0:0:0:
64,192,16022,128,2,16084:0:0:0:0:
448,192,16022,128,4,16084:0:0:0:0:
320,192,16022,128,4,16084:0:0:0:0:
192,192,16084,1,0,0:0:0:0:
448,192,16147,1,0,0:0:0:0:
320,192,16209,1,0,0:0:0:0:
192,192,16272,1,0,0:0:0:0:
64,192,16272,1,8,0:0:0:0:
448,192,16272,1,8,0:0:0:0:
320,192,16334,1,0,0:0:0:0:
192,192,16397,1,0,0:0:0:0:
448,192,16459,1,0,0:0:0:0:
64,192,16522,1,0,0:0:0:0:
320,192,16584,1,0,0:0:0:0:
192,192,16647,1,0,0:0:0:0:
448,192,16709,1,0,0:0:0:0:
320,192,16772,1,8,0:0:0:0:
64,192,16772,1,8,0:0:0:0:
192,192,16772,1,0,0:0:0:0:
448,192,16834,1,0,0:0:0:0:
192,192,16897,1,0,0:0:0:0:
64,192,16959,1,0,0:0:0:0:
448,192,17022,1,0,0:0:0:0:
320,192,17084,1,0,0:0:0:0:
64,192,17147,1,0,0:0:0:0:
192,192,17209,1,0,0:0:0:0:
320,192,17272,1,0,0:0:0:0:
448,192,17272,1,8,0:0:0:0:
64,192,17272,1,8,0:0:0:0:
192,192,17334,1,0,0:0:0:0:
320,192,17397,1,0,0:0:0:0:
64,192,17459,1,0,0:0:0:0:
320,192,17522,1,0,0:0:0:0:
192,192,17584,1,0,0:0:0:0:
448,192,17647,1,0,0:0:0:0:
320,192,17709,1,0,0:0:0:0:
64,192,17772,1,8,0:0:0:0:
448,192,17772,1,8,0:0:0:0:
192,192,17772,1,0,0:0:0:0:
320,192,17834,1,0,0:0:0:0:
64,192,17897,1,0,0:0:0:0:
192,192,17959,1,0,0:0:0:0:
448,192,18022,1,0,0:0:0:0:
64,192,18084,1,0,0:0:0:0:
320,192,18147,1,0,0:0:0:0:
192,192,18209,1,0,0:0:0:0:
64,192,18272,1,8,0:0:0:0:
320,192,18272,1,0,0:0:0:0:
448,192,18272,1,8,0:0:0:0:
192,192,18334,1,0,0:0:0:0:
448,192,18397,1,0,0:0:0:0:
320,192,18459,1,0,0:0:0:0:
64,192,18522,1,0,0:0:0:0:
192,192,18584,1,0,0:0:0:0:
320,192,18647,1,0,0:0:0:0:
192,192,18709,1,0,0:0:0:0:
448,192,18772,1,0,0:0:0:0:
64,192,18834,1,0,0:0:0:0:
448,192,18897,1,8,0:0:0:0:
192,192,18897,1,8,0:0:0:0:
320,192,18897,1,0,0:0:0:0:
64,192,18959,1,0,0:0:0:0:
448,192,19022,1,0,0:0:0:0:
320,192,19084,1,0,0:0:0:0:
64,192,19147,1,0,0:0:0:0:
448,192,19209,1,0,0:0:0:0:
320,192,19272,1,8,0:0:0:0:
192,192,19272,1,0,0:0:0:0:
64,192,19272,1,8,0:0:0:0:
448,192,19334,1,0,0:0:0:0:
192,192,19397,1,0,0:0:0:0:
320,192,19459,1,0,0:0:0:0:
64,192,19522,1,0,0:0:0:0:
64,192,19584,1,0,0:0:0:0:
448,192,19647,1,0,0:0:0:0:
448,192,19709,1,0,0:0:0:0:
320,192,19772,1,0,0:0:0:0:
320,192,19834,1,0,0:0:0:0:
192,192,19897,1,0,0:0:0:0:
192,192,19959,1,0,0:0:0:0:
64,192,20022,128,0,20084:0:0:0:0:
320,192,20022,128,0,20084:0:0:0:0:
448,192,20022,128,4,20084:0:0:0:0:
192,192,20084,1,0,0:0:0:0:
320,192,20147,1,0,0:0:0:0:
448,192,20209,1,0,0:0:0:0:
64,192,20272,1,8,0:0:0:0:
192,192,20272,1,0,0:0:0:0:
320,192,20272,1,8,0:0:0:0:
448,192,20334,1,0,0:0:0:0:
64,192,20397,1,0,0:0:0:0:
192,192,20459,1,0,0:0:0:0:
320,192,20522,1,0,0:0:0:0:
448,192,20584,1,0,0:0:0:0:
192,192,20647,1,0,0:0:0:0:
64,192,20709,1,0,0:0:0:0:
192,192,20772,1,8,0:0:0:0:
320,192,20772,1,0,0:0:0:0:
448,192,20772,1,8,0:0:0:0:
64,192,20834,1,0,0:0:0:0:
320,192,20897,1,0,0:0:0:0:
192,192,20959,1,0,0:0:0:0:
320,192,21022,128,0,21084:0:0:0:0:
448,192,21022,128,4,21084:0:0:0:0:
64,192,21022,128,0,21084:0:0:0:0:
192,192,21084,1,0,0:0:0:0:
448,192,21147,1,0,0:0:0:0:
320,192,21209,1,0,0:0:0:0:
64,192,21272,1,8,0:0:0:0:
192,192,21272,1,0,0:0:0:0:
448,192,21272,1,8,0:0:0:0:
320,192,21334,1,0,0:0:0:0:
192,192,21397,1,0,0:0:0:0:
64,192,21459,1,0,0:0:0:0:
320,192,21522,1,0,0:0:0:0:
192,192,21584,1,0,0:0:0:0:
448,192,21647,1,0,0:0:0:0:
320,192,21709,1,0,0:0:0:0:
64,192,21772,1,8,0:0:0:0:
192,192,21772,1,0,0:0:0:0:
448,192,21772,1,8,0:0:0:0:
320,192,21834,1,0,0:0:0:0:
192,192,21897,1,0,0:0:0:0:
64,192,21959,1,0,0:0:0:0:
320,192,22022,128,2,22084:0:0:0:0:
448,192,22022,128,4,22084:0:0:0:0:
192,192,22084,1,2,0:0:0:0:
64,192,22084,1,0,0:0:0:0:
320,192,22147,1,2,0:0:0:0:
448,192,22147,1,0,0:0:0:0:
192,192,22209,1,2,0:0:0:0:
64,192,22209,1,0,0:0:0:0:
448,192,22272,1,0,0:0:0:0:
320,192,22272,1,2,0:0:0:0:
192,192,22334,1,0,0:0:0:0:
64,192,22397,1,0,0:0:0:0:
320,192,22459,1,0,0:0:0:0:
64,192,22522,128,0,22584:0:0:0:0:
192,192,22522,128,0,22584:0:0:0:0:
448,192,22522,128,4,22584:0:0:0:0:
320,192,22584,1,0,0:0:0:0:
192,192,22647,1,0,0:0:0:0:
448,192,22709,1,0,0:0:0:0:
64,192,22772,1,0,0:0:0:0:
192,192,22834,1,0,0:0:0:0:
320,192,22897,1,0,0:0:0:0:
448,192,22897,1,0,0:0:0:0:
192,192,22959,1,0,0:0:0:0:
64,192,23022,128,0,23084:0:0:0:0:
448,192,23022,128,0,23084:0:0:0:0:
320,192,23084,1,0,0:0:0:0:
192,192,23147,1,0,0:0:0:0:
320,192,23209,1,0,0:0:0:0:
448,192,23272,128,0,23334:0:0:0:0:
64,192,23272,128,0,23334:0:0:0:0:
192,192,23334,1,0,0:0:0:0:
448,192,23397,1,0,0:0:0:0:
192,192,23459,1,0,0:0:0:0:
64,192,23522,1,0,0:0:0:0:
448,192,23584,1,0,0:0:0:0:
320,192,23647,1,0,0:0:0:0:
64,192,23709,128,0,23834:0:0:0:0:
192,192,23834,128,0,23959:0:0:0:0:
448,192,23897,128,0,23959:0:0:0:0:
320,192,23959,128,0,24022:0:0:0:0:
64,192,24022,1,4,0:0:0:0:
448,192,24022,1,4,0:0:0:0:
192,192,24022,1,2,0:0:0:0:
192,192,24147,1,0,0:0:0:0:
448,192,24272,1,0,0:0:0:0:
64,192,24272,1,2,0:0:0:0:
448,192,24397,1,0,0:0:0:0:
64,192,24397,1,2,0:0:0:0:
320,192,24522,1,0,0:0:0:0:
192,192,24522,1,8,0:0:0:0:
448,192,24522,1,8,0:0:0:0:
64,192,24647,1,2,0:0:0:0:
448,192,24647,1,0,0:0:0:0:
320,192,24709,1,0,0:0:0:0:
192,192,24772,1,0,0:0:0:0:
64,192,24834,1,0,0:0:0:0:
192,192,24897,1,2,0:0:0:0:
320,192,24897,1,0,0:0:0:0:
448,192,25022,1,2,0:0:0:0:
320,192,25022,1,0,0:0:0:0:
320,192,25084,1,0,0:0:0:0:
448,192,25084,1,2,0:0:0:0:
192,192,25147,1,0,0:0:0:0:
64,192,25147,1,2,0:0:0:0:
192,192,25209,1,0,0:0:0:0:
64,192,25209,1,2,0:0:0:0:
448,192,25272,1,0,0:0:0:0:
448,192,25334,1,0,0:0:0:0:
192,192,25397,1,0,0:0:0:0:
64,192,25397,1,2,0:0:0:0:
320,192,25459,1,0,0:0:0:0:
448,192,25522,1,0,0:0:0:0:
64,192,25522,1,2,0:0:0:0:
192,192,25647,1,0,0:0:0:0:
320,192,25647,1,2,0:0:0:0:
192,192,25709,1,0,0:0:0:0:
64,192,25772,1,0,0:0:0:0:
320,192,25834,1,0,0:0:0:0:
192,192,25897,1,0,0:0:0:0:
448,192,25959,1,0,0:0:0:0:
64,192,26022,1,0,0:0:0:0:
320,192,26022,1,2,0:0:0:0:
448,192,26147,1,0,0:0:0:0:
192,192,26209,1,0,0:0:0:0:
448,192,26272,1,0,0:0:0:0:
320,192,26334,1,0,0:0:0:0:
192,192,26397,1,0,0:0:0:0:
64,192,26397,1,2,0:0:0:0:
320,192,26522,1,8,0:0:0:0:
448,192,26522,1,0,0:0:0:0:
320,192,26584,1,8,0:0:0:0:
448,192,26584,1,0,0:0:0:0:
192,192,26647,1,8,0:0:0:0:
64,192,26647,1,0,0:0:0:0:
448,192,26772,1,0,0:0:0:0:
320,192,26772,1,8,0:0:0:0:
320,192,26834,1,8,0:0:0:0:
448,192,26834,1,0,0:0:0:0:
192,192,26897,1,8,0:0:0:0:
64,192,26897,1,0,0:0:0:0:
64,192,27022,1,2,0:0:0:0:
320,192,27022,1,0,0:0:0:0:
192,192,27084,1,0,0:0:0:0:
448,192,27147,1,0,0:0:0:0:
320,192,27209,1,0,0:0:0:0:
64,192,27272,1,0,0:0:0:0:
64,192,27334,1,0,0:0:0:0:
192,192,27397,1,2,0:0:0:0:
320,192,27397,1,0,0:0:0:0:
64,192,27459,1,0,0:0:0:0:
320,192,27522,1,2,0:0:0:0:
448,192,27522,1,0,0:0:0:0:
64,192,27647,1,0,0:0:0:0:
448,192,27647,1,0,0:0:0:0:
320,192,27709,1,0,0:0:0:0:
192,192,27772,1,8,0:0:0:0:
64,192,27772,1,0,0:0:0:0:
192,192,27834,1,8,0:0:0:0:
64,192,27834,1,0,0:0:0:0:
320,192,27897,1,8,0:0:0:0:
448,192,27897,1,0,0:0:0:0:
320,192,27959,1,8,0:0:0:0:
192,192,28022,1,0,0:0:0:0:
64,192,28022,1,0,0:0:0:0:
448,192,28022,1,4,0:0:0:0:
192,192,28147,1,0,0:0:0:0:
320,192,28147,1,2,0:0:0:0:
64,192,28272,1,0,0:0:0:0:
320,192,28272,1,0,0:0:0:0:
448,192,28272,1,4,0:0:0:0:
192,192,28334,1,0,0:0:0:0:
64,192,28397,1,2,0:0:0:0:
448,192,28397,1,0,0:0:0:0:
320,192,28522,1,0,0:0:0:0:
448,192,28522,1,2,0:0:0:0:
320,192,28584,1,0,0:0:0:0:
64,192,28647,1,0,0:0:0:0:
192,192,28647,1,0,0:0:0:0:
448,192,28647,1,8,0:0:0:0:
192,192,28772,1,0,0:0:0:0:
64,192,28772,1,2,0:0:0:0:
192,192,28834,5,0,0:0:0:0:
64,192,28897,1,0,0:0:0:0:
320,192,28897,1,0,0:0:0:0:
448,192,28897,1,8,0:0:0:0:
320,192,29022,1,2,0:0:0:0:
448,192,29022,1,0,0:0:0:0:
448,192,29084,1,0,0:0:0:0:
192,192,29147,1,0,0:0:0:0:
192,192,29209,1,0,0:0:0:0:
64,192,29272,1,2,0:0:0:0:
320,192,29272,1,0,0:0:0:0:
192,192,29334,1,0,0:0:0:0:
64,192,29397,1,2,0:0:0:0:
448,192,29397,1,0,0:0:0:0:
320,192,29459,1,0,0:0:0:0:
448,192,29522,1,0,0:0:0:0:
192,192,29522,1,2,0:0:0:0:
64,192,29584,1,0,0:0:0:0:
320,192,29647,1,0,0:0:0:0:
192,192,29647,1,2,0:0:0:0:
448,192,29772,1,0,0:0:0:0:
320,192,29803,1,0,0:0:0:0:
192,192,29834,1,0,0:0:0:0:
64,192,29897,1,0,0:0:0:0:
192,192,29959,1,0,0:0:0:0:
320,192,30022,128,0,30147:0:0:0:0:
192,192,30147,128,0,30272:0:0:0:0:
448,192,30272,128,0,30397:0:0:0:0:
320,192,30397,128,0,30522:0:0:0:0:
192,192,30522,128,0,30647:0:0:0:0:
64,192,30647,128,0,30772:0:0:0:0:
192,192,30772,128,0,30834:0:0:0:0:
320,192,30834,128,0,30897:0:0:0:0:
192,192,30897,128,0,30959:0:0:0:0:
320,192,30959,128,0,31022:0:0:0:0:
64,192,31022,1,0,0:0:0:0:
192,192,31053,1,0,0:0:0:0:
448,192,31084,1,0,0:0:0:0:
320,192,31115,1,0,0:0:0:0:
64,192,31147,1,0,0:0:0:0:
192,192,31178,1,0,0:0:0:0:
448,192,31209,1,0,0:0:0:0:
320,192,31240,1,0,0:0:0:0:
64,192,31272,1,0,0:0:0:0:
192,192,31303,1,0,0:0:0:0:
448,192,31334,1,0,0:0:0:0:
320,192,31365,1,0,0:0:0:0:
64,192,31397,1,0,0:0:0:0:
192,192,31428,1,0,0:0:0:0:
448,192,31459,1,0,0:0:0:0:
320,192,31490,1,0,0:0:0:0:
64,192,31522,1,0,0:0:0:0:
192,192,31584,1,0,0:0:0:0:
64,192,31647,1,0,0:0:0:0:
192,192,31709,1,0,0:0:0:0:
448,192,31772,1,0,0:0:0:0:
320,192,31813,1,0,0:0:0:0:
192,192,31855,1,0,0:0:0:0:
64,192,31896,1,0,0:0:0:0:
192,192,32021,1,2,0:0:0:0:
64,192,32022,1,0,0:0:0:0:
448,192,32022,1,4,0:0:0:0:
192,192,32147,1,0,0:0:0:0:
64,192,32272,1,0,0:0:0:0:
320,192,32272,1,2,0:0:0:0:
448,192,32272,1,4,0:0:0:0:
320,192,32397,1,0,0:0:0:0:
64,192,32522,1,0,0:0:0:0:
448,192,32522,1,8,0:0:0:0:
192,192,32522,1,0,0:0:0:0:
192,192,32647,1,0,0:0:0:0:
64,192,32647,1,2,0:0:0:0:
320,192,32709,1,0,0:0:0:0:
448,192,32772,1,0,0:0:0:0:
64,192,32772,1,2,0:0:0:0:
192,192,32897,1,2,0:0:0:0:
448,192,32897,1,0,0:0:0:0:
320,192,33022,1,0,0:0:0:0:
192,192,33022,1,2,0:0:0:0:
320,192,33084,1,0,0:0:0:0:
192,192,33147,1,0,0:0:0:0:
64,192,33209,1,0,0:0:0:0:
448,192,33272,1,0,0:0:0:0:
320,192,33272,1,2,0:0:0:0:
448,192,33334,1,0,0:0:0:0:
192,192,33397,1,2,0:0:0:0:
64,192,33397,1,0,0:0:0:0:
192,192,33522,1,0,0:0:0:0:
64,192,33647,1,0,0:0:0:0:
448,192,33647,1,2,0:0:0:0:
192,192,33772,1,0,0:0:0:0:
320,192,33772,1,2,0:0:0:0:
192,192,33834,1,0,0:0:0:0:
320,192,33897,1,2,0:0:0:0:
448,192,33897,1,0,0:0:0:0:
64,192,34022,1,0,0:0:0:0:
448,192,34022,1,4,0:0:0:0:
192,192,34022,1,0,0:0:0:0:
320,192,34147,1,0,0:0:0:0:
192,192,34209,1,0,0:0:0:0:
64,192,34272,1,2,0:0:0:0:
320,192,34272,1,0,0:0:0:0:
192,192,34334,1,0,0:0:0:0:
64,192,34397,1,2,0:0:0:0:
448,192,34397,1,0,0:0:0:0:
320,192,34522,1,8,0:0:0:0:
448,192,34522,1,0,0:0:0:0:
448,192,34584,1,0,0:0:0:0:
192,192,34647,1,2,0:0:0:0:
64,192,34647,1,0,0:0:0:0:
320,192,34772,1,0,0:0:0:0:
448,192,34772,1,8,0:0:0:0:
320,192,34834,1,0,0:0:0:0:
192,192,34897,1,2,0:0:0:0:
64,192,34897,1,0,0:0:0:0:
448,192,35022,1,2,0:0:0:0:
64,192,35022,1,0,0:0:0:0:
64,192,35084,1,0,0:0:0:0:
320,192,35147,1,0,0:0:0:0:
320,192,35209,1,0,0:0:0:0:
192,192,35272,1,2,0:0:0:0:
448,192,35272,1,0,0:0:0:0:
64,192,35334,1,0,0:0:0:0:
192,192,35397,1,2,0:0:0:0:
320,192,35397,1,0,0:0:0:0:
64,192,35522,1,2,0:0:0:0:
448,192,35522,1,0,0:0:0:0:
192,192,35647,1,2,0:0:0:0:
448,192,35647,1,0,0:0:0:0:
320,192,35772,1,0,0:0:0:0:
64,192,35772,1,2,0:0:0:0:
320,192,35834,1,0,0:0:0:0:
192,192,35897,1,0,0:0:0:0:
448,192,35897,1,2,0:0:0:0:
192,192,35959,1,0,0:0:0:0:
64,192,36022,1,0,0:0:0:0:
320,192,36022,1,0,0:0:0:0:
448,192,36022,1,4,0:0:0:0:
448,192,36147,1,0,0:0:0:0:
320,192,36147,1,0,0:0:0:0:
192,192,36147,1,8,0:0:0:0:
64,192,36209,1,0,0:0:0:0:
192,192,36272,1,0,0:0:0:0:
320,192,36334,1,0,0:0:0:0:
448,192,36334,1,2,0:0:0:0:
64,192,36459,1,0,0:0:0:0:
192,192,36522,1,2,0:0:0:0:
320,192,36522,1,0,0:0:0:0:
320,192,36584,1,0,0:0:0:0:
192,192,36647,1,0,0:0:0:0:
64,192,36772,5,0,0:0:0:0:
64,192,36834,1,0,0:0:0:0:
192,192,36897,1,2,0:0:0:0:
320,192,36897,1,0,0:0:0:0:
448,192,37022,5,4,0:0:0:0:
64,192,37022,1,0,0:0:0:0:
320,192,37022,1,0,0:0:0:0:
192,192,37084,1,0,0:0:0:0:
64,192,37147,1,2,0:0:0:0:
448,192,37147,1,0,0:0:0:0:
320,192,37209,1,0,0:0:0:0:
192,192,37272,1,2,0:0:0:0:
448,192,37272,1,0,0:0:0:0:
64,192,37334,1,0,0:0:0:0:
192,192,37397,1,2,0:0:0:0:
320,192,37397,1,0,0:0:0:0:
448,192,37459,1,0,0:0:0:0:
64,192,37522,1,2,0:0:0:0:
320,192,37522,1,0,0:0:0:0:
192,192,37647,1,2,0:0:0:0:
448,192,37647,1,0,0:0:0:0:
192,192,37772,5,0,0:0:0:0:
64,192,37772,1,2,0:0:0:0:
192,192,37834,1,0,0:0:0:0:
320,192,37897,1,0,0:0:0:0:
320,192,37959,1,0,0:0:0:0:
64,192,38022,1,2,0:0:0:0:
192,192,38022,1,0,0:0:0:0:
448,192,38022,1,4,0:0:0:0:
320,192,38084,1,0,0:0:0:0:
448,192,38147,1,0,0:0:0:0:
64,192,38209,1,0,0:0:0:0:
192,192,38272,1,0,0:0:0:0:
320,192,38272,1,2,0:0:0:0:
448,192,38272,1,4,0:0:0:0:
64,192,38334,1,0,0:0:0:0:
192,192,38397,1,0,0:0:0:0:
320,192,38459,1,0,0:0:0:0:
192,192,38522,1,2,0:0:0:0:
64,192,38522,1,0,0:0:0:0:
448,192,38522,1,4,0:0:0:0:
320,192,38584,1,0,0:0:0:0:
448,192,38647,1,0,0:0:0:0:
64,192,38709,1,0,0:0:0:0:
448,192,38772,1,4,0:0:0:0:
192,192,38772,1,0,0:0:0:0:
320,192,38772,1,2,0:0:0:0:
64,192,38834,1,0,0:0:0:0:
192,192,38897,1,0,0:0:0:0:
320,192,38959,1,0,0:0:0:0:
192,192,39022,1,0,0:0:0:0:
64,192,39022,1,2,0:0:0:0:
448,192,39022,1,4,0:0:0:0:
320,192,39084,1,0,0:0:0:0:
192,192,39147,1,0,0:0:0:0:
64,192,39147,1,2,0:0:0:0:
320,192,39209,1,0,0:0:0:0:
192,192,39272,1,0,0:0:0:0:
64,192,39272,1,2,0:0:0:0:
320,192,39334,1,0,0:0:0:0:
64,192,39397,1,2,0:0:0:0:
192,192,39397,1,0,0:0:0:0:
320,192,39459,1,0,0:0:0:0:
64,192,39522,1,2,0:0:0:0:
192,192,39522,128,0,39584:0:0:0:0:
448,192,39584,128,0,39647:0:0:0:0:
64,192,39647,128,0,39709:0:0:0:0:
320,192,39709,128,0,39772:0:0:0:0:
64,192,39772,1,0,0:0:0:0:
448,192,39772,128,0,39834:0:0:0:0:
320,192,39834,128,0,39897:0:0:0:0:
192,192,39897,128,0,39959:0:0:0:0:
64,192,39959,128,0,40022:0:0:0:0:
320,192,40022,1,0,0:0:0:0:
448,192,40022,1,4,0:0:0:0:
192,192,40022,1,0,0:0:0:0:
192,192,40397,1,0,0:0:0:0:
64,192,40897,1,0,0:0:0:0:
192,192,40959,1,0,0:0:0:0:
448,192,41022,1,0,0:0:0:0:
320,192,41147,1,0,0:0:0:0:
192,192,41272,1,0,0:0:0:0:
448,192,41397,1,0,0:0:0:0:
320,192,41522,1,0,0:0:0:0:
64,192,41647,1,0,0:0:0:0:
320,192,41897,1,0,0:0:0:0:
192,192,42022,1,0,0:0:0:0:
64,192,42147,1,0,0:0:0:0:
320,192,42272,1,0,0:0:0:0:
192,192,42397,1,0,0:0:0:0:
320,192,42897,1,0,0:0:0:0:
192,192,42959,1,0,0:0:0:0:
448,192,43022,1,0,0:0:0:0:
192,192,43147,1,0,0:0:0:0:
320,192,43209,1,0,0:0:0:0:
64,192,43272,1,0,0:0:0:0:
192,192,43397,1,0,0:0:0:0:
320,192,43522,1,0,0:0:0:0:
64,192,43584,1,0,0:0:0:0:
192,192,43647,1,0,0:0:0:0:
448,192,43772,1,0,0:0:0:0:
320,192,43897,1,0,0:0:0:0:
192,192,44022,1,0,0:0:0:0:
64,192,44272,1,0,0:0:0:0:
448,192,44397,1,0,0:0:0:0:
320,192,44459,1,0,0:0:0:0:
192,192,44522,1,0,0:0:0:0:
448,192,44647,1,0,0:0:0:0:
320,192,44772,1,0,0:0:0:0:
192,192,44897,1,0,0:0:0:0:
64,192,45022,1,0,0:0:0:0:
448,192,45147,1,0,0:0:0:0:
320,192,45272,1,0,0:0:0:0:
64,192,45397,1,0,0:0:0:0:
192,192,45459,1,0,0:0:0:0:
320,192,45522,1,0,0:0:0:0:
192,192,45647,1,0,0:0:0:0:
448,192,45709,1,0,0:0:0:0:
320,192,45772,1,0,0:0:0:0:
64,192,45897,1,0,0:0:0:0:
448,192,46022,1,0,0:0:0:0:
192,192,46147,1,0,0:0:0:0:
64,192,46209,1,0,0:0:0:0:
320,192,46272,1,0,0:0:0:0:
448,192,46397,1,0,0:0:0:0:
64,192,46522,1,0,0:0:0:0:
192,192,46584,1,0,0:0:0:0:
320,192,46647,1,0,0:0:0:0:
192,192,46772,1,0,0:0:0:0:
448,192,46897,1,0,0:0:0:0:
64,192,47022,1,0,0:0:0:0:
320,192,47147,1,0,0:0:0:0:
192,192,47272,1,0,0:0:0:0:
64,192,47397,1,0,0:0:0:0:
448,192,47522,1,0,0:0:0:0:
320,192,47772,1,0,0:0:0:0:
320,192,48022,1,2,0:0:0:0:
192,192,48022,128,8,48272:0:0:0:0:
320,192,48147,1,0,0:0:0:0:
448,192,48272,1,0,0:0:0:0:
192,192,48397,128,8,48647:0:0:0:0:
64,192,48397,1,2,0:0:0:0:
320,192,48459,1,0,0:0:0:0:
64,192,48522,1,0,0:0:0:0:
448,192,48584,1,0,0:0:0:0:
320,192,48647,1,0,0:0:0:0:
64,192,48647,1,2,0:0:0:0:
192,192,48772,1,0,0:0:0:0:
320,192,49022,1,2,0:0:0:0:
448,192,49022,1,0,0:0:0:0:
320,192,49147,1,2,0:0:0:0:
448,192,49147,1,0,0:0:0:0:
192,192,49272,1,0,0:0:0:0:
64,192,49397,1,2,0:0:0:0:
448,192,49397,1,0,0:0:0:0:
320,192,49459,1,0,0:0:0:0:
192,192,49522,1,0,0:0:0:0:
64,192,49584,1,0,0:0:0:0:
192,192,49647,1,2,0:0:0:0:
320,192,49647,1,0,0:0:0:0:
448,192,49772,1,0,0:0:0:0:
320,192,49897,1,0,0:0:0:0:
448,192,50022,1,2,0:0:0:0:
192,192,50022,128,8,50272:0:0:0:0:
448,192,50147,1,0,0:0:0:0:
320,192,50272,1,0,0:0:0:0:
192,192,50397,128,8,50647:0:0:0:0:
64,192,50397,1,2,0:0:0:0:
448,192,50459,1,0,0:0:0:0:
64,192,50522,1,0,0:0:0:0:
320,192,50584,1,0,0:0:0:0:
64,192,50647,1,2,0:0:0:0:
448,192,50647,1,0,0:0:0:0:
192,192,50772,1,0,0:0:0:0:
64,192,51022,1,0,0:0:0:0:
192,192,51022,1,2,0:0:0:0:
192,192,51147,1,2,0:0:0:0:
64,192,51147,1,0,0:0:0:0:
320,192,51272,1,0,0:0:0:0:
448,192,51397,1,0,0:0:0:0:
64,192,51397,1,2,0:0:0:0:
192,192,51459,1,0,0:0:0:0:
320,192,51522,1,0,0:0:0:0:
192,192,51647,1,2,0:0:0:0:
448,192,51647,1,0,0:0:0:0:
64,192,51709,1,0,0:0:0:0:
192,192,51772,1,0,0:0:0:0:
448,192,51834,1,0,0:0:0:0:
320,192,51897,1,0,0:0:0:0:
64,192,52022,1,0,0:0:0:0:
320,192,52022,1,2,0:0:0:0:
448,192,52022,1,4,0:0:0:0:
192,192,52022,128,8,52272:0:0:0:0:
64,192,52147,1,0,0:0:0:0:
320,192,52272,1,2,0:0:0:0:
448,192,52272,1,0,0:0:0:0:
192,192,52397,128,8,52647:0:0:0:0:
64,192,52397,1,2,0:0:0:0:
320,192,52459,1,0,0:0:0:0:
448,192,52522,1,0,0:0:0:0:
64,192,52522,1,2,0:0:0:0:
448,192,52647,1,0,0:0:0:0:
320,192,52647,1,2,0:0:0:0:
320,192,52772,1,0,0:0:0:0:
64,192,52772,1,2,0:0:0:0:
192,192,52897,1,0,0:0:0:0:
320,192,52959,1,0,0:0:0:0:
192,192,53022,1,0,0:0:0:0:
64,192,53022,1,2,0:0:0:0:
448,192,53022,1,4,0:0:0:0:
64,192,53147,1,0,0:0:0:0:
192,192,53272,1,2,0:0:0:0:
320,192,53272,1,0,0:0:0:0:
320,192,53397,1,0,0:0:0:0:
192,192,53459,1,0,0:0:0:0:
448,192,53522,1,0,0:0:0:0:
64,192,53522,1,2,0:0:0:0:
448,192,53647,1,0,0:0:0:0:
320,192,53772,1,0,0:0:0:0:
64,192,53772,1,2,0:0:0:0:
192,192,53834,1,0,0:0:0:0:
448,192,53897,1,0,0:0:0:0:
64,192,53959,1,0,0:0:0:0:
320,192,54022,1,0,0:0:0:0:
448,192,54022,1,2,0:0:0:0:
192,192,54084,1,0,0:0:0:0:
64,192,54084,1,0,0:0:0:0:
320,192,54147,1,0,0:0:0:0:
448,192,54147,1,2,0:0:0:0:
192,192,54209,1,0,0:0:0:0:
64,192,54209,1,0,0:0:0:0:
320,192,54272,1,0,0:0:0:0:
448,192,54272,1,2,0:0:0:0:
192,192,54334,1,0,0:0:0:0:
64,192,54334,1,0,0:0:0:0:
320,192,54397,1,0,0:0:0:0:
448,192,54397,1,2,0:0:0:0:
192,192,54459,1,0,0:0:0:0:
64,192,54459,1,0,0:0:0:0:
320,192,54522,1,0,0:0:0:0:
448,192,54522,1,2,0:0:0:0:
192,192,54584,1,0,0:0:0:0:
64,192,54584,1,0,0:0:0:0:
320,192,54647,1,0,0:0:0:0:
448,192,54647,1,2,0:0:0:0:
192,192,54709,1,0,0:0:0:0:
64,192,54709,1,0,0:0:0:0:
320,192,54772,1,0,0:0:0:0:
448,192,54772,1,2,0:0:0:0:
192,192,54834,1,0,0:0:0:0:
64,192,54834,1,0,0:0:0:0:
320,192,54897,1,0,0:0:0:0:
448,192,54897,1,2,0:0:0:0:
192,192,54959,1,0,0:0:0:0:
320,192,55022,1,0,0:0:0:0:
448,192,55022,1,4,0:0:0:0:
64,192,55022,1,0,0:0:0:0:
192,192,55084,1,0,0:0:0:0:
320,192,55147,1,0,0:0:0:0:
448,192,55209,1,0,0:0:0:0:
64,192,55272,1,4,0:0:0:0:
192,192,55272,1,2,0:0:0:0:
320,192,55272,1,0,0:0:0:0:
448,192,55334,1,0,0:0:0:0:
64,192,55397,1,0,0:0:0:0:
192,192,55459,1,0,0:0:0:0:
64,192,55522,1,0,0:0:0:0:
320,192,55522,1,2,0:0:0:0:
448,192,55522,1,4,0:0:0:0:
192,192,55584,1,0,0:0:0:0:
320,192,55647,1,0,0:0:0:0:
448,192,55709,1,0,0:0:0:0:
320,192,55772,1,2,0:0:0:0:
192,192,55772,1,0,0:0:0:0:
64,192,55772,1,4,0:0:0:0:
448,192,55834,1,0,0:0:0:0:
192,192,55897,1,0,0:0:0:0:
320,192,55959,1,0,0:0:0:0:
192,192,56022,1,0,0:0:0:0:
64,192,56022,1,8,0:0:0:0:
448,192,56022,1,4,0:0:0:0:
64,192,56272,1,8,0:0:0:0:
192,192,56272,1,0,0:0:0:0:
448,192,56272,1,0,0:0:0:0:
320,192,56522,1,0,0:0:0:0:
448,192,56522,1,0,0:0:0:0:
192,192,56772,1,0,0:0:0:0:
320,192,56772,1,0,0:0:0:0:
320,192,56897,1,0,0:0:0:0:
192,192,57022,1,0,0:0:0:0:
448,192,57022,1,0,0:0:0:0:
64,192,57022,1,8,0:0:0:0:
64,192,57147,1,8,0:0:0:0:
192,192,57147,1,0,0:0:0:0:
448,192,57147,1,0,0:0:0:0:
64,192,57272,1,0,0:0:0:0:
448,192,57272,1,8,0:0:0:0:
320,192,57272,1,0,0:0:0:0:
64,192,57397,1,0,0:0:0:0:
320,192,57397,1,0,0:0:0:0:
448,192,57397,1,8,0:0:0:0:
320,192,57522,1,0,0:0:0:0:
192,192,57522,1,0,0:0:0:0:
192,192,57647,1,0,0:0:0:0:
320,192,57647,1,0,0:0:0:0:
192,192,57772,1,0,0:0:0:0:
192,192,57897,1,0,0:0:0:0:
448,192,58022,128,0,58147:0:0:0:0:
320,192,58147,128,0,58334:0:0:0:0:
192,192,58334,128,0,58522:0:0:0:0:
64,192,58522,128,0,59022:0:0:0:0:
64,192,59147,128,0,59230:0:0:0:0:
192,192,59188,128,0,59272:0:0:0:0:
320,192,59230,128,0,59313:0:0:0:0:
448,192,59272,128,0,59355:0:0:0:0:
64,192,59313,128,0,59397:0:0:0:0:
192,192,59355,128,0,59438:0:0:0:0:
320,192,59397,128,0,59480:0:0:0:0:
64,192,60022,128,2,60084:0:0:0:0:
320,192,60022,128,0,60084:0:0:0:0:
448,192,60022,128,4,60084:0:0:0:0:
192,192,60084,1,0,0:0:0:0:
64,192,60147,1,0,0:0:0:0:
448,192,60209,1,0,0:0:0:0:
320,192,60209,1,0,0:0:0:0:
192,192,60272,1,0,0:0:0:0:
64,192,60334,1,0,0:0:0:0:
320,192,60397,1,0,0:0:0:0:
448,192,60397,1,0,0:0:0:0:
192,192,60459,1,0,0:0:0:0:
64,192,60522,1,0,0:0:0:0:
320,192,60584,1,0,0:0:0:0:
448,192,60584,1,0,0:0:0:0:
192,192,60647,1,0,0:0:0:0:
320,192,60709,1,0,0:0:0:0:
448,192,60772,1,0,0:0:0:0:
64,192,60772,1,0,0:0:0:0:
192,192,60834,1,0,0:0:0:0:
320,192,60834,1,0,0:0:0:0:
448,192,60897,1,0,0:0:0:0:
64,192,60897,1,0,0:0:0:0:
192,192,60959,1,0,0:0:0:0:
320,192,60959,1,0,0:0:0:0:
64,192,61022,1,0,0:0:0:0:
448,192,61022,1,0,0:0:0:0:
320,192,61084,1,0,0:0:0:0:
192,192,61147,1,0,0:0:0:0:
64,192,61147,1,0,0:0:0:0:
448,192,61209,1,0,0:0:0:0:
320,192,61272,1,0,0:0:0:0:
192,192,61272,1,0,0:0:0:0:
64,192,61334,1,0,0:0:0:0:
320,192,61397,1,0,0:0:0:0:
448,192,61397,1,0,0:0:0:0:
64,192,61459,1,0,0:0:0:0:
192,192,61522,1,0,0:0:0:0:
448,192,61584,1,0,0:0:0:0:
64,192,61647,1,0,0:0:0:0:
192,192,61647,1,0,0:0:0:0:
320,192,61709,1,0,0:0:0:0:
448,192,61772,1,0,0:0:0:0:
192,192,61834,1,0,0:0:0:0:
64,192,61897,1,0,0:0:0:0:
448,192,61897,1,0,0:0:0:0:
320,192,61959,1,0,0:0:0:0:
192,192,62022,1,0,0:0:0:0:
64,192,62022,1,0,0:0:0:0:
320,192,62084,1,0,0:0:0:0:
448,192,62147,1,0,0:0:0:0:
192,192,62209,1,0,0:0:0:0:
64,192,62209,1,0,0:0:0:0:
320,192,62272,1,0,0:0:0:0:
448,192,62334,1,0,0:0:0:0:
192,192,62397,1,0,0:0:0:0:
64,192,62397,1,0,0:0:0:0:
320,192,62459,1,0,0:0:0:0:
448,192,62522,1,0,0:0:0:0:
192,192,62584,1,0,0:0:0:0:
64,192,62584,1,0,0:0:0:0:
320,192,62647,1,0,0:0:0:0:
192,192,62709,1,0,0:0:0:0:
320,192,62772,1,0,0:0:0:0:
64,192,62772,1,0,0:0:0:0:
192,192,62834,1,0,0:0:0:0:
448,192,62834,1,0,0:0:0:0:
320,192,62897,1,0,0:0:0:0:
64,192,62897,1,0,0:0:0:0:
192,192,62959,1,0,0:0:0:0:
448,192,62959,1,0,0:0:0:0:
320,192,63022,1,0,0:0:0:0:
64,192,63022,1,0,0:0:0:0:
192,192,63084,1,0,0:0:0:0:
448,192,63147,1,0,0:0:0:0:
320,192,63209,1,0,0:0:0:0:
192,192,63209,1,0,0:0:0:0:
64,192,63272,1,0,0:0:0:0:
320,192,63334,1,0,0:0:0:0:
448,192,63397,1,0,0:0:0:0:
192,192,63397,1,0,0:0:0:0:
320,192,63459,1,0,0:0:0:0:
192,192,63522,1,0,0:0:0:0:
64,192,63584,1,0,0:0:0:0:
448,192,63584,1,0,0:0:0:0:
320,192,63647,1,0,0:0:0:0:
448,192,63709,1,0,0:0:0:0:
64,192,63772,1,0,0:0:0:0:
192,192,63772,1,0,0:0:0:0:
320,192,63834,1,0,0:0:0:0:
64,192,63897,1,0,0:0:0:0:
448,192,63897,1,0,0:0:0:0:
320,192,63959,1,0,0:0:0:0:
64,192,64022,1,0,0:0:0:0:
192,192,64022,1,0,0:0:0:0:
448,192,64022,1,4,0:0:0:0:
320,192,64084,1,0,0:0:0:0:
192,192,64147,1,0,0:0:0:0:
64,192,64209,1,0,0:0:0:0:
448,192,64209,1,0,0:0:0:0:
320,192,64272,1,0,0:0:0:0:
192,192,64334,1,0,0:0:0:0:
448,192,64397,1,0,0:0:0:0:
320,192,64397,1,0,0:0:0:0:
192,192,64459,1,0,0:0:0:0:
64,192,64459,1,0,0:0:0:0:
320,192,64522,1,0,0:0:0:0:
448,192,64522,1,0,0:0:0:0:
64,192,64584,1,0,0:0:0:0:
192,192,64647,1,0,0:0:0:0:
448,192,64647,1,0,0:0:0:0:
320,192,64709,1,0,0:0:0:0:
64,192,64772,1,0,0:0:0:0:
448,192,64772,1,0,0:0:0:0:
192,192,64834,1,0,0:0:0:0:
64,192,64897,1,0,0:0:0:0:
320,192,64897,1,0,0:0:0:0:
448,192,64959,1,0,0:0:0:0:
320,192,65022,1,0,0:0:0:0:
192,192,65022,1,0,0:0:0:0:
64,192,65084,1,0,0:0:0:0:
448,192,65147,1,0,0:0:0:0:
320,192,65209,1,0,0:0:0:0:
192,192,65209,1,0,0:0:0:0:
64,192,65272,1,0,0:0:0:0:
448,192,65334,1,0,0:0:0:0:
192,192,65397,1,0,0:0:0:0:
64,192,65397,1,0,0:0:0:0:
320,192,65459,1,0,0:0:0:0:
448,192,65459,1,0,0:0:0:0:
64,192,65522,1,0,0:0:0:0:
192,192,65522,1,0,0:0:0:0:
320,192,65584,1,0,0:0:0:0:
192,192,65647,1,0,0:0:0:0:
64,192,65709,1,0,0:0:0:0:
448,192,65709,1,0,0:0:0:0:
320,192,65772,1,0,0:0:0:0:
192,192,65834,1,0,0:0:0:0:
448,192,65897,1,0,0:0:0:0:
64,192,65897,1,0,0:0:0:0:
192,192,65959,1,0,0:0:0:0:
448,192,66022,1,0,0:0:0:0:
320,192,66022,1,0,0:0:0:0:
192,192,66084,1,0,0:0:0:0:
64,192,66147,1,0,0:0:0:0:
320,192,66209,1,0,0:0:0:0:
192,192,66209,1,0,0:0:0:0:
64,192,66272,1,0,0:0:0:0:
448,192,66334,1,0,0:0:0:0:
320,192,66397,1,0,0:0:0:0:
64,192,66397,1,0,0:0:0:0:
448,192,66459,1,0,0:0:0:0:
320,192,66522,1,0,0:0:0:0:
192,192,66584,1,0,0:0:0:0:
64,192,66584,1,0,0:0:0:0:
448,192,66647,1,0,0:0:0:0:
192,192,66709,1,0,0:0:0:0:
64,192,66772,1,0,0:0:0:0:
320,192,66772,1,0,0:0:0:0:
192,192,66834,1,0,0:0:0:0:
64,192,66897,1,0,0:0:0:0:
448,192,66897,1,0,0:0:0:0:
320,192,66959,1,0,0:0:0:0:
64,192,67022,1,0,0:0:0:0:
192,192,67022,1,8,0:0:0:0:
448,192,67022,1,4,0:0:0:0:
320,192,67272,1,0,0:0:0:0:
448,192,67272,1,8,0:0:0:0:
64,192,67272,1,8,0:0:0:0:
192,192,67522,1,8,0:0:0:0:
320,192,67522,1,0,0:0:0:0:
448,192,67522,1,0,0:0:0:0:
192,192,67647,1,8,0:0:0:0:
320,192,67647,1,0,0:0:0:0:
448,192,67647,1,0,0:0:0:0:
64,192,67897,1,0,0:0:0:0:
192,192,67897,1,8,0:0:0:0:
448,192,67897,1,0,0:0:0:0:
320,192,68022,128,0,68084:0:0:0:0:
448,192,68022,128,4,68084:0:0:0:0:
64,192,68022,128,8,68084:0:0:0:0:
192,192,68084,1,0,0:0:0:0:
64,192,68147,1,0,0:0:0:0:
320,192,68209,1,0,0:0:0:0:
448,192,68209,1,0,0:0:0:0:
192,192,68272,1,0,0:0:0:0:
320,192,68334,1,0,0:0:0:0:
192,192,68397,1,0,0:0:0:0:
64,192,68397,1,0,0:0:0:0:
448,192,68459,1,0,0:0:0:0:
320,192,68522,1,0,0:0:0:0:
192,192,68584,1,0,0:0:0:0:
64,192,68584,1,0,0:0:0:0:
448,192,68647,1,0,0:0:0:0:
192,192,68709,1,0,0:0:0:0:
64,192,68772,1,0,0:0:0:0:
448,192,68772,1,0,0:0:0:0:
320,192,68834,1,0,0:0:0:0:
192,192,68834,1,0,0:0:0:0:
64,192,68897,1,0,0:0:0:0:
448,192,68897,1,0,0:0:0:0:
320,192,68959,1,0,0:0:0:0:
192,192,68959,1,0,0:0:0:0:
64,192,69022,1,0,0:0:0:0:
448,192,69022,1,0,0:0:0:0:
320,192,69084,1,0,0:0:0:0:
64,192,69147,1,0,0:0:0:0:
192,192,69147,1,0,0:0:0:0:
320,192,69209,1,0,0:0:0:0:
64,192,69272,1,0,0:0:0:0:
448,192,69272,1,0,0:0:0:0:
192,192,69334,1,0,0:0:0:0:
320,192,69397,1,0,0:0:0:0:
448,192,69397,1,0,0:0:0:0:
64,192,69459,1,0,0:0:0:0:
192,192,69522,1,0,0:0:0:0:
448,192,69584,1,0,0:0:0:0:
192,192,69647,1,0,0:0:0:0:
64,192,69647,1,0,0:0:0:0:
448,192,69709,1,0,0:0:0:0:
320,192,69772,1,0,0:0:0:0:
192,192,69834,1,0,0:0:0:0:
64,192,69897,1,0,0:0:0:0:
448,192,69897,1,0,0:0:0:0:
320,192,69959,1,0,0:0:0:0:
192,192,70022,1,0,0:0:0:0:
64,192,70022,1,0,0:0:0:0:
320,192,70084,1,0,0:0:0:0:
448,192,70147,1,0,0:0:0:0:
192,192,70209,1,0,0:0:0:0:
64,192,70209,1,0,0:0:0:0:
320,192,70272,1,0,0:0:0:0:
192,192,70334,1,0,0:0:0:0:
320,192,70397,1,0,0:0:0:0:
448,192,70397,1,0,0:0:0:0:
64,192,70459,1,0,0:0:0:0:
192,192,70522,1,0,0:0:0:0:
320,192,70584,1,0,0:0:0:0:
448,192,70584,1,0,0:0:0:0:
64,192,70647,1,0,0:0:0:0:
320,192,70709,1,0,0:0:0:0:
192,192,70772,1,0,0:0:0:0:
448,192,70772,1,0,0:0:0:0:
64,192,70834,1,0,0:0:0:0:
320,192,70834,1,0,0:0:0:0:
192,192,70897,1,0,0:0:0:0:
448,192,70897,1,0,0:0:0:0:
320,192,70959,1,0,0:0:0:0:
64,192,70959,1,0,0:0:0:0:
192,192,71022,1,0,0:0:0:0:
448,192,71022,1,0,0:0:0:0:
64,192,71084,1,0,0:0:0:0:
448,192,71147,1,0,0:0:0:0:
320,192,71209,1,0,0:0:0:0:
192,192,71209,1,0,0:0:0:0:
64,192,71272,1,0,0:0:0:0:
448,192,71334,1,0,0:0:0:0:
64,192,71397,1,0,0:0:0:0:
320,192,71397,1,0,0:0:0:0:
192,192,71459,1,0,0:0:0:0:
320,192,71522,1,0,0:0:0:0:
448,192,71584,1,0,0:0:0:0:
64,192,71584,1,0,0:0:0:0:
192,192,71647,1,0,0:0:0:0:
320,192,71709,1,0,0:0:0:0:
64,192,71772,1,0,0:0:0:0:
192,192,71772,1,0,0:0:0:0:
320,192,71834,1,0,0:0:0:0:
64,192,71897,1,0,0:0:0:0:
448,192,71897,1,0,0:0:0:0:
192,192,71959,1,0,0:0:0:0:
320,192,72022,128,0,72084:0:0:0:0:
448,192,72022,128,4,72084:0:0:0:0:
64,192,72022,128,0,72084:0:0:0:0:
192,192,72084,1,0,0:0:0:0:
64,192,72147,1,0,0:0:0:0:
320,192,72209,1,0,0:0:0:0:
448,192,72209,1,0,0:0:0:0:
192,192,72272,1,0,0:0:0:0:
320,192,72334,1,0,0:0:0:0:
64,192,72397,1,0,0:0:0:0:
448,192,72397,1,0,0:0:0:0:
192,192,72459,1,0,0:0:0:0:
448,192,72522,1,0,0:0:0:0:
64,192,72584,1,0,0:0:0:0:
192,192,72584,1,0,0:0:0:0:
320,192,72647,1,0,0:0:0:0:
64,192,72709,1,0,0:0:0:0:
192,192,72772,1,0,0:0:0:0:
448,192,72772,1,0,0:0:0:0:
320,192,72834,5,0,0:0:0:0:
64,192,72897,1,0,0:0:0:0:
448,192,72897,1,0,0:0:0:0:
320,192,72959,1,0,0:0:0:0:
192,192,73022,128,0,73084:0:0:0:0:
448,192,73022,128,4,73084:0:0:0:0:
64,192,73022,128,0,73084:0:0:0:0:
320,192,73084,1,0,0:0:0:0:
448,192,73147,1,0,0:0:0:0:
192,192,73209,1,0,0:0:0:0:
64,192,73209,1,0,0:0:0:0:
320,192,73272,1,0,0:0:0:0:
192,192,73334,1,0,0:0:0:0:
64,192,73397,1,0,0:0:0:0:
448,192,73397,1,0,0:0:0:0:
320,192,73459,1,0,0:0:0:0:
192,192,73522,1,0,0:0:0:0:
320,192,73584,1,0,0:0:0:0:
448,192,73584,1,0,0:0:0:0:
64,192,73647,1,0,0:0:0:0:
192,192,73709,1,0,0:0:0:0:
64,192,73772,1,0,0:0:0:0:
320,192,73772,1,0,0:0:0:0:
448,192,73834,1,0,0:0:0:0:
320,192,73897,1,0,0:0:0:0:
192,192,73897,1,0,0:0:0:0:
64,192,73959,1,0,0:0:0:0:
320,192,74022,128,0,74084:0:0:0:0:
448,192,74022,128,4,74084:0:0:0:0:
192,192,74084,1,0,0:0:0:0:
64,192,74084,1,0,0:0:0:0:
320,192,74147,1,0,0:0:0:0:
448,192,74147,1,0,0:0:0:0:
192,192,74209,1,0,0:0:0:0:
64,192,74209,1,0,0:0:0:0:
448,192,74272,1,0,0:0:0:0:
320,192,74272,1,0,0:0:0:0:
192,192,74334,1,0,0:0:0:0:
64,192,74334,1,0,0:0:0:0:
320,192,74397,1,0,0:0:0:0:
448,192,74397,1,0,0:0:0:0:
192,192,74459,1,0,0:0:0:0:
64,192,74459,1,0,0:0:0:0:
320,192,74522,128,0,74584:0:0:0:0:
448,192,74522,128,4,74584:0:0:0:0:
192,192,74584,1,0,0:0:0:0:
64,192,74584,1,0,0:0:0:0:
320,192,74647,1,0,0:0:0:0:
448,192,74647,1,0,0:0:0:0:
192,192,74709,1,0,0:0:0:0:
64,192,74709,1,0,0:0:0:0:
448,192,74772,1,0,0:0:0:0:
320,192,74772,1,0,0:0:0:0:
192,192,74834,1,0,0:0:0:0:
64,192,74834,1,0,0:0:0:0:
320,192,74897,1,0,0:0:0:0:
448,192,74897,1,0,0:0:0:0:
192,192,74959,1,0,0:0:0:0:
64,192,75022,1,0,0:0:0:0:
320,192,75022,1,8,0:0:0:0:
448,192,75022,1,4,0:0:0:0:
64,192,75147,1,0,0:0:0:0:
192,192,75147,1,0,0:0:0:0:
320,192,75147,1,8,0:0:0:0:
192,192,75397,1,0,0:0:0:0:
448,192,75397,1,0,0:0:0:0:
320,192,75397,1,8,0:0:0:0:
64,192,75647,1,8,0:0:0:0:
448,192,75647,128,0,75730:0:0:0:0:
320,192,75688,128,0,75772:0:0:0:0:
192,192,75730,128,0,75772:0:0:0:0:
64,192,75772,128,0,75855:0:0:0:0:
192,192,75813,128,0,75897:0:0:0:0:
320,192,75855,128,0,75938:0:0:0:0:
448,192,75897,128,0,75980:0:0:0:0:
64,192,76022,128,0,76084:0:0:0:0:
320,192,76022,128,0,76084:0:0:0:0:
448,192,76022,128,4,76084:0:0:0:0:
192,192,76084,1,0,0:0:0:0:
320,192,76147,1,0,0:0:0:0:
448,192,76209,1,0,0:0:0:0:
192,192,76272,1,0,0:0:0:0:
320,192,76334,1,0,0:0:0:0:
192,192,76397,1,0,0:0:0:0:
64,192,76397,1,0,0:0:0:0:
320,192,76459,1,0,0:0:0:0:
448,192,76459,1,0,0:0:0:0:
192,192,76522,1,0,0:0:0:0:
64,192,76522,1,0,0:0:0:0:
320,192,76584,1,0,0:0:0:0:
448,192,76647,1,0,0:0:0:0:
64,192,76647,1,0,0:0:0:0:
192,192,76709,1,0,0:0:0:0:
320,192,76709,1,0,0:0:0:0:
448,192,76772,1,0,0:0:0:0:
64,192,76772,1,0,0:0:0:0:
320,192,76834,1,0,0:0:0:0:
192,192,76897,1,0,0:0:0:0:
64,192,76959,1,0,0:0:0:0:
448,192,77022,1,0,0:0:0:0:
320,192,77053,1,0,0:0:0:0:
192,192,77084,1,0,0:0:0:0:
448,192,77147,1,0,0:0:0:0:
320,192,77178,1,0,0:0:0:0:
192,192,77209,1,0,0:0:0:0:
448,192,77272,1,0,0:0:0:0:
320,192,77303,1,0,0:0:0:0:
192,192,77334,1,0,0:0:0:0:
448,192,77397,1,0,0:0:0:0:
320,192,77428,1,0,0:0:0:0:
192,192,77459,1,0,0:0:0:0:
448,192,77522,1,0,0:0:0:0:
64,192,77522,1,0,0:0:0:0:
192,192,77584,1,0,0:0:0:0:
320,192,77584,1,0,0:0:0:0:
64,192,77647,1,0,0:0:0:0:
448,192,77647,1,0,0:0:0:0:
320,192,77709,1,0,0:0:0:0:
64,192,77772,1,0,0:0:0:0:
192,192,77772,1,0,0:0:0:0:
320,192,77834,1,0,0:0:0:0:
64,192,77897,1,0,0:0:0:0:
448,192,77897,1,0,0:0:0:0:
192,192,77959,1,0,0:0:0:0:
320,192,78022,1,0,0:0:0:0:
448,192,78022,1,0,0:0:0:0:
192,192,78084,1,0,0:0:0:0:
64,192,78084,1,0,0:0:0:0:
320,192,78147,1,0,0:0:0:0:
448,192,78147,1,0,0:0:0:0:
192,192,78209,1,0,0:0:0:0:
64,192,78209,1,0,0:0:0:0:
320,192,78272,1,0,0:0:0:0:
448,192,78272,1,0,0:0:0:0:
64,192,78397,1,0,0:0:0:0:
448,192,78397,1,0,0:0:0:0:
320,192,78459,1,0,0:0:0:0:
192,192,78459,1,0,0:0:0:0:
64,192,78522,1,0,0:0:0:0:
448,192,78522,1,0,0:0:0:0:
320,192,78584,1,0,0:0:0:0:
192,192,78584,1,0,0:0:0:0:
64,192,78647,1,0,0:0:0:0:
448,192,78647,1,0,0:0:0:0:
64,192,78772,1,0,0:0:0:0:
192,192,78772,1,0,0:0:0:0:
320,192,78834,1,0,0:0:0:0:
448,192,78834,1,0,0:0:0:0:
192,192,78897,1,0,0:0:0:0:
64,192,78897,1,0,0:0:0:0:
320,192,78959,1,0,0:0:0:0:
448,192,78959,1,0,0:0:0:0:
64,192,79022,1,0,0:0:0:0:
192,192,79053,1,0,0:0:0:0:
320,192,79084,1,0,0:0:0:0:
448,192,79115,1,0,0:0:0:0:
64,192,79147,1,0,0:0:0:0:
192,192,79209,1,0,0:0:0:0:
448,192,79272,1,0,0:0:0:0:
320,192,79303,1,0,0:0:0:0:
192,192,79334,1,0,0:0:0:0:
64,192,79365,1,0,0:0:0:0:
448,192,79397,1,0,0:0:0:0:
320,192,79459,1,0,0:0:0:0:
64,192,79522,1,0,0:0:0:0:
192,192,79553,1,0,0:0:0:0:
320,192,79584,1,0,0:0:0:0:
64,192,79647,1,0,0:0:0:0:
192,192,79678,1,0,0:0:0:0:
320,192,79709,1,0,0:0:0:0:
448,192,79772,128,0,79834:0:0:0:0:
320,192,79834,128,0,79897:0:0:0:0:
192,192,79897,128,0,79959:0:0:0:0:
64,192,79959,128,0,80022:0:0:0:0:
320,192,80022,128,0,80084:0:0:0:0:
448,192,80022,128,4,80084:0:0:0:0:
192,192,80084,1,0,0:0:0:0:
64,192,80147,1,0,0:0:0:0:
448,192,80147,1,0,0:0:0:0:
320,192,80209,1,0,0:0:0:0:
192,192,80272,1,0,0:0:0:0:
64,192,80272,1,0,0:0:0:0:
320,192,80334,1,0,0:0:0:0:
64,192,80397,1,0,0:0:0:0:
448,192,80397,1,0,0:0:0:0:
192,192,80459,1,0,0:0:0:0:
320,192,80522,1,0,0:0:0:0:
448,192,80522,1,0,0:0:0:0:
192,192,80584,1,0,0:0:0:0:
64,192,80584,1,0,0:0:0:0:
448,192,80647,1,0,0:0:0:0:
320,192,80647,1,0,0:0:0:0:
192,192,80709,1,0,0:0:0:0:
64,192,80772,1,0,0:0:0:0:
448,192,80772,1,0,0:0:0:0:
320,192,80834,1,0,0:0:0:0:
192,192,80834,1,0,0:0:0:0:
64,192,80897,1,0,0:0:0:0:
448,192,80897,1,0,0:0:0:0:
320,192,80959,1,0,0:0:0:0:
192,192,81022,1,0,0:0:0:0:
64,192,81022,1,0,0:0:0:0:
320,192,81084,1,0,0:0:0:0:
448,192,81084,1,0,0:0:0:0:
192,192,81147,1,0,0:0:0:0:
64,192,81147,1,0,0:0:0:0:
320,192,81209,1,0,0:0:0:0:
448,192,81209,1,0,0:0:0:0:
192,192,81272,1,0,0:0:0:0:
64,192,81272,1,0,0:0:0:0:
320,192,81334,1,0,0:0:0:0:
448,192,81334,1,0,0:0:0:0:
192,192,81397,1,0,0:0:0:0:
64,192,81397,1,0,0:0:0:0:
320,192,81459,1,0,0:0:0:0:
64,192,81522,1,0,0:0:0:0:
448,192,81522,1,0,0:0:0:0:
320,192,81584,1,0,0:0:0:0:
192,192,81584,1,0,0:0:0:0:
64,192,81647,1,0,0:0:0:0:
448,192,81647,1,0,0:0:0:0:
192,192,81709,1,0,0:0:0:0:
320,192,81709,1,0,0:0:0:0:
64,192,81772,1,0,0:0:0:0:
448,192,81772,1,0,0:0:0:0:
320,192,81834,1,0,0:0:0:0:
192,192,81834,1,0,0:0:0:0:
448,192,81897,1,0,0:0:0:0:
64,192,81897,1,0,0:0:0:0:
320,192,81959,1,0,0:0:0:0:
64,192,82022,1,0,0:0:0:0:
192,192,82022,1,0,0:0:0:0:
448,192,82022,1,4,0:0:0:0:
192,192,82084,1,0,0:0:0:0:
64,192,82084,1,0,0:0:0:0:
448,192,82147,1,0,0:0:0:0:
320,192,82147,1,0,0:0:0:0:
192,192,82209,1,0,0:0:0:0:
64,192,82272,1,0,0:0:0:0:
320,192,82272,1,8,0:0:0:0:
448,192,82272,1,0,0:0:0:0:
320,192,82522,1,0,0:0:0:0:
448,192,82522,1,0,0:0:0:0:
320,192,82584,1,0,0:0:0:0:
448,192,82584,1,0,0:0:0:0:
192,192,82647,1,0,0:0:0:0:
64,192,82647,1,0,0:0:0:0:
320,192,82709,1,0,0:0:0:0:
448,192,82709,1,0,0:0:0:0:
192,192,82772,1,0,0:0:0:0:
192,192,82834,1,0,0:0:0:0:
320,192,82897,1,0,0:0:0:0:
320,192,82959,1,0,0:0:0:0:
64,192,83022,1,0,0:0:0:0:
448,192,83022,1,4,0:0:0:0:
192,192,83022,1,0,0:0:0:0:
320,192,83084,1,0,0:0:0:0:
64,192,83147,1,0,0:0:0:0:
320,192,83209,1,0,0:0:0:0:
448,192,83272,1,0,0:0:0:0:
192,192,83334,1,0,0:0:0:0:
320,192,83397,1,0,0:0:0:0:
448,192,83459,1,0,0:0:0:0:
192,192,83522,1,8,0:0:0:0:
320,192,83522,1,0,0:0:0:0:
64,192,83522,1,0,0:0:0:0:
64,192,83709,1,0,0:0:0:0:
192,192,83709,1,8,0:0:0:0:
320,192,83709,1,0,0:0:0:0:
64,192,83897,1,0,0:0:0:0:
448,192,83897,1,0,0:0:0:0:
192,192,83897,1,8,0:0:0:0:
192,192,84022,128,8,84084:0:0:0:0:
320,192,84022,128,0,84084:0:0:0:0:
448,192,84022,128,4,84084:0:0:0:0:
64,192,84084,1,0,0:0:0:0:
192,192,84147,1,0,0:0:0:0:
320,192,84209,1,0,0:0:0:0:
448,192,84209,1,0,0:0:0:0:
64,192,84272,1,0,0:0:0:0:
192,192,84334,1,0,0:0:0:0:
320,192,84397,1,0,0:0:0:0:
448,192,84459,1,0,0:0:0:0:
192,192,84522,1,0,0:0:0:0:
64,192,84522,1,0,0:0:0:0:
448,192,84584,1,0,0:0:0:0:
320,192,84647,1,0,0:0:0:0:
192,192,84709,1,0,0:0:0:0:
64,192,84709,1,0,0:0:0:0:
320,192,84772,1,0,0:0:0:0:
448,192,84834,1,0,0:0:0:0:
192,192,84897,1,0,0:0:0:0:
320,192,84959,1,0,0:0:0:0:
64,192,85022,1,0,0:0:0:0:
448,192,85022,1,0,0:0:0:0:
192,192,85084,1,0,0:0:0:0:
64,192,85147,128,0,85209:0:0:0:0:
320,192,85147,128,0,85209:0:0:0:0:
448,192,85147,128,8,85209:0:0:0:0:
192,192,85272,1,0,0:0:0:0:
320,192,85334,1,0,0:0:0:0:
64,192,85397,128,8,85459:0:0:0:0:
192,192,85397,128,0,85459:0:0:0:0:
448,192,85397,128,0,85459:0:0:0:0:
320,192,85522,1,0,0:0:0:0:
448,192,85522,1,0,0:0:0:0:
64,192,85584,1,0,0:0:0:0:
320,192,85647,1,0,0:0:0:0:
448,192,85647,1,0,0:0:0:0:
192,192,85709,1,0,0:0:0:0:
64,192,85772,1,0,0:0:0:0:
448,192,85772,1,0,0:0:0:0:
320,192,85834,1,0,0:0:0:0:
64,192,85897,1,0,0:0:0:0:
448,192,85897,1,0,0:0:0:0:
320,192,85959,1,0,0:0:0:0:
192,192,86022,1,0,0:0:0:0:
64,192,86022,1,0,0:0:0:0:
448,192,86084,1,0,0:0:0:0:
320,192,86084,1,0,0:0:0:0:
192,192,86147,1,0,0:0:0:0:
64,192,86147,1,0,0:0:0:0:
448,192,86209,1,0,0:0:0:0:
320,192,86272,1,0,0:0:0:0:
192,192,86334,1,0,0:0:0:0:
64,192,86397,1,0,0:0:0:0:
448,192,86397,1,0,0:0:0:0:
192,192,86459,1,0,0:0:0:0:
320,192,86459,1,0,0:0:0:0:
64,192,86522,1,0,0:0:0:0:
448,192,86522,1,0,0:0:0:0:
192,192,86584,1,0,0:0:0:0:
320,192,86584,1,0,0:0:0:0:
64,192,86647,1,0,0:0:0:0:
448,192,86647,1,0,0:0:0:0:
192,192,86709,1,0,0:0:0:0:
320,192,86772,1,0,0:0:0:0:
448,192,86772,1,0,0:0:0:0:
192,192,86834,1,0,0:0:0:0:
64,192,86834,1,0,0:0:0:0:
320,192,86897,1,0,0:0:0:0:
448,192,86897,1,0,0:0:0:0:
64,192,86959,1,0,0:0:0:0:
192,192,86959,1,0,0:0:0:0:
320,192,87022,1,0,0:0:0:0:
448,192,87022,1,0,0:0:0:0:
64,192,87084,1,0,0:0:0:0:
192,192,87084,1,0,0:0:0:0:
320,192,87147,1,0,0:0:0:0:
448,192,87147,1,0,0:0:0:0:
192,192,87209,1,0,0:0:0:0:
64,192,87209,1,0,0:0:0:0:
320,192,87272,1,0,0:0:0:0:
448,192,87272,1,0,0:0:0:0:
192,192,87334,1,0,0:0:0:0:
64,192,87397,1,0,0:0:0:0:
448,192,87397,1,0,0:0:0:0:
320,192,87459,1,0,0:0:0:0:
64,192,87522,128,2,87584:0:0:0:0:
192,192,87522,128,2,87584:0:0:0:0:
448,192,87522,128,0,87584:0:0:0:0:
320,192,87647,128,2,87709:0:0:0:0:
448,192,87647,128,2,87709:0:0:0:0:
192,192,87647,128,0,87709:0:0:0:0:
64,192,87772,1,0,0:0:0:0:
192,192,87803,1,0,0:0:0:0:
320,192,87834,1,0,0:0:0:0:
448,192,87865,1,0,0:0:0:0:
64,192,87897,1,0,0:0:0:0:
192,192,87928,1,0,0:0:0:0:
320,192,87959,1,0,0:0:0:0:
448,192,87990,1,0,0:0:0:0:
192,192,88022,128,0,88084:0:0:0:0:
64,192,88022,128,4,88084:0:0:0:0:
320,192,88084,1,0,0:0:0:0:
448,192,88084,1,0,0:0:0:0:
64,192,88147,1,0,0:0:0:0:
192,192,88147,1,0,0:0:0:0:
320,192,88209,1,0,0:0:0:0:
64,192,88272,1,0,0:0:0:0:
448,192,88272,1,0,0:0:0:0:
192,192,88334,1,0,0:0:0:0:
320,192,88334,1,0,0:0:0:0:
448,192,88397,1,0,0:0:0:0:
64,192,88397,1,0,0:0:0:0:
192,192,88459,1,0,0:0:0:0:
320,192,88522,1,0,0:0:0:0:
448,192,88522,1,0,0:0:0:0:
192,192,88584,1,0,0:0:0:0:
64,192,88584,1,0,0:0:0:0:
320,192,88647,1,0,0:0:0:0:
448,192,88647,1,0,0:0:0:0:
192,192,88709,1,0,0:0:0:0:
64,192,88709,1,0,0:0:0:0:
320,192,88772,128,0,88897:0:0:0:0:
192,192,88897,128,0,89022:0:0:0:0:
320,192,89022,128,0,89084:0:0:0:0:
448,192,89022,128,4,89084:0:0:0:0:
192,192,89084,1,0,0:0:0:0:
64,192,89084,1,0,0:0:0:0:
320,192,89147,1,0,0:0:0:0:
448,192,89147,1,0,0:0:0:0:
192,192,89209,1,0,0:0:0:0:
64,192,89272,1,0,0:0:0:0:
448,192,89272,1,0,0:0:0:0:
320,192,89334,1,0,0:0:0:0:
192,192,89334,1,0,0:0:0:0:
64,192,89397,1,0,0:0:0:0:
448,192,89397,1,0,0:0:0:0:
320,192,89459,1,0,0:0:0:0:
192,192,89522,1,0,0:0:0:0:
64,192,89522,1,0,0:0:0:0:
448,192,89584,1,0,0:0:0:0:
320,192,89584,1,0,0:0:0:0:
64,192,89647,1,0,0:0:0:0:
192,192,89647,1,0,0:0:0:0:
320,192,89709,1,0,0:0:0:0:
448,192,89709,1,0,0:0:0:0:
192,192,89772,128,0,89959:0:0:0:0:
448,192,90022,128,4,90084:0:0:0:0:
64,192,90022,128,0,90084:0:0:0:0:
192,192,90084,1,0,0:0:0:0:
320,192,90084,1,0,0:0:0:0:
64,192,90147,1,0,0:0:0:0:
448,192,90147,1,0,0:0:0:0:
192,192,90209,1,0,0:0:0:0:
448,192,90272,1,0,0:0:0:0:
320,192,90272,1,0,0:0:0:0:
192,192,90334,1,0,0:0:0:0:
64,192,90334,1,0,0:0:0:0:
320,192,90397,1,0,0:0:0:0:
448,192,90397,1,0,0:0:0:0:
192,192,90459,1,0,0:0:0:0:
320,192,90522,128,0,90584:0:0:0:0:
64,192,90522,128,4,90584:0:0:0:0:
192,192,90584,1,0,0:0:0:0:
448,192,90584,1,0,0:0:0:0:
320,192,90647,1,0,0:0:0:0:
64,192,90647,1,0,0:0:0:0:
448,192,90709,1,0,0:0:0:0:
192,192,90772,1,0,0:0:0:0:
320,192,90772,1,0,0:0:0:0:
64,192,90834,1,0,0:0:0:0:
448,192,90834,1,0,0:0:0:0:
320,192,90897,1,0,0:0:0:0:
192,192,90897,1,0,0:0:0:0:
448,192,90959,1,0,0:0:0:0:
192,192,91022,1,0,0:0:0:0:
64,192,91022,1,2,0:0:0:0:
320,192,91084,1,0,0:0:0:0:
192,192,91147,1,0,0:0:0:0:
64,192,91147,1,2,0:0:0:0:
320,192,91209,1,0,0:0:0:0:
192,192,91272,1,0,0:0:0:0:
64,192,91272,1,2,0:0:0:0:
320,192,91334,1,0,0:0:0:0:
64,192,91397,1,2,0:0:0:0:
448,192,91397,1,0,0:0:0:0:
192,192,91459,1,0,0:0:0:0:
448,192,91522,1,2,0:0:0:0:
320,192,91553,1,0,0:0:0:0:
192,192,91584,1,0,0:0:0:0:
448,192,91647,1,2,0:0:0:0:
320,192,91678,1,0,0:0:0:0:
192,192,91709,1,0,0:0:0:0:
448,192,91772,1,2,0:0:0:0:
320,192,91803,1,0,0:0:0:0:
192,192,91834,1,0,0:0:0:0:
448,192,91897,1,2,0:0:0:0:
320,192,91928,1,0,0:0:0:0:
192,192,91959,1,0,0:0:0:0:
320,192,92022,1,8,0:0:0:0:
64,192,92022,1,4,0:0:0:0:
320,192,92084,1,0,0:0:0:0:
192,192,92147,1,0,0:0:0:0:
64,192,92209,1,0,0:0:0:0:
192,192,92272,1,0,0:0:0:0:
448,192,92272,1,8,0:0:0:0:
448,192,92334,1,0,0:0:0:0:
192,192,92397,1,0,0:0:0:0:
320,192,92459,1,0,0:0:0:0:
192,192,92522,1,8,0:0:0:0:
64,192,92522,1,0,0:0:0:0:
64,192,92584,1,0,0:0:0:0:
448,192,92647,1,0,0:0:0:0:
320,192,92709,1,0,0:0:0:0:
192,192,92772,1,8,0:0:0:0:
64,192,92772,1,0,0:0:0:0:
192,192,92834,1,0,0:0:0:0:
448,192,92897,1,0,0:0:0:0:
320,192,92959,1,0,0:0:0:0:
64,192,93022,1,8,0:0:0:0:
448,192,93022,1,0,0:0:0:0:
64,192,93084,1,0,0:0:0:0:
320,192,93147,1,0,0:0:0:0:
320,192,93209,1,0,0:0:0:0:
192,192,93272,1,8,0:0:0:0:
64,192,93272,1,0,0:0:0:0:
320,192,93334,1,0,0:0:0:0:
64,192,93397,1,0,0:0:0:0:
448,192,93397,1,8,0:0:0:0:
192,192,93459,1,0,0:0:0:0:
320,192,93522,1,0,0:0:0:0:
64,192,93584,1,0,0:0:0:0:
192,192,93647,1,8,0:0:0:0:
448,192,93647,1,0,0:0:0:0:
320,192,93709,1,0,0:0:0:0:
448,192,93772,1,0,0:0:0:0:
64,192,93772,1,8,0:0:0:0:
64,192,93834,1,0,0:0:0:0:
320,192,93897,1,8,0:0:0:0:
448,192,93897,1,0,0:0:0:0:
320,192,93959,1,0,0:0:0:0:
192,192,94022,128,8,94147:0:0:0:0:
448,192,94022,128,4,94147:0:0:0:0:
64,192,94022,128,0,94147:0:0:0:0:
