osu file format v14

[General]
AudioFilename: audio.mp3
AudioLeadIn: 0
PreviewTime: 69811
Countdown: 0
SampleSet: Soft
StackLeniency: 0.7
Mode: 0
LetterboxInBreaks: 0
WidescreenStoryboard: 0

[Editor]
DistanceSpacing: 1
BeatDivisor: 4
GridSize: 8
TimelineZoom: 1

[Metadata]
Title:Tobira o Akete Bell o Narasou
TitleUnicode:扉を開けてベルを鳴らそう
Artist:Aoi (CV: Iguchi Yuka), Hinata (CV: Asumi Kana)
ArtistUnicode:あおい (CV: 井口裕香)、ひなた (CV: 阿澄佳奈)
Creator:CoLouRed GlaZeE
Version:Normal
Source:ヤマノススメ Next Summit
Tags:garden anime japanese j-pop jpop pop female voice yama no susume fourth season 4 ed ending full size version Encouragement of Climb 雪村 あおい yukimura aoi 倉上 ひなた kuraue hinata
BeatmapID:4041702
BeatmapSetID:1948042

[Difficulty]
HPDrainRate:4
CircleSize:3
OverallDifficulty:4
ApproachRate:5
SliderMultiplier:1.2
SliderTickRate:1

[Events]
//Background and Video events
0,0,"bgg3.jpg",0,0
//Break Periods
2,165813,173469
//Storyboard Layer 0 (Background)
//Storyboard Layer 1 (Fail)
//Storyboard Layer 2 (Pass)
//Storyboard Layer 3 (Foreground)
//Storyboard Layer 4 (Overlay)
//Storyboard Sound Samples

[TimingPoints]
330,566.037735849057,4,2,1,40,1,0
1745,-100,4,2,1,50,0,0
2028,-100,4,2,1,60,0,0
2594,-100,4,2,1,70,0,1
2735,-100,4,2,1,70,0,0
11367,-100,4,2,1,40,0,0
22971,-100,4,2,1,50,0,0
32028,-100,4,2,1,55,0,0
41084,-100,4,2,1,60,0,0
43348,-100,4,2,1,65,0,0
45613,-100,4,2,1,70,0,0
52405,-100,4,2,1,80,0,1
70377,-100,4,2,1,80,0,0
70518,-100,4,2,1,90,0,1
79433,-100,4,2,1,90,0,0
79575,-100,4,2,1,90,0,1
87499,-100,4,2,1,80,0,1
90330,-100,4,2,1,40,0,0
99952,-100,4,2,1,50,0,0
108443,-100,4,2,1,50,0,0
108726,-100,4,2,1,50,0,0
109009,-100,4,2,1,55,0,0
118065,-100,4,2,1,60,0,0
120330,-100,4,2,1,65,0,0
122594,-100,4,2,1,70,0,0
127122,-100,4,2,1,80,0,1
145094,-100,4,2,1,80,0,0
145235,-100,4,2,1,80,0,1
145377,-100,4,2,1,80,0,0
163348,-100,4,2,1,60,0,0
175801,-100,4,2,1,65,0,0
176933,-100,4,2,1,70,0,0
179197,-100,4,2,1,60,0,0
181462,-100,4,2,1,70,0,0
185424,-100,4,2,1,60,0,0
185990,-100,4,2,1,80,0,1
190518,-100,4,2,1,60,0,1
190660,-100,4,2,1,65,0,1
190801,-100,4,2,1,70,0,1
190943,-100,4,2,1,75,0,1
191084,-100,4,2,1,80,0,1
203962,-100,4,2,1,80,0,0
204103,-100,4,2,1,90,0,1
213018,-100,4,2,1,90,0,0
213160,-100,4,2,1,90,0,1
221084,-100,4,2,1,80,0,1
223914,-100,4,2,1,40,0,0
228443,-100,4,2,1,50,0,0
228584,-100,4,2,1,60,0,0
228726,-100,4,2,1,70,0,0
228867,-100,4,2,1,80,0,0
229009,-100,4,2,1,80,0,1
233183,-100,4,2,1,80,0,0
233254,-100,4,2,1,80,0,1
233325,-100,4,2,1,80,0,0

[Colours]
Combo1 : 232,213,138
Combo2 : 109,209,132
Combo3 : 98,171,215
Combo4 : 237,153,78

[HitObjects]
302,88,2594,6,0,P|321:144|321:210,1,120,4|0,1:0|1:0,0:0:0:0:
307,262,3443,1,0,3:0:0:0:
271,310,3726,2,0,L|127:336,1,120,0|0,1:0|1:0,0:0:0:0:
137,273,4575,1,0,3:0:0:0:
84,244,4858,2,0,L|69:173,1,60,4|0,1:0|3:0,0:0:0:0:
60,126,5424,1,0,1:0:0:0:
155,53,5990,2,0,P|217:80|283:80,1,120,0|0,1:0|1:0,0:0:0:0:
386,59,7122,5,4,1:0:0:0:
377,119,7405,1,0,3:0:0:0:
432,143,7688,2,0,P|453:196|425:248,1,120,0|0,1:0|1:0,0:0:0:0:
366,264,8537,1,0,3:0:0:0:
308,246,8820,2,0,L|234:237,1,60,0|0,1:0|3:0,0:0:0:0:
188,231,9386,5,2,1:2:0:0:
193,111,9952,1,2,1:2:0:0:
73,111,10518,1,2,1:2:0:0:
68,231,11084,1,2,1:2:0:0:
188,231,11650,2,0,P|195:284|182:358,2,120,4|2|2,3:1|3:2|3:2,0:0:0:0:
193,111,13348,1,0,3:0:0:0:
290,41,13914,6,0,P|341:59|416:58,1,120,4|2,3:1|3:0,0:0:0:0:
437,111,14763,1,0,3:0:0:0:
475,157,15046,2,0,P|420:167|350:164,1,120,0|2,3:0|3:0,0:0:0:0:
301,140,15896,2,0,L|176:164,1,120,0|0,3:0|3:0,0:0:0:0:
124,150,16745,1,2,3:0:0:0:
41,237,17311,2,0,P|86:257|161:262,1,120,0|2,3:0|3:0,0:0:0:0:
250,336,18443,6,0,P|294:324|388:320,1,120,0|2,3:0|3:0,0:0:0:0:
423,295,19292,1,0,3:0:0:0:
478,271,19575,2,0,P|484:312|490:351,2,60,0|0|2,3:0|3:0|3:0,0:0:0:0:
475,151,20707,2,0,P|429:166|353:170,1,120,0|2,3:0|3:0,0:0:0:0:
298,162,21556,1,0,3:0:0:0:
250,124,21839,1,0,3:0:0:0:
143,68,22405,1,2,3:0:0:0:
38,126,22971,6,0,P|36:185|53:265,1,120,4|0,1:0|1:0,0:0:0:0:
83,291,23820,1,0,3:0:0:0:
99,348,24103,2,0,P|165:344|230:339,1,120,0|0,1:0|1:0,0:0:0:0:
278,333,24952,1,0,3:0:0:0:
269,213,25518,1,0,3:0:0:0:
326,196,25801,2,0,P|361:199|401:202,1,60,0|0,1:0|3:0,0:0:0:0:
445,206,26367,2,0,P|441:140|436:75,1,120,0|0,1:0|1:0,0:0:0:0:
317,95,27499,6,0,P|316:51|315:20,2,60,0|0|0,1:0|3:0|1:0,0:0:0:0:
278,141,28348,1,0,3:0:0:0:
233,181,28631,2,0,P|234:225|235:256,2,60,0|0|0,1:0|3:0|1:0,0:0:0:0:
189,139,29480,1,0,3:0:0:0:
129,130,29763,2,0,P|80:148|31:216,1,120,2|2,1:2|1:2,0:0:0:0:
46,258,30613,1,0,3:0:0:0:
65,315,30896,1,2,1:2:0:0:
180,346,31462,1,0,1:0:0:0:
299,344,32028,6,0,P|311:286|290:221,1,120,4|2,3:1|3:0,0:0:0:0:
241,201,32877,1,0,3:0:0:0:
182,212,33160,2,0,P|145:218|62:194,1,120,0|2,3:0|3:0,0:0:0:0:
69,76,34292,2,0,P|106:70|189:94,1,120,0|2,3:0|3:0,0:0:0:0:
238,65,35141,1,0,3:0:0:0:
283,104,35424,2,0,P|339:123|398:119,1,120,0|2,3:0|3:0,0:0:0:0:
471,214,36556,6,0,P|477:275|449:350,1,120,0|2,3:0|3:0,0:0:0:0:
401,319,37405,1,0,3:0:0:0:
341,317,37688,2,0,P|300:320|262:318,2,60,0|0|2,3:0|3:0|3:0,0:0:0:0:
342,197,38820,2,0,P|298:190|216:212,1,120,0|2,3:0|3:0,0:0:0:0:
175,240,39669,1,0,3:0:0:0:
142,290,39952,1,0,3:0:0:0:
44,220,40518,1,2,3:0:0:0:
94,111,41084,6,0,P|68:80|46:54,2,60,4|0|0,1:0|3:0|1:0,0:0:0:0:
151,93,41933,1,0,3:0:0:0:
210,95,42216,2,0,P|274:106|328:141,1,120,0|0,1:0|1:0,0:0:0:0:
387,233,43348,6,0,P|388:265|384:319,1,60,4|0,1:0|3:0,0:0:0:0:
346,337,43914,1,0,1:0:0:0:
286,332,44197,1,0,3:0:0:0:
226,340,44480,2,0,P|166:350|96:336,1,120,0|0,1:0|1:0,0:0:0:0:
31,247,45613,6,0,L|35:181,1,60,4|0,1:0|3:0,0:0:0:0:
90,165,46179,2,0,L|94:99,1,60,0|0,1:0|3:0,0:0:0:0:
144,73,46745,2,0,P|186:60|263:86,1,120,0|0,1:0|1:0,0:0:0:0:
311,106,47594,1,0,3:0:0:0:
367,86,47877,1,4,1:0:0:0:
449,172,48443,6,0,P|429:196|406:219,1,60,0|0,1:0|3:0,0:0:0:0:
350,231,49009,1,4,1:0:0:0:
291,215,49292,1,0,3:0:0:0:
231,211,49575,2,0,P|189:229|174:244,1,60,0|0,1:0|3:0,0:0:0:0:
146,288,50141,2,0,P|96:286|58:256,2,90,4|4|4,1:0|1:3|1:3,0:0:0:0:
194,323,51273,1,4,1:3:0:0:
429,277,52405,6,0,P|439:213|425:142,1,120,4|0,1:0|1:0,0:0:0:0:
404,105,53254,1,2,3:0:0:0:
357,67,53537,1,0,1:0:0:0:
237,74,54103,5,0,1:0:0:0:
213,129,54386,1,2,3:0:0:0:
159,156,54669,2,0,L|94:173,1,60,4|2,1:0|3:0,0:0:0:0:
54,209,55235,2,0,L|127:252,1,60,4|2,1:0|3:0,0:0:0:0:
154,273,55801,2,0,P|224:283|270:262,1,120,4|0,1:0|1:0,0:0:0:0:
387,254,56933,6,0,P|415:237|444:212,1,60,0|2,1:0|3:0,0:0:0:0:
475,174,57499,1,4,1:0:0:0:
376,105,58065,2,0,P|343:103|294:88,1,60,0|2,1:0|3:0,0:0:0:0:
260,77,58631,1,4,1:0:0:0:
203,58,58914,1,2,3:0:0:0:
144,45,59197,2,0,P|134:90|140:116,1,60,0|2,1:0|3:0,0:0:0:0:
107,155,59763,2,0,P|123:184|150:208,1,60,0|2,1:0|3:0,0:0:0:0:
198,224,60330,1,0,1:0:0:0:
159,337,60896,5,2,1:2:0:0:
102,315,61179,1,2,3:2:0:0:
53,279,61462,2,0,P|32:207|42:148,1,120,4|0,1:0|1:0,0:0:0:0:
62,108,62311,1,2,3:0:0:0:
109,71,62594,1,0,1:0:0:0:
227,89,63160,5,0,1:0:0:0:
253,143,63443,1,2,3:0:0:0:
236,200,63726,2,0,L|218:262,1,60,4|2,1:0|3:0,0:0:0:0:
249,309,64292,2,0,L|306:357,1,60,4|2,1:0|3:0,0:0:0:0:
353,334,64858,2,0,P|402:288|411:226,1,120,4|0,1:0|1:0,0:0:0:0:
402,118,65990,6,0,P|340:120|281:125,1,120,4|0,1:0|1:0,0:0:0:0:
238,166,66839,1,2,3:0:0:0:
220,223,67122,2,0,P|160:227|100:229,1,120,0|0,1:0|1:0,0:0:0:0:
53,191,67971,1,2,3:0:0:0:
38,132,68254,2,0,P|56:105|80:78,1,60,2|2,1:2|3:0,0:0:0:0:
115,40,68820,2,0,P|145:47|175:57,1,60,2|2,1:2|3:0,0:0:0:0:
227,82,69386,1,2,1:2:0:0:
215,201,69952,1,4,1:3:0:0:
294,290,70518,6,0,P|325:298|359:306,1,60,4|2,1:0|3:0,0:0:0:0:
411,314,71084,1,0,1:0:0:0:
454,202,71650,2,0,P|462:170|470:137,1,60,4|2,1:0|3:0,0:0:0:0:
478,85,72216,1,0,1:0:0:0:
366,39,72782,2,0,L|305:54,1,60,4|2,1:0|3:0,0:0:0:0:
247,47,73348,1,4,1:0:0:0:
189,62,73631,1,2,3:0:0:0:
129,54,73914,1,4,1:0:0:0:
174,164,74480,1,0,1:0:0:0:
60,203,75046,6,0,P|60:240|65:281,1,60,4|2,1:0|3:0,0:0:0:0:
79,320,75613,1,0,1:0:0:0:
196,344,76179,2,0,P|233:344|274:339,1,60,4|2,1:0|3:0,0:0:0:0:
313,325,76746,1,0,1:0:0:0:
392,235,77311,2,0,L|400:165,1,60,4|2,1:0|3:0,0:0:0:0:
399,115,77877,1,4,1:0:0:0:
341,97,78160,1,2,3:0:0:0:
281,99,78443,1,4,1:0:0:0:
201,188,79009,1,0,1:0:0:0:
105,117,79575,6,0,P|125:81|143:63,1,60,4|2,1:0|3:0,0:0:0:0:
192,42,80141,1,0,1:0:0:0:
288,113,80707,2,0,P|268:149|250:167,1,60,4|2,1:0|3:0,0:0:0:0:
201,188,81273,1,0,1:0:0:0:
110,266,81839,2,0,P|133:292|166:310,1,60,4|2,1:0|3:0,0:0:0:0:
210,326,82405,1,4,1:0:0:0:
269,330,82688,1,2,3:0:0:0:
328,321,82971,1,4,1:0:0:0:
427,254,83537,1,0,1:0:0:0:
370,148,84103,6,0,P|329:161|303:180,1,60,4|2,1:0|3:0,0:0:0:0:
274,214,84669,1,0,1:0:0:0:
162,257,85235,2,0,P|130:241|110:218,1,60,4|2,1:0|3:0,0:0:0:0:
88,168,85801,1,0,1:0:0:0:
120,52,86367,2,0,P|153:59|190:72,1,60,4|2,1:0|3:0,0:0:0:0:
237,67,86933,1,4,1:0:0:0:
295,55,87216,1,2,3:0:0:0:
354,50,87499,6,0,P|410:63|463:122,1,120,4|0,1:0|1:0,0:0:0:0:
467,163,88348,1,2,3:0:0:0:
459,222,88631,2,0,P|427:249|345:247,1,120,0|0,1:0|1:0,0:0:0:0:
300,218,89480,1,2,3:0:0:0:
240,210,89763,2,0,P|154:236|134:266,1,120,0|0,1:0|0:0,0:0:0:0:
219,345,90896,6,0,P|274:340|344:338,1,120,4|2,3:1|3:0,0:0:0:0:
398,337,91745,1,0,3:0:0:0:
458,341,92028,2,0,P|448:286|451:216,1,120,0|2,3:0|3:0,0:0:0:0:
474,167,92877,2,0,P|424:181|348:164,1,120,0|0,3:0|3:0,0:0:0:0:
304,141,93727,1,2,3:0:0:0:
198,84,94292,2,0,P|190:157|202:211,1,120,0|2,3:0|3:0,0:0:0:0:
235,316,95424,6,0,P|189:344|117:343,1,120,0|2,3:0|3:0,0:0:0:0:
98,291,96273,1,0,3:0:0:0:
71,237,96556,2,0,P|30:228|5:220,2,60,0|0|2,3:0|3:0|3:0,0:0:0:0:
153,149,97688,2,0,P|206:156|283:152,1,120,0|2,3:0|3:0,0:0:0:0:
331,142,98537,1,0,3:0:0:0:
386,118,98821,1,0,3:0:0:0:
300,33,99387,1,2,3:0:0:0:
182,58,99953,6,0,P|176:120|182:197,1,120,4|0,1:0|1:0,0:0:0:0:
194,235,100802,1,0,3:0:0:0:
251,250,101085,2,0,P|318:258|382:274,1,120,0|0,1:0|1:0,0:0:0:0:
369,329,101933,1,0,3:0:0:0:
251,344,102499,1,0,3:0:0:0:
192,331,102782,2,0,P|163:331|126:338,1,60,0|0,1:0|3:0,0:0:0:0:
72,337,103349,2,0,P|68:271|69:205,1,120,0|0,1:0|1:0,0:0:0:0:
60,97,104481,6,0,P|40:54|27:22,2,60,0|0|0,1:0|3:0|1:0,0:0:0:0:
113,125,105330,1,0,3:0:0:0:
170,144,105613,2,0,P|161:177|150:217,2,60,0|0|0,1:0|3:0|1:0,0:0:0:0:
196,90,106462,1,0,3:0:0:0:
250,64,106745,2,0,P|329:51|385:53,1,120,2|2,1:2|1:2,0:0:0:0:
418,85,107594,1,0,3:0:0:0:
468,119,107878,1,2,1:2:0:0:
451,237,108444,1,4,1:2:0:0:
364,320,109010,6,0,P|296:311|231:284,1,120,4|2,1:0|3:0,0:0:0:0:
198,259,109859,1,0,3:0:0:0:
138,268,110142,2,0,P|81:297|16:303,1,120,0|2,3:0|3:0,0:0:0:0:
40,184,111274,2,0,P|57:125|77:59,1,120,0|2,3:0|3:0,0:0:0:0:
131,51,112123,1,0,3:0:0:0:
182,81,112406,2,0,P|240:99|303:96,1,120,0|2,3:0|3:0,0:0:0:0:
402,37,113538,6,0,P|431:95|430:168,1,120,0|2,3:0|3:0,0:0:0:0:
422,208,114387,1,0,3:0:0:0:
437,265,114670,2,0,P|440:306|438:344,2,60,0|0|2,3:0|3:0|3:0,0:0:0:0:
321,295,115801,2,0,P|312:237|316:160,1,120,0|2,3:0|3:0,0:0:0:0:
325,116,116651,1,0,3:0:0:0:
314,56,116934,1,0,3:0:0:0:
195,35,117500,1,2,3:0:0:0:
96,103,118066,6,0,P|78:77|64:40,2,60,4|0|0,1:0|3:0|1:0,0:0:0:0:
148,131,118915,1,0,3:0:0:0:
160,189,119197,2,0,P|163:238|135:311,1,120,0|0,1:0|1:0,0:0:0:0:
251,348,120330,6,0,P|287:347|336:337,1,60,4|0,1:0|3:0,0:0:0:0:
367,324,120896,1,0,1:0:0:0:
414,286,121179,1,0,3:0:0:0:
432,228,121462,2,0,P|436:155|432:90,1,120,0|0,1:0|1:0,0:0:0:0:
323,60,122594,6,0,P|320:89|314:130,1,60,4|0,1:0|3:0,0:0:0:0:
288,172,123160,2,0,P|285:201|279:242,1,60,0|0,1:0|3:0,0:0:0:0:
220,232,123726,2,0,P|150:228|85:214,1,120,0|0,1:0|1:0,0:0:0:0:
45,195,124576,1,0,3:0:0:0:
52,135,124858,2,0,P|43:72|26:51,2,90,4|4|4,1:0|1:3|1:3,0:0:0:0:
111,140,125990,1,4,1:3:0:0:
328,39,127122,6,0,P|370:95|387:165,1,120,4|0,1:0|1:0,0:0:0:0:
379,201,127971,1,2,3:0:0:0:
360,258,128254,1,0,1:0:0:0:
253,201,128820,5,0,1:0:0:0:
206,238,129103,1,2,3:0:0:0:
146,243,129386,2,0,L|74:229,1,60,4|2,1:0|3:0,0:0:0:0:
48,185,129952,2,0,L|48:103,1,60,4|2,1:0|3:0,0:0:0:0:
72,70,130518,2,0,P|133:69|199:69,1,120,4|0,1:0|1:0,0:0:0:0:
309,42,131650,6,0,P|337:59|366:84,1,60,0|2,1:0|3:0,0:0:0:0:
399,119,132216,1,4,1:0:0:0:
414,238,132782,2,0,P|412:271|397:320,1,60,0|2,1:0|3:0,0:0:0:0:
374,348,133348,1,4,1:0:0:0:
314,350,133631,1,2,3:0:0:0:
254,345,133914,2,0,P|242:311|240:267,1,60,0|2,1:0|3:0,0:0:0:0:
268,235,134480,2,0,P|274:196|269:155,1,60,0|2,1:0|3:0,0:0:0:0:
247,121,135046,1,0,1:0:0:0:
153,46,135613,5,2,1:2:0:0:
95,63,135896,1,2,3:2:0:0:
41,91,136179,2,0,P|33:173|38:228,1,120,4|0,1:0|1:0,0:0:0:0:
45,269,137028,1,2,3:0:0:0:
68,324,137311,1,0,1:0:0:0:
157,243,137877,5,0,1:0:0:0:
206,277,138160,1,2,3:0:0:0:
263,294,138443,2,0,L|322:281,1,60,4|2,1:0|3:0,0:0:0:0:
330,221,139009,2,0,L|392:192,1,60,4|2,1:0|3:0,0:0:0:0:
393,136,139575,2,0,P|432:98|479:45,1,120,4|0,1:0|1:0,0:0:0:0:
356,33,140707,6,0,P|293:37|235:40,1,120,4|0,1:0|1:0,0:0:0:0:
176,38,141556,1,2,3:0:0:0:
158,95,141839,2,0,P|162:157|165:216,1,120,0|0,1:0|1:0,0:0:0:0:
112,244,142688,1,2,3:0:0:0:
53,228,142971,2,0,P|48:257|45:296,1,60,2|2,1:2|3:0,0:0:0:0:
36,346,143537,2,0,P|69:348|100:350,1,60,2|2,1:2|3:0,0:0:0:0:
155,347,144103,1,2,1:2:0:0:
263,297,144669,5,0,1:0:0:0:
287,242,144952,1,4,3:0:0:0:
312,188,145235,2,0,L|329:69,1,120,4|0,1:0|1:0,0:0:0:0:
380,38,146084,1,0,3:0:0:0:
436,58,146367,2,0,L|479:178,1,120,0|0,1:0|1:0,0:0:0:0:
471,230,147216,1,0,3:0:0:0:
448,285,147499,2,0,P|409:296|377:298,1,60,4|0,1:0|3:0,0:0:0:0:
329,296,148065,1,0,1:0:0:0:
215,335,148631,2,0,P|147:314|110:278,1,120,0|0,1:0|1:0,0:0:0:0:
110,161,149763,6,0,P|158:155|181:154,1,60,0|0,1:0|3:0,0:0:0:0:
229,148,150330,1,4,1:0:0:0:
310,59,150896,2,0,P|358:53|381:52,1,60,0|0,1:0|3:0,0:0:0:0:
429,46,151463,1,4,1:0:0:0:
478,154,152028,2,0,P|442:171|362:175,1,120,0|0,1:0|1:0,0:0:0:0:
304,163,152877,1,0,3:0:0:0:
255,127,153160,1,0,1:0:0:0:
145,77,153726,5,0,1:0:0:0:
89,98,154009,1,4,3:0:0:0:
49,143,154292,2,0,P|61:208|75:269,1,120,4|0,1:0|1:0,0:0:0:0:
115,303,155141,1,0,3:0:0:0:
172,318,155424,2,0,P|231:304|293:298,1,120,0|0,1:0|1:0,0:0:0:0:
349,298,156273,1,0,3:0:0:0:
408,288,156556,2,0,P|441:269|460:251,1,60,4|0,1:0|3:0,0:0:0:0:
476,197,157122,2,0,P|483:158|482:119,1,60,4|0,1:0|3:0,0:0:0:0:
478,77,157688,2,0,P|419:91|357:97,1,120,4|0,1:0|1:0,0:0:0:0:
252,44,158820,6,0,P|244:119|239:183,1,120,4|0,1:0|1:0,0:0:0:0:
275,211,159669,1,0,3:0:0:0:
282,270,159952,2,0,P|229:336|185:347,1,120,0|0,1:0|1:0,0:0:0:0:
83,308,161084,2,0,P|52:248|62:196,1,120,4|0,1:0|1:0,0:0:0:0:
96,150,161933,1,0,3:0:0:0:
155,146,162216,2,0,P|190:154|219:159,1,60,0|0,1:0|3:0,0:0:0:0:
273,166,162782,1,0,1:0:0:0:
256,192,163348,12,4,165613,3:2:0:0:
319,135,174669,6,0,P|321:81|345:52,2,90,4|0|0,1:0|3:0|3:0,0:0:0:0:
364,173,175801,2,0,P|418:175|447:199,2,90,0|0|0,1:0|3:0|3:0,0:0:0:0:
316,209,176933,2,0,P|314:263|290:292,2,90,4|0|0,1:0|3:0|3:0,0:0:0:0:
271,171,178065,2,0,P|217:169|188:145,2,90,0|0|0,1:0|3:0|3:0,0:0:0:0:
319,135,179197,6,0,P|407:156|483:227,1,180,4|2,0:0|0:0,0:0:0:0:
468,273,180330,2,0,P|427:301|358:308,1,120,2|2,0:0|0:0,0:0:0:0:
244,269,181462,5,4,1:0:0:0:
323,179,182028,2,0,P|286:161|260:145,1,60,0|0,3:0|3:0,0:0:0:0:
225,111,182594,1,4,1:0:0:0:
170,85,182877,1,0,3:0:0:0:
115,61,183160,2,0,P|111:89|105:120,1,60,0|0,3:0|3:0,0:0:0:0:
89,178,183726,2,0,P|51:202|29:249,2,90,4|4|4,1:0|1:3|1:3,0:0:0:0:
146,194,184858,1,4,1:3:0:0:
377,257,185990,6,0,P|360:203|300:139,1,120,4|0,1:0|1:0,0:0:0:0:
275,114,186839,1,2,3:0:0:0:
220,88,187122,1,0,1:0:0:0:
168,196,187688,5,0,1:0:0:0:
184,253,187971,1,2,3:0:0:0:
231,290,188254,2,0,L|308:313,1,60,4|2,1:0|3:0,0:0:0:0:
348,304,188820,2,0,L|425:327,1,60,4|2,1:0|3:0,0:0:0:0:
462,301,189386,2,0,P|453:241|444:179,1,120,4|0,1:0|1:0,0:0:0:0:
324,182,190518,6,0,P|296:165|267:140,1,60,2|2,0:0|0:0,0:0:0:0:
232,104,191084,1,4,1:0:0:0:
146,188,191650,2,0,P|174:205|203:230,1,60,0|2,1:0|3:0,0:0:0:0:
238,266,192216,1,4,1:0:0:0:
199,312,192499,1,2,3:0:0:0:
150,347,192782,2,0,P|116:335|88:316,1,60,0|2,1:0|3:0,0:0:0:0:
57,276,193348,2,0,L|45:195,1,60,0|2,1:0|3:0,0:0:0:0:
41,156,193914,1,0,1:0:0:0:
99,50,194481,5,2,1:2:0:0:
158,41,194763,1,2,3:2:0:0:
218,40,195046,2,0,P|274:72|348:79,1,120,4|0,1:0|1:0,0:0:0:0:
387,71,195896,1,2,3:0:0:0:
440,43,196179,1,0,1:0:0:0:
475,157,196745,5,0,1:0:0:0:
460,215,197028,1,2,3:0:0:0:
406,242,197311,2,0,L|346:221,1,60,4|2,1:0|3:0,0:0:0:0:
289,223,197877,2,0,L|229:202,1,60,4|2,1:0|3:0,0:0:0:0:
172,200,198443,2,0,L|54:158,1,120,4|0,1:0|1:0,0:0:0:0:
109,51,199575,6,0,P|173:71|232:98,1,120,4|0,1:0|1:0,0:0:0:0:
280,80,200424,1,2,3:0:0:0:
338,93,200707,2,0,P|402:113|461:140,1,120,0|0,1:0|1:0,0:0:0:0:
469,191,201556,1,2,3:0:0:0:
431,237,201839,2,0,P|402:254|376:265,1,60,2|2,1:2|3:0,0:0:0:0:
320,282,202405,2,0,P|287:277|253:270,1,60,2|2,1:2|3:0,0:0:0:0:
202,260,202971,1,2,1:2:0:0:
113,179,203537,1,4,1:3:0:0:
116,59,204103,6,0,P|147:51|181:43,1,60,4|2,1:0|3:0,0:0:0:0:
233,35,204669,1,0,1:0:0:0:
307,128,205235,2,0,P|299:160|291:193,1,60,4|2,1:0|3:0,0:0:0:0:
283,245,205801,1,0,1:0:0:0:
376,320,206367,2,0,P|410:322|446:326,1,60,4|2,1:0|3:0,0:0:0:0:
469,275,206933,1,4,1:0:0:0:
449,218,207216,1,2,3:0:0:0:
429,161,207499,1,4,1:0:0:0:
389,47,208065,1,0,1:0:0:0:
280,97,208631,6,0,P|247:89|210:81,1,60,4|2,1:0|3:0,0:0:0:0:
162,71,209197,1,0,1:0:0:0:
69,147,209763,2,0,P|65:183|61:220,1,60,4|2,1:0|3:0,0:0:0:0:
56,266,210330,1,0,1:0:0:0:
149,339,210896,2,0,L|225:307,1,60,4|2,1:0|3:0,0:0:0:0:
226,260,211462,1,4,1:0:0:0:
282,279,211745,1,2,3:0:0:0:
338,298,212028,1,4,1:0:0:0:
450,336,212594,1,0,1:0:0:0:
476,219,213160,6,0,P|470:184|458:144,1,60,4|2,1:0|3:0,0:0:0:0:
435,107,213726,1,0,1:0:0:0:
322,149,214292,2,2,P|316:114|304:74,1,60,4|0,1:0|3:0,0:0:0:0:
281,37,214858,1,0,1:0:0:0:
176,96,215424,2,0,P|170:61|158:21,1,60,4|2,1:0|3:0,0:0:0:0:
103,37,215990,1,4,1:0:0:0:
48,61,216273,1,2,3:0:0:0:
29,118,216556,1,4,1:0:0:0:
112,204,217122,1,0,1:0:0:0:
64,314,217688,6,0,P|108:334|131:342,1,60,4|2,1:0|3:0,0:0:0:0:
178,345,218254,1,0,1:0:0:0:
215,231,218820,2,0,P|259:251|282:259,1,60,4|2,1:0|3:0,0:0:0:0:
329,262,219386,1,0,1:0:0:0:
370,149,219952,2,2,P|414:169|437:177,1,60,4|0,1:0|3:0,0:0:0:0:
473,138,220518,1,4,1:0:0:0:
488,80,220801,1,2,3:0:0:0:
447,35,221084,6,0,P|389:37|323:53,1,120,4|0,1:0|1:0,0:0:0:0:
269,39,221933,1,2,3:0:0:0:
212,60,222216,2,0,P|170:106|145:168,1,120,0|0,1:0|1:0,0:0:0:0:
113,208,223065,1,2,3:0:0:0:
117,267,223348,2,0,P|141:321|206:347,1,120,0|0,1:0|0:0,0:0:0:0:
306,305,224480,6,0,P|363:321|432:335,2,120,4|2|0,3:1|3:0|3:0,0:0:0:0:
253,196,226179,2,0,P|223:188|187:190,1,60,2|0,3:0|3:0,0:0:0:0:
134,196,226745,2,0,P|132:138|132:74,2,120,0|2|0,3:0|3:0|3:0,0:0:0:0:
172,309,228443,5,2,3:0:0:0:
224,337,228726,1,2,3:0:0:0:
283,335,229009,2,0,P|328:329|351:322,1,60,4|2,1:0|3:0,0:0:0:0:
392,292,229575,2,0,P|415:271|434:245,1,60,0|2,1:0|3:0,0:0:0:0:
455,192,230141,2,0,P|467:136|456:68,1,120,0|0,1:0|1:0,0:0:0:0:
401,55,230990,1,2,3:0:0:0:
341,64,231273,5,4,1:0:0:0:
253,146,231839,1,4,1:0:0:0:
166,229,232405,1,4,1:0:0:0:
79,312,232971,2,0,L|41:355,2,30,2|2|2,3:0|3:0|3:0,0:0:0:0:
