osu file format v14

[General]
AudioFilename: audio.mp3
AudioLeadIn: 0
PreviewTime: 69811
Countdown: 0
SampleSet: Soft
StackLeniency: 0.7
Mode: 0
LetterboxInBreaks: 0
WidescreenStoryboard: 0

[Editor]
DistanceSpacing: 1
BeatDivisor: 4
GridSize: 8
TimelineZoom: 1

[Metadata]
Title:Tobira o Akete Bell o Narasou
TitleUnicode:扉を開けてベルを鳴らそう
Artist:Aoi (CV: Iguchi Yuka), Hinata (CV: Asumi Kana)
ArtistUnicode:あおい (CV: 井口裕香)、ひなた (CV: 阿澄佳奈)
Creator:CoLouRed GlaZeE
Version:Insane
Source:ヤマノススメ Next Summit
Tags:garden anime japanese j-pop jpop pop female voice yama no susume fourth season 4 ed ending full size version Encouragement of Climb 雪村 あおい yukimura aoi 倉上 ひなた kuraue hinata
BeatmapID:4031588
BeatmapSetID:1948042

[Difficulty]
HPDrainRate:6
CircleSize:4
OverallDifficulty:7
ApproachRate:8
SliderMultiplier:1.6
SliderTickRate:1

[Events]
//Background and Video events
0,0,"bgg3.jpg",0,0
//Break Periods
//Storyboard Layer 0 (Background)
//Storyboard Layer 1 (Fail)
//Storyboard Layer 2 (Pass)
//Storyboard Layer 3 (Foreground)
//Storyboard Layer 4 (Overlay)
//Storyboard Sound Samples

[TimingPoints]
330,566.037735849057,4,2,1,40,1,0
1745,-100,4,2,1,50,0,0
2028,-100,4,2,1,60,0,0
2594,-100,4,2,1,70,0,1
2735,-100,4,2,1,70,0,0
11367,-100,4,2,1,40,0,0
22971,-100,4,2,1,50,0,0
32028,-100,4,2,1,55,0,0
41084,-100,4,2,1,60,0,0
43348,-100,4,2,1,65,0,0
45613,-100,4,2,1,70,0,0
52405,-66.6666666666667,4,2,1,80,0,1
70377,-66.6666666666667,4,2,1,80,0,0
70518,-66.6666666666667,4,2,1,90,0,1
79433,-66.6666666666667,4,2,1,90,0,0
79575,-66.6666666666667,4,2,1,90,0,1
87499,-66.6666666666667,4,2,1,80,0,1
90330,-100,4,2,1,40,0,0
99952,-100,4,2,1,50,0,0
108443,-66.6666666666667,4,2,1,50,0,0
108726,-100,4,2,1,50,0,0
109009,-100,4,2,1,55,0,0
118065,-100,4,2,1,60,0,0
120330,-100,4,2,1,65,0,0
122594,-100,4,2,1,70,0,0
127122,-66.6666666666667,4,2,1,80,0,1
145094,-66.6666666666667,4,2,1,80,0,0
145235,-66.6666666666667,4,2,1,80,0,1
145377,-66.6666666666667,4,2,1,80,0,0
163348,-100,4,2,1,50,0,0
165613,-100,4,2,1,60,0,0
175801,-100,4,2,1,65,0,0
176933,-100,4,2,1,70,0,0
179197,-125,4,2,1,60,0,0
181462,-100,4,2,1,70,0,0
185424,-100,4,2,1,60,0,0
185990,-66.6666666666667,4,2,1,80,0,1
190518,-66.6666666666667,4,2,1,60,0,1
190660,-66.6666666666667,4,2,1,65,0,1
190801,-66.6666666666667,4,2,1,70,0,1
190943,-66.6666666666667,4,2,1,75,0,1
191084,-66.6666666666667,4,2,1,80,0,1
203962,-66.6666666666667,4,2,1,80,0,0
204103,-66.6666666666667,4,2,1,90,0,1
213018,-66.6666666666667,4,2,1,90,0,0
213160,-66.6666666666667,4,2,1,90,0,1
221084,-66.6666666666667,4,2,1,80,0,1
223914,-100,4,2,1,40,0,0
228443,-100,4,2,1,50,0,0
228584,-100,4,2,1,60,0,0
228726,-100,4,2,1,70,0,0
228867,-100,4,2,1,80,0,0
229009,-66.6666666666667,4,2,1,80,0,1
233183,-66.6666666666667,4,2,1,80,0,0
233254,-66.6666666666667,4,2,1,80,0,1
233325,-66.6666666666667,4,2,1,80,0,0

[Colours]
Combo1 : 232,213,138
Combo2 : 109,209,132
Combo3 : 98,171,215
Combo4 : 237,153,78

[HitObjects]
256,192,1179,12,4,2594,1:0:0:0:
414,157,3018,5,0,3:0:0:0:
414,157,3160,2,0,P|365:178|291:188,1,120,0|0,1:0|3:0,0:0:0:0:
224,178,3726,2,0,L|167:163,1,40,0|0,1:0|0:0,0:0:0:0:
113,149,4009,1,0,3:0:0:0:
266,47,4292,1,0,1:0:0:0:
414,157,4575,5,0,3:0:0:0:
414,157,4716,1,0,3:0:0:0:
414,157,4858,2,0,P|420:202|421:237,1,80,4|0,1:0|3:0,0:0:0:0:
298,322,5424,2,0,L|220:305,1,80,0|0,1:0|3:0,0:0:0:0:
78,256,5990,2,0,B|98:194|51:147|51:147|84:102,1,160,0|0,1:0|1:0,0:0:0:0:
179,73,6839,5,0,3:0:0:0:
179,73,6980,1,0,3:0:0:0:
179,73,7122,1,4,1:0:0:0:
307,152,7405,1,0,3:0:0:0:
179,73,7688,1,0,1:0:0:0:
166,244,7971,5,0,3:0:0:0:
166,244,8113,2,0,P|191:252|209:266,1,40,0|0,3:0|1:0,0:0:0:0:
268,335,8396,1,0,0:0:0:0:
268,335,8537,2,0,P|279:294|280:269,1,40,0|0,3:0|0:0,0:0:0:0:
290,182,8820,1,0,1:0:0:0:
437,272,9103,5,0,3:0:0:0:
437,272,9245,1,0,3:0:0:0:
437,272,9386,2,0,P|397:282|356:284,1,80,2|0,1:2|3:0,0:0:0:0:
311,60,9952,2,0,B|336:88|361:92|361:92|344:147|384:184,1,160,2|2,1:2|1:2,0:0:0:0:
449,118,10801,5,0,3:0:0:0:
430,265,11084,1,2,1:2:0:0:
304,195,11367,1,0,3:0:0:0:
304,195,11509,1,0,3:0:0:0:
304,195,11650,2,0,P|344:189|384:183,2,80,4|0|2,3:1|3:0|3:2,0:0:0:0:
212,189,12499,2,0,L|172:178,4,40,0|0|2|0|0,3:0|3:0|3:2|3:0|3:0,0:0:0:0:
294,288,13348,6,0,P|343:299|388:315,1,80,0|0,3:0|0:0,0:0:0:0:
394,315,13773,1,0,0:0:0:0:
416,324,13914,2,0,P|421:278|432:233,1,80,4|0,3:1|3:0,0:0:0:0:
212,189,14480,2,0,P|259:191|333:211,1,120,2|0,3:0|3:0,0:0:0:0:
351,218,15046,2,0,P|355:196|365:172,2,40,0|0|0,3:0|3:0|3:0,0:0:0:0:
159,97,15613,1,2,3:0:0:0:
258,112,15896,1,0,3:0:0:0:
258,112,16037,1,0,3:0:0:0:
258,112,16179,1,0,3:0:0:0:
240,267,16462,6,0,P|236:306|234:351,1,80,0|2,3:0|3:0,0:0:0:0:
124,279,17028,1,0,3:0:0:0:
124,279,17169,1,0,3:0:0:0:
124,279,17311,2,0,L|83:294,2,40,0|0|0,3:0|3:0|3:0,0:0:0:0:
187,182,17877,2,0,P|244:189|278:195,1,80,2|0,3:0|3:0,0:0:0:0:
289,196,18301,1,0,3:0:0:0:
312,202,18443,2,0,P|347:244|374:267,1,80,0|0,3:0|3:0,0:0:0:0:
483,125,19009,6,0,P|448:149|409:163,1,80,2|0,3:0|3:0,0:0:0:0:
412,162,19433,2,0,B|386:135|342:124|342:124|317:78,1,120,0|0,3:0|3:0,0:0:0:0:
247,38,20141,1,2,3:0:0:0:
176,94,20424,1,0,3:0:0:0:
176,94,20565,1,0,3:0:0:0:
176,94,20707,1,0,3:0:0:0:
198,223,20990,5,0,3:0:0:0:
302,240,21273,1,2,3:0:0:0:
263,134,21556,1,0,3:0:0:0:
263,134,21697,1,0,3:0:0:0:
263,134,21839,2,0,L|211:155,2,40,0|0|0,3:0|3:0|3:0,0:0:0:0:
407,140,22405,6,0,P|411:183|411:226,1,80,2|0,3:0|3:0,0:0:0:0:
412,251,22830,1,0,3:0:0:0:
411,282,22971,1,4,1:0:0:0:
299,333,23254,1,0,3:0:0:0:
99,215,23537,2,0,P|156:215|183:214,1,80,0|0,1:0|3:0,0:0:0:0:
210,210,23962,1,0,0:0:0:0:
240,201,24103,2,0,L|280:180,2,40,0|0|0,1:0|0:0|3:0,0:0:0:0:
406,166,24669,5,0,1:0:0:0:
244,104,24952,1,0,3:0:0:0:
244,104,25094,1,0,0:0:0:0:
244,104,25235,1,0,1:0:0:0:
136,73,25518,1,0,3:0:0:0:
260,237,25801,1,0,1:0:0:0:
193,327,26084,1,0,3:0:0:0:
193,327,26226,1,0,0:0:0:0:
193,327,26367,2,0,L|160:359,2,40,0|0|0,1:0|0:0|3:0,0:0:0:0:
38,217,26933,6,0,P|98:226|139:241,1,80,0|0,1:0|3:0,0:0:0:0:
148,231,27358,1,0,0:0:0:0:
176,216,27499,2,0,P|225:173|243:151,1,80,0|0,1:0|3:0,0:0:0:0:
352,226,28065,1,0,1:0:0:0:
475,113,28348,1,0,3:0:0:0:
475,113,28490,2,0,P|483:154|484:201,1,80,0|0,3:0|0:0,0:0:0:0:
478,232,28914,2,0,L|467:319,1,80,0|0,3:0|1:0,0:0:0:0:
352,226,29480,5,0,3:0:0:0:
348,257,29622,1,2,0:0:0:0:
345,288,29763,1,2,1:2:0:0:
251,124,30046,1,0,3:0:0:0:
267,236,30330,1,2,1:2:0:0:
139,182,30613,5,2,3:2:0:0:
110,168,30754,1,2,3:2:0:0:
81,154,30896,2,0,L|47:167,6,26.6666666666667,2|0|0|0|0|0|0,1:2|3:0|3:0|3:0|3:0|3:0|1:0,0:0:0:0:
190,67,31745,5,0,3:0:0:0:
190,67,31886,1,0,3:0:0:0:
190,67,32028,2,0,L|274:83,1,80,4|0,3:1|0:0,0:0:0:0:
384,192,32594,2,0,P|410:161|424:122,1,80,2|0,3:0|0:0,0:0:0:0:
463,117,33018,2,0,L|445:254,1,120,0|0,3:0|3:0,0:0:0:0:
437,326,33726,1,2,3:0:0:0:
264,245,34009,5,0,3:0:0:0:
294,253,34150,1,0,3:0:0:0:
324,261,34292,2,0,L|340:286,6,26.6666666666667,0|0|0|0|0|0|2,3:0|3:0|3:0|3:0|3:0|3:0|3:0,0:0:0:0:
356,142,35141,1,0,3:0:0:0:
356,142,35282,1,0,3:0:0:0:
356,142,35424,2,0,L|392:163,2,40,0|0|0,3:0|3:0|0:0,0:0:0:0:
300,55,35990,1,2,3:0:0:0:
173,114,36273,5,0,3:0:0:0:
141,107,36414,1,0,3:0:0:0:
109,100,36556,2,0,L|88:82,6,26.6666666666667,0|0|0|0|0|0|2,3:0|3:0|3:0|3:0|3:0|3:0|3:0,0:0:0:0:
167,223,37405,1,0,3:0:0:0:
167,223,37546,1,0,3:0:0:0:
167,223,37688,2,0,L|179:269,1,40,0|0,3:0|3:0,0:0:0:0:
252,287,37971,1,0,0:0:0:0:
92,254,38254,1,2,3:0:0:0:
276,181,38537,5,0,3:0:0:0:
301,199,38679,1,0,3:0:0:0:
326,217,38820,2,0,L|338:264,6,26.6666666666667,0|0|0|0|0|0|2,3:0|3:0|3:0|3:0|3:0|3:0|3:0,0:0:0:0:
448,120,39669,1,0,3:0:0:0:
448,120,39811,1,0,3:0:0:0:
448,120,39952,2,0,L|443:171,1,40,0|0,3:0|3:0,0:0:0:0:
410,232,40235,1,0,0:0:0:0:
333,120,40518,1,2,3:0:0:0:
378,337,40801,5,0,3:0:0:0:
378,337,40943,1,0,3:0:0:0:
378,337,41084,2,0,P|336:343|280:350,1,80,4|0,1:0|3:0,0:0:0:0:
105,241,41650,2,0,P|156:242|195:244,1,80,0|0,1:0|3:0,0:0:0:0:
362,157,42216,2,0,P|322:156|282:155,1,80,0|0,1:0|3:0,0:0:0:0:
282,155,42641,1,0,0:0:0:0:
282,155,42782,1,0,1:0:0:0:
161,119,43065,5,0,3:0:0:0:
161,119,43207,1,0,3:0:0:0:
161,119,43348,2,0,P|160:77|159:32,1,80,4|0,1:0|3:0,0:0:0:0:
306,253,43914,1,0,1:0:0:0:
245,135,44197,1,0,3:0:0:0:
218,330,44480,2,0,P|220:292|224:242,1,80,0|0,1:0|3:0,0:0:0:0:
223,250,44905,1,0,0:0:0:0:
223,250,45046,1,0,1:0:0:0:
406,221,45330,5,0,3:0:0:0:
406,221,45471,1,0,3:0:0:0:
406,221,45613,2,0,L|397:157,1,40,4|0,1:0|0:0,0:0:0:0:
361,76,45896,1,0,3:0:0:0:
361,76,46179,2,0,L|394:101,1,40,0|0,1:0|0:0,0:0:0:0:
321,243,46462,1,0,3:0:0:0:
321,243,46603,2,0,L|322:145,1,80,0|0,3:0|0:0,0:0:0:0:
224,88,47028,6,0,L|261:125,1,40,0|0,3:0|0:0,0:0:0:0:
140,164,47311,2,0,L|195:177,1,40,0|0,1:0|0:0,0:0:0:0:
66,267,47594,1,0,3:0:0:0:
66,267,47735,1,0,3:0:0:0:
66,267,47877,2,0,L|149:260,1,80,4|0,1:0|3:0,0:0:0:0:
304,327,48443,6,0,L|387:320,1,80,0|0,1:0|3:0,0:0:0:0:
407,298,48867,1,0,3:0:0:0:
430,276,49009,2,0,L|437:228,1,40,4|0,1:0|0:0,0:0:0:0:
288,171,49292,1,0,3:0:0:0:
200,336,49575,1,0,1:0:0:0:
58,150,49858,5,0,3:0:0:0:
58,150,49999,1,0,3:0:0:0:
58,150,50141,2,0,B|71:200|51:237|51:237|70:279,2,120,4|4|4,1:0|1:3|1:3,0:0:0:0:
118,42,51273,1,4,1:3:0:0:
303,207,51839,5,2,0:0:0:0:
240,163,51980,1,2,0:0:0:0:
237,242,52122,1,2,0:0:0:0:
237,242,52405,2,0,P|261:290|333:328,1,120.000004577637,4|2,1:0|3:0,0:0:0:0:
392,314,52830,1,0,3:0:0:0:
448,263,52971,2,0,P|464:202|444:138,1,120.000004577637,0|2,1:0|3:0,0:0:0:0:
407,85,53396,1,0,3:0:0:0:
334,61,53537,1,0,1:0:0:0:
285,256,53820,5,2,3:0:0:0:
285,256,54103,2,0,P|249:257|194:259,1,60.0000022888184,0|0,1:0|0:0,0:0:0:0:
61,182,54386,2,0,B|106:169|136:194|200:169,1,120.000004577637,2|4,3:0|1:0,0:0:0:0:
250,115,54811,5,0,0:0:0:0:
250,115,54952,2,0,P|265:141|273:189,1,60.0000022888184,2|0,3:0|3:0,0:0:0:0:
212,316,55235,2,0,P|217:277|236:243,1,60.0000022888184,4|0,1:0|0:0,0:0:0:0:
61,182,55518,2,0,P|83:209|112:220,1,60.0000022888184,2|0,3:0|3:0,0:0:0:0:
139,96,55801,6,0,B|119:94|100:102|100:102|41:86|-2:118,2,120.000004577637,4|2|0,1:0|3:0|1:0,0:0:0:0:
142,100,56509,1,0,3:0:0:0:
145,104,56650,1,2,3:0:0:0:
148,108,56792,1,0,3:0:0:0:
151,112,56933,2,0,P|215:115|283:107,1,120.000004577637,0|2,1:0|3:0,0:0:0:0:
343,91,57358,1,0,3:0:0:0:
416,65,57499,2,0,P|420:98|434:146,1,60.0000022888184,4|0,1:0|0:0,0:0:0:0:
452,198,57782,1,2,3:0:0:0:
264,237,58065,6,0,L|123:219,1,120.000004577637,0|2,1:0|3:0,0:0:0:0:
83,174,58490,1,0,3:0:0:0:
24,226,58631,1,4,1:0:0:0:
235,336,58914,5,2,3:0:0:0:
235,336,59056,1,0,3:0:0:0:
235,336,59197,2,0,P|266:329|303:321,1,60.0000022888184,0|0,1:0|0:0,0:0:0:0:
298,144,59480,2,0,P|299:177|293:228,1,60.0000022888184,2|0,3:0|0:0,0:0:0:0:
206,244,59763,2,0,P|177:250|148:257,1,60.0000022888184,0|0,1:0|0:0,0:0:0:0:
64,119,60046,5,2,3:0:0:0:
64,119,60188,2,0,P|138:122|204:125,1,120.000004577637,0|0,3:0|0:0,0:0:0:0:
346,114,60613,2,0,P|380:106|410:99,1,60.0000022888184,2|0,3:0|0:0,0:0:0:0:
255,40,60896,5,2,1:2:0:0:
260,120,61037,1,2,0:2:0:0:
265,200,61179,2,0,P|266:244|266:283,1,60.0000022888184,2|0,3:2|0:0,0:0:0:0:
352,306,61462,2,0,P|436:296|497:290,1,120.000004577637,4|2,1:0|3:0,0:0:0:0:
397,218,61886,1,0,3:0:0:0:
272,340,62028,2,0,P|215:333|153:282,1,120.000004577637,0|2,1:0|3:0,0:0:0:0:
130,226,62452,5,0,3:0:0:0:
130,226,62594,2,0,L|122:150,1,60.0000022888184,0|0,1:0|0:0,0:0:0:0:
242,205,62877,2,0,L|248:264,1,60.0000022888184,2|0,3:0|0:0,0:0:0:0:
313,59,63160,2,0,L|319:118,1,60.0000022888184,0|0,1:0|0:0,0:0:0:0:
419,289,63443,2,0,L|406:168,1,120.000004577637,2|4,3:0|1:0,0:0:0:0:
407,170,64009,6,0,P|438:141|475:130,1,60.0000022888184,2|0,3:0|3:0,0:0:0:0:
329,285,64292,2,0,P|298:284|268:280,1,60.0000022888184,4|0,1:0|0:0,0:0:0:0:
169,220,64575,2,0,P|138:228|105:235,1,60.0000022888184,2|0,3:0|3:0,0:0:0:0:
175,100,64858,2,0,P|241:123|278:172,2,120.000004577637,4|2|0,1:0|3:0|1:0,0:0:0:0:
378,68,65707,5,2,3:0:0:0:
378,68,65848,1,0,3:0:0:0:
378,68,65990,2,0,L|369:144,1,60.0000022888184,4|0,1:0|0:0,0:0:0:0:
370,249,66273,2,0,P|338:245|294:241,1,60.0000022888184,2|0,3:0|0:0,0:0:0:0:
142,135,66556,2,0,P|173:138|218:143,1,60.0000022888184,0|0,1:0|0:0,0:0:0:0:
310,242,66839,1,2,3:0:0:0:
311,243,66980,2,0,B|261:221|229:248|173:215,1,120.000004577637,0|0,3:0|0:0,0:0:0:0:
138,279,67405,6,0,P|124:256|116:220,1,60.0000022888184,2|0,3:0|0:0,0:0:0:0:
38,106,67688,2,0,P|69:113|106:134,1,60.0000022888184,0|0,1:0|0:0,0:0:0:0:
248,151,67971,1,2,3:0:0:0:
248,151,68113,1,0,3:0:0:0:
248,151,68254,2,0,P|309:143|384:126,1,120.000004577637,2|2,1:2|3:0,0:0:0:0:
366,130,68820,2,0,P|374:191|391:266,1,120.000004577637,2|2,1:2|3:0,0:0:0:0:
421,319,69245,5,0,3:0:0:0:
467,257,69386,1,2,1:2:0:0:
386,248,69528,1,4,3:0:0:0:
345,314,69669,1,4,3:0:0:0:
436,108,69952,6,0,P|376:129|302:153,1,120.000004577637,4|0,1:3|3:0,0:0:0:0:
189,199,70377,1,0,3:0:0:0:
189,199,70518,2,0,P|225:179|246:155,1,60.0000022888184,4|0,1:0|0:0,0:0:0:0:
72,299,70801,1,2,3:0:0:0:
356,80,71084,6,0,P|316:123|255:192,1,120.000004577637,0|2,1:0|3:0,0:0:0:0:
181,278,71509,1,0,3:0:0:0:
181,278,71650,2,0,P|196:249|207:203,1,60.0000022888184,4|0,1:0|0:0,0:0:0:0:
42,349,71933,1,2,3:0:0:0:
254,77,72216,5,0,1:0:0:0:
254,77,72358,2,0,P|251:108|249:151,1,60.0000022888184,0|2,3:0|0:3,0:0:0:0:
300,277,72641,1,0,3:0:0:0:
300,277,72782,2,0,P|330:272|363:254,1,60.0000022888184,4|0,1:0|0:0,0:0:0:0:
400,123,73065,2,0,P|374:102|346:88,1,60.0000022888184,2|0,3:0|3:0,0:0:0:0:
173,152,73348,2,0,P|141:161|110:165,1,60.0000022888184,4|0,1:0|0:0,0:0:0:0:
54,320,73631,5,2,3:0:0:0:
130,305,73773,1,0,3:0:0:0:
207,290,73914,2,0,P|214:258|225:217,1,60.0000022888184,4|0,1:0|0:0,0:0:0:0:
254,78,74197,1,2,3:0:0:0:
412,333,74480,6,0,P|374:287|336:212,1,120.000004577637,0|2,1:0|3:0,0:0:0:0:
218,146,74905,1,0,3:0:0:0:
218,146,75046,2,0,L|287:182,1,60.0000022888184,4|0,1:0|0:0,0:0:0:0:
138,49,75330,1,2,3:0:0:0:
418,250,75613,6,0,P|340:241|285:222,1,120.000004577637,0|2,1:0|3:0,0:0:0:0:
140,170,76037,1,0,3:0:0:0:
140,170,76179,2,0,L|225:162,1,60.0000022888184,4|0,1:0|0:0,0:0:0:0:
47,41,76462,1,2,3:0:0:0:
279,334,76745,6,0,P|275:257|272:193,1,120.000004577637,0|2,1:0|3:0,0:0:0:0:
305,127,77169,1,0,3:0:0:0:
305,127,77311,2,0,P|336:124|380:121,1,60.0000022888184,4|0,1:0|0:0,0:0:0:0:
133,29,77594,2,0,P|136:59|139:89,1,60.0000022888184,2|0,3:0|3:0,0:0:0:0:
113,280,77877,2,0,P|81:282|38:286,1,60.0000022888184,4|0,1:0|0:0,0:0:0:0:
220,134,78160,2,0,P|222:165|226:209,1,60.0000022888184,2|0,3:0|3:0,0:0:0:0:
260,306,78443,5,4,1:0:0:0:
339,299,78584,1,0,3:0:0:0:
418,292,78726,1,2,3:0:0:0:
105,207,79009,6,0,P|99:145|101:79,1,120.000004577637,0|2,1:0|3:0,0:0:0:0:
200,267,79433,1,0,3:0:0:0:
200,267,79575,2,0,P|202:298|204:341,1,60.0000022888184,4|0,1:0|0:0,0:0:0:0:
424,183,79858,1,2,3:0:0:0:
334,118,80141,6,0,P|336:175|336:245,1,120.000004577637,0|2,1:0|3:0,0:0:0:0:
247,93,80565,1,0,3:0:0:0:
247,93,80707,2,0,P|244:61|243:19,1,60.0000022888184,4|0,1:0|0:0,0:0:0:0:
105,207,80990,1,2,3:0:0:0:
413,315,81273,6,0,P|382:317|347:317,1,60.0000022888184,0|0,1:0|0:0,0:0:0:0:
278,290,81556,1,2,3:0:0:0:
199,288,81697,1,0,3:0:0:0:
121,291,81839,2,0,P|90:293|55:293,1,60.0000022888184,4|0,1:0|0:0,0:0:0:0:
221,189,82122,2,0,P|251:186|287:187,1,60.0000022888184,2|0,3:0|3:0,0:0:0:0:
439,81,82405,2,0,P|408:83|373:83,1,60.0000022888184,4|0,1:0|0:0,0:0:0:0:
413,315,82688,5,2,3:0:0:0:
420,242,82830,1,0,3:0:0:0:
425,170,82971,2,0,P|394:172|359:172,1,60.0000022888184,4|0,1:0|0:0,0:0:0:0:
281,187,83254,2,0,P|279:156|279:121,1,60.0000022888184,2|0,3:0|0:0,0:0:0:0:
194,145,83537,6,0,P|128:149|52:145,1,120.000004577637,0|2,1:0|3:0,0:0:0:0:
204,273,83962,1,0,3:0:0:0:
204,273,84103,2,0,P|234:273|269:271,1,60.0000022888184,4|0,1:0|0:0,0:0:0:0:
420,242,84386,1,2,3:0:0:0:
274,50,84669,6,0,P|214:53|145:51,1,120.000004577637,0|2,1:0|3:0,0:0:0:0:
92,203,85094,1,0,3:0:0:0:
92,203,85235,2,0,P|122:203|155:202,1,60.0000022888184,4|0,1:0|0:0,0:0:0:0:
365,172,85518,1,2,3:0:0:0:
93,332,85801,5,0,1:0:0:0:
168,351,85943,1,0,3:0:0:0:
245,349,86084,1,2,3:0:0:0:
323,336,86226,1,0,3:0:0:0:
393,303,86367,2,0,P|431:301|459:301,1,60.0000022888184,4|0,1:0|0:0,0:0:0:0:
244,111,86650,2,0,P|245:149|246:177,1,60.0000022888184,2|0,3:0|3:0,0:0:0:0:
93,332,86933,2,0,P|91:293|91:266,1,60.0000022888184,4|0,1:0|0:0,0:0:0:0:
91,120,87216,5,2,3:0:0:0:
142,180,87358,1,0,3:0:0:0:
193,240,87499,2,0,P|260:254|330:255,1,120.000004577637,4|2,1:0|3:0,0:0:0:0:
479,202,88065,1,0,1:0:0:0:
340,77,88348,5,2,3:0:0:0:
340,77,88490,1,0,3:0:0:0:
340,77,88631,2,0,P|284:80|207:86,1,120.000004577637,0|2,1:0|3:0,0:0:0:0:
47,97,89197,1,0,1:0:0:0:
64,294,89480,5,2,3:0:0:0:
64,294,89622,1,0,3:0:0:0:
64,294,89763,2,0,B|141:264|241:318|335:266,1,240.000009155274,0|0,1:0|0:0,0:0:0:0:
466,270,90754,5,0,3:0:0:0:
466,270,90896,2,0,P|467:231|468:187,1,80,4|0,3:1|3:0,0:0:0:0:
374,205,91462,2,0,P|375:166|376:122,1,80,2|0,3:0|3:0,0:0:0:0:
376,101,91886,1,0,3:0:0:0:
377,76,92028,2,0,L|421:75,2,40,0|0|0,3:0|3:0|3:0,0:0:0:0:
190,131,92594,5,2,3:0:0:0:
275,92,92877,1,0,3:0:0:0:
275,92,93018,1,0,3:0:0:0:
275,92,93160,2,0,P|274:131|273:171,1,80,0|0,3:0|3:0,0:0:0:0:
268,330,93726,1,2,3:0:0:0:
209,254,94009,1,0,3:0:0:0:
209,254,94150,1,0,3:0:0:0:
209,254,94292,2,0,L|160:261,2,40,0|0|0,3:0|3:0|3:0,0:0:0:0:
339,237,94858,6,0,P|380:231|428:228,1,80,2|0,3:0|3:0,0:0:0:0:
442,229,95282,1,0,3:0:0:0:
465,232,95424,2,0,P|471:193|476:140,1,80,0|0,3:0|3:0,0:0:0:0:
426,71,95990,1,2,3:0:0:0:
330,118,96273,1,0,3:0:0:0:
330,118,96414,2,0,B|295:117|267:91|267:91|239:92|208:76,1,120,0|0,3:0|3:0,0:0:0:0:
135,36,97122,1,2,3:0:0:0:
78,161,97405,5,0,3:0:0:0:
78,161,97546,1,0,3:0:0:0:
78,161,97688,1,0,3:0:0:0:
188,174,97971,1,0,3:0:0:0:
117,242,98254,1,2,3:0:0:0:
233,264,98537,1,0,3:0:0:0:
233,264,98679,1,0,3:0:0:0:
233,264,98820,2,0,L|241:308,2,40,0|0|0,3:0|3:0|3:0,0:0:0:0:
166,77,99386,6,0,P|227:81|258:83,1,80,2|0,3:0|3:0,0:0:0:0:
276,90,99811,1,0,3:0:0:0:
306,97,99952,2,0,P|367:101|398:103,1,80,4|0,1:0|3:0,0:0:0:0:
313,270,100518,2,0,P|265:267|230:264,1,80,0|0,1:0|3:0,0:0:0:0:
201,258,100943,1,0,0:0:0:0:
169,251,101084,2,0,L|111:237,1,40,0|0,1:0|0:0,0:0:0:0:
54,222,101367,1,0,3:0:0:0:
238,180,101650,5,0,1:0:0:0:
207,347,101933,1,0,3:0:0:0:
207,347,102075,1,0,0:0:0:0:
207,347,102216,1,0,1:0:0:0:
151,169,102499,1,0,3:0:0:0:
49,124,102782,1,0,1:0:0:0:
251,93,103065,1,0,3:0:0:0:
251,93,103207,1,0,0:0:0:0:
251,93,103348,2,0,L|288:63,2,40,0|0|0,1:0|0:0|3:0,0:0:0:0:
295,239,103914,6,0,P|349:243|390:248,1,80,0|0,1:0|3:0,0:0:0:0:
406,252,104339,1,0,0:0:0:0:
434,266,104480,1,0,1:0:0:0:
375,117,104763,1,0,3:0:0:0:
479,152,105046,1,0,1:0:0:0:
265,115,105330,1,0,3:0:0:0:
265,115,105471,2,0,B|252:144|258:174|258:174|219:216,1,80,0|0,3:0|0:0,0:0:0:0:
192,246,105896,6,0,P|176:264|167:292,1,40,0|0,3:0|0:0,0:0:0:0:
139,150,106179,2,0,P|153:165|178:171,1,40,0|0,1:0|0:0,0:0:0:0:
268,262,106462,2,0,P|290:257|307:238,1,40,0|0,3:0|0:0,0:0:0:0:
382,132,106745,2,0,P|377:93|372:46,1,80,2|0,1:2|3:0,0:0:0:0:
399,226,107311,1,2,1:2:0:0:
275,120,107594,5,0,3:0:0:0:
245,108,107735,1,0,3:0:0:0:
215,96,107877,2,0,L|197:64,5,26.6666666666667,2|0|0|0|0|0,1:2|3:0|3:0|3:0|3:0|3:0,0:0:0:0:
176,53,108443,6,0,L|184:185,1,120.000004577637,4|0,1:2|3:0,0:0:0:0:
186,204,108867,1,0,3:0:0:0:
189,235,109009,1,4,1:0:0:0:
100,187,109292,5,0,0:0:0:0:
269,149,109575,2,0,P|291:153|311:168,1,40,2|0,3:0|0:0,0:0:0:0:
355,232,109858,1,0,3:0:0:0:
355,232,109999,2,0,B|384:203|387:164|387:164|418:127,1,120,0|0,3:0|0:0,0:0:0:0:
479,60,110707,1,2,3:0:0:0:
465,200,110990,5,0,3:0:0:0:
481,226,111131,1,0,3:0:0:0:
498,253,111273,2,0,L|482:294,6,26.6666666666667,0|0|0|0|0|0|2,3:0|3:0|3:0|3:0|3:0|3:0|3:0,0:0:0:0:
385,314,112122,1,0,3:0:0:0:
385,314,112263,1,0,3:0:0:0:
385,314,112405,2,0,L|382:360,2,40,0|0|0,3:0|3:0|0:0,0:0:0:0:
287,275,112971,1,2,3:0:0:0:
174,196,113254,5,0,3:0:0:0:
162,225,113396,1,0,3:0:0:0:
151,254,113537,2,0,L|119:288,6,26.6666666666667,0|0|0|0|0|0|2,3:0|3:0|3:0|3:0|3:0|3:0|3:0,0:0:0:0:
228,347,114386,1,0,3:0:0:0:
228,347,114528,1,0,3:0:0:0:
228,347,114669,2,0,L|171:361,1,40,0|0,3:0|3:0,0:0:0:0:
60,314,114952,1,0,0:0:0:0:
151,254,115235,1,2,3:0:0:0:
34,187,115518,5,0,3:0:0:0:
53,161,115660,1,0,3:0:0:0:
72,135,115801,2,0,L|52:100,6,26.6666666666667,0|0|0|0|0|0|2,3:0|3:0|3:0|3:0|3:0|3:0|3:0,0:0:0:0:
180,59,116650,1,0,3:0:0:0:
180,59,116792,1,0,3:0:0:0:
180,59,116933,2,0,L|189:125,1,40,0|0,3:0|3:0,0:0:0:0:
204,192,117216,1,0,0:0:0:0:
312,260,117499,1,2,3:0:0:0:
466,226,117782,5,0,3:0:0:0:
466,226,117924,1,0,3:0:0:0:
466,226,118065,2,0,P|435:220|413:193,1,40,4|0,1:0|0:0,0:0:0:0:
392,308,118348,2,0,P|368:314|351:341,1,40,0|0,3:0|0:0,0:0:0:0:
262,353,118631,2,0,P|219:348|162:333,1,80,0|0,1:0|3:0,0:0:0:0:
153,328,119056,1,0,0:0:0:0:
127,309,119197,1,0,1:0:0:0:
203,152,119480,5,0,3:0:0:0:
203,152,119622,1,0,3:0:0:0:
203,152,119763,2,0,L|208:209,1,40,0|0,1:0|0:0,0:0:0:0:
268,260,120046,2,0,L|309:242,1,40,0|0,3:0|0:0,0:0:0:0:
374,184,120330,2,0,P|435:198|463:204,1,80,4|0,1:0|3:0,0:0:0:0:
272,60,120896,2,0,P|211:46|183:40,1,80,0|0,1:0|3:0,0:0:0:0:
164,53,121320,1,0,0:0:0:0:
134,64,121462,1,0,1:0:0:0:
65,186,121745,6,0,L|29:169,2,40,0|0|0,3:0|3:0|1:0,0:0:0:0:
92,201,122169,1,0,3:0:0:0:
117,219,122311,1,0,3:0:0:0:
137,243,122452,1,0,3:0:0:0:
153,270,122594,2,0,P|163:314|166:357,1,80,4|0,1:0|3:0,0:0:0:0:
376,285,123160,1,0,1:0:0:0:
287,342,123443,1,0,3:0:0:0:
287,342,123584,2,0,P|277:298|274:255,1,80,0|0,3:0|0:0,0:0:0:0:
284,185,124009,6,0,L|292:136,1,40,0|0,3:0|0:0,0:0:0:0:
398,72,124292,2,0,L|416:122,1,40,0|0,1:0|0:0,0:0:0:0:
198,54,124575,1,0,3:0:0:0:
198,54,124716,1,0,3:0:0:0:
198,54,124858,2,0,B|222:63|222:63|289:29|318:58,1,120,4|4,1:0|1:3,0:0:0:0:
90,161,125707,2,0,P|132:171|173:172,1,80,4|4,1:3|1:3,0:0:0:0:
401,345,126556,5,2,0:0:0:0:
330,315,126697,1,2,0:0:0:0:
256,296,126839,2,0,P|234:296|209:301,1,40,2|0,0:0|0:0,0:0:0:0:
443,214,127122,6,0,P|379:236|308:230,1,120.000004577637,4|2,1:0|3:0,0:0:0:0:
257,209,127546,1,0,3:0:0:0:
358,197,127688,2,0,P|297:177|213:170,1,120.000004577637,0|2,1:0|3:0,0:0:0:0:
155,190,128113,1,0,3:0:0:0:
242,170,128254,2,0,P|268:165|303:151,1,60.0000022888184,0|0,1:0|0:0,0:0:0:0:
428,42,128537,6,0,B|401:64|401:64|328:59|296:88,1,120.000004577637,2|0,3:0|1:0,0:0:0:0:
246,49,128962,1,0,3:0:0:0:
246,49,129103,2,0,P|211:48|172:44,1,60.0000022888184,2|0,3:0|0:0,0:0:0:0:
420,165,129386,1,4,1:0:0:0:
420,165,129669,2,0,P|444:182|483:193,1,60.0000022888184,2|0,3:0|0:0,0:0:0:0:
249,184,129952,2,0,P|279:171|303:145,1,60.0000022888184,4|0,1:0|0:0,0:0:0:0:
76,160,130235,2,0,P|105:175|163:174,1,60.0000022888184,2|0,3:0|0:0,0:0:0:0:
59,337,130518,5,4,1:0:0:0:
108,356,130660,1,0,3:0:0:0:
161,351,130801,1,2,3:0:0:0:
142,301,130943,1,0,3:0:0:0:
107,259,131084,2,0,B|83:234|83:197|83:197|118:178|164:174,2,120.000004577637,0|2|0,1:0|3:0|1:0,0:0:0:0:
293,281,131933,5,2,3:0:0:0:
371,304,132075,1,0,3:0:0:0:
293,281,132216,2,0,P|288:249|286:213,1,60.0000022888184,4|0,1:0|0:0,0:0:0:0:
398,162,132499,2,0,P|430:159|466:155,1,60.0000022888184,2|0,3:0|0:0,0:0:0:0:
286,92,132782,1,0,1:0:0:0:
215,258,133065,5,2,3:0:0:0:
293,281,133207,1,0,3:0:0:0:
215,258,133348,2,0,P|210:226|208:190,1,60.0000022888184,4|0,1:0|0:0,0:0:0:0:
398,162,133631,2,0,P|402:193|405:230,1,60.0000022888184,2|0,3:0|3:0,0:0:0:0:
286,92,133914,2,0,P|225:103|147:107,1,120.000004577637,0|2,1:0|3:0,0:0:0:0:
46,37,134339,5,0,3:0:0:0:
46,37,134480,2,0,P|63:60|74:96,1,60.0000022888184,0|0,1:0|0:0,0:0:0:0:
89,167,134763,2,0,P|95:196|89:232,1,60.0000022888184,2|0,3:0|0:0,0:0:0:0:
73,303,135046,1,0,1:0:0:0:
66,332,135187,1,0,3:0:0:0:
49,356,135329,1,2,3:0:0:0:
346,319,135613,5,2,1:2:0:0:
278,295,135754,1,2,0:2:0:0:
214,330,135896,1,2,3:2:0:0:
242,259,136037,1,0,3:0:0:0:
208,191,136179,2,0,P|148:179|74:166,1,120.000004577637,4|2,1:0|3:0,0:0:0:0:
238,124,136603,1,0,3:0:0:0:
316,132,136745,2,0,P|302:71|290:15,1,120.000004577637,0|2,1:0|3:0,0:0:0:0:
388,160,137169,1,0,3:0:0:0:
349,228,137311,2,0,P|411:240|480:253,2,120.000004577637,0|2|0,1:0|3:0|1:0,0:0:0:0:
121,188,138160,5,2,3:0:0:0:
121,188,138301,1,0,3:0:0:0:
121,188,138443,2,0,P|156:194|195:202,1,60.0000022888184,4|0,1:0|0:0,0:0:0:0:
283,296,138726,2,0,P|248:290|209:282,1,60.0000022888184,2|0,3:0|0:0,0:0:0:0:
391,196,139009,2,0,P|356:190|317:182,1,60.0000022888184,4|0,1:0|0:0,0:0:0:0:
229,88,139292,2,0,P|264:94|303:102,1,60.0000022888184,2|0,3:0|0:0,0:0:0:0:
129,44,139575,2,0,P|119:95|145:160,1,120.000004577637,4|2,1:0|3:0,0:0:0:0:
283,296,140141,1,0,1:0:0:0:
38,331,140424,5,2,3:0:0:0:
38,331,140565,1,0,3:0:0:0:
38,331,140707,2,0,P|67:318|93:299,1,60.0000022888184,4|0,1:0|0:0,0:0:0:0:
143,224,140990,2,0,L|153:142,1,60.0000022888184,2|0,3:0|0:0,0:0:0:0:
256,192,141273,2,0,L|246:274,1,60.0000022888184,0|0,1:0|0:0,0:0:0:0:
376,100,141556,1,2,3:0:0:0:
376,100,141697,2,0,L|361:220,1,120.000004577637,0|0,3:0|0:0,0:0:0:0:
424,274,142122,6,0,P|438:304|463:329,1,60.0000022888184,2|0,3:0|0:0,0:0:0:0:
305,274,142405,2,0,P|273:258|233:249,1,60.0000022888184,0|0,1:0|0:0,0:0:0:0:
197,123,142688,1,2,3:0:0:0:
170,136,142830,1,0,3:0:0:0:
140,140,142971,2,0,P|82:114|43:71,1,120.000004577637,2|2,1:2|3:0,0:0:0:0:
270,102,143537,2,0,P|328:128|367:171,1,120.000004577637,2|2,1:2|3:0,0:0:0:0:
276,205,143962,5,0,3:0:0:0:
276,205,144103,2,0,P|279:234|288:276,1,60.0000022888184,2|0,1:2|0:0,0:0:0:0:
136,323,144386,2,0,P|132:293|124:252,1,60.0000022888184,2|0,3:0|0:0,0:0:0:0:
67,146,144669,1,0,1:0:0:0:
140,140,144811,1,0,3:0:0:0:
207,112,144952,1,4,3:0:0:0:
259,60,145094,1,4,3:0:0:0:
187,42,145235,6,0,P|177:116|190:180,1,120.000004577637,4|0,1:0|3:0,0:0:0:0:
206,231,145660,1,0,3:0:0:0:
245,296,145801,2,0,B|313:284|386:315|386:315|402:274,1,180.000006866455,0|0,1:0|3:0,0:0:0:0:
421,209,146367,2,0,L|405:137,1,60.0000022888184,0|0,1:0|0:0,0:0:0:0:
390,77,146650,1,0,3:0:0:0:
343,221,146933,1,0,1:0:0:0:
196,41,147216,5,0,3:0:0:0:
196,41,147358,1,0,3:0:0:0:
196,41,147499,1,4,1:0:0:0:
283,162,147782,1,0,3:0:0:0:
88,160,148065,2,0,P|148:153|211:122,1,120.000004577637,0|0,1:0|3:0,0:0:0:0:
421,209,148631,2,0,B|351:249|246:247|246:247|192:272,1,240.000009155274,0|0,1:0|1:0,0:0:0:0:
53,348,149480,5,0,3:0:0:0:
53,348,149622,1,0,3:0:0:0:
53,348,149763,2,0,P|80:298|88:223,1,120.000004577637,0|0,1:0|3:0,0:0:0:0:
88,160,150188,1,0,3:0:0:0:
60,91,150330,1,4,1:0:0:0:
231,173,150613,1,0,3:0:0:0:
202,331,150896,2,0,P|264:308|307:267,1,120.000004577637,0|0,1:0|3:0,0:0:0:0:
334,203,151320,1,0,3:0:0:0:
333,128,151462,1,4,1:0:0:0:
476,311,151745,5,0,3:0:0:0:
476,311,151886,1,0,3:0:0:0:
476,311,152028,2,0,P|464:280|454:237,1,60.0000022888184,0|0,1:0|0:0,0:0:0:0:
479,98,152311,2,0,L|471:158,1,60.0000022888184,0|0,3:0|0:0,0:0:0:0:
383,197,152594,2,0,P|323:215|237:222,1,120.000004577637,0|0,1:0|3:0,0:0:0:0:
182,204,153018,1,0,3:0:0:0:
182,204,153160,2,0,P|173:232|172:273,1,60.0000022888184,0|0,1:0|0:0,0:0:0:0:
185,353,153443,1,0,3:0:0:0:
39,296,153726,5,0,1:0:0:0:
83,238,153867,1,0,3:0:0:0:
96,165,154009,1,4,3:0:0:0:
90,90,154150,1,4,3:0:0:0:
46,30,154292,2,0,P|107:55|192:56,1,120.000004577637,4|0,1:0|3:0,0:0:0:0:
231,34,154716,1,0,3:0:0:0:
303,53,154858,2,0,L|282:243,1,180.000006866455,0|0,1:0|3:0,0:0:0:0:
330,295,155424,2,0,P|350:268|359:230,1,60.0000022888184,0|0,1:0|0:0,0:0:0:0:
330,170,155707,2,0,P|260:160|208:208,1,120.000004577637,0|0,3:0|1:0,0:0:0:0:
448,85,156273,5,0,3:0:0:0:
448,85,156414,1,0,3:0:0:0:
448,85,156556,2,0,L|379:106,1,60.0000022888184,4|0,1:0|0:0,0:0:0:0:
389,307,156839,2,0,L|405:226,1,60.0000022888184,0|0,3:0|0:0,0:0:0:0:
330,170,157122,2,0,L|261:191,1,60.0000022888184,4|0,1:0|0:0,0:0:0:0:
125,243,157405,5,0,3:0:0:0:
125,243,157546,1,0,3:0:0:0:
125,243,157688,2,0,P|196:279|262:281,2,120.000004577637,4|0|0,1:0|3:0|1:0,0:0:0:0:
94,195,158396,1,0,3:0:0:0:
90,140,158537,1,0,3:0:0:0:
107,86,158679,1,0,3:0:0:0:
151,51,158820,2,0,P|72:76|19:72,1,120.000004577637,4|0,1:0|3:0,0:0:0:0:
277,37,159386,6,0,P|266:116|256:174,1,120.000004577637,0|0,1:0|3:0,0:0:0:0:
242,232,159811,1,0,3:0:0:0:
242,232,159952,2,0,P|211:238|182:249,1,60.0000022888184,0|0,1:0|0:0,0:0:0:0:
259,155,160235,2,0,P|289:148|319:138,1,60.0000022888184,0|0,3:0|0:0,0:0:0:0:
302,281,160518,2,0,P|278:301|254:331,1,60.0000022888184,0|0,1:0|0:0,0:0:0:0:
199,106,160801,2,0,P|222:85|247:56,1,60.0000022888184,0|0,3:0|0:0,0:0:0:0:
333,213,161084,6,0,B|391:171|479:209|479:209|437:170|442:121,1,240.000009155274,4|0,1:0|1:0,0:0:0:0:
478,42,161933,1,0,3:0:0:0:
478,42,162075,1,0,3:0:0:0:
478,42,162216,1,0,1:0:0:0:
254,95,162499,1,0,3:0:0:0:
356,31,162782,1,0,1:0:0:0:
150,46,163065,5,0,3:0:0:0:
150,46,163207,1,0,3:0:0:0:
150,46,163348,2,0,B|115:82|52:84|52:84|18:146|71:205,1,240,4|2,0:0|0:0,0:0:0:0:
96,223,164339,1,2,0:0:0:0:
125,233,164480,2,0,B|168:223|197:249|248:228,1,120,2|0,0:0|0:0,0:0:0:0:
244,230,165046,2,0,L|295:236,2,40,2|2|2,0:0|0:0|0:0,0:0:0:0:
446,183,165613,6,0,P|441:223|437:277,1,80,4|0,3:2|3:0,0:0:0:0:
335,161,166179,2,0,P|339:120|344:67,1,80,2|0,3:0|3:0,0:0:0:0:
332,69,166603,1,0,3:0:0:0:
321,57,166745,1,0,3:0:0:0:
310,45,166886,1,0,3:0:0:0:
299,33,167028,1,0,3:0:0:0:
171,95,167311,6,0,L|164:43,2,40,2|0|0,3:0|3:0|3:0,0:0:0:0:
163,109,167735,1,0,3:0:0:0:
155,123,167877,2,0,P|160:172|166:209,1,80,0|0,3:0|3:0,0:0:0:0:
259,338,168443,2,0,P|254:289|248:252,1,80,2|0,3:0|3:0,0:0:0:0:
234,264,168867,1,0,3:0:0:0:
219,269,169009,1,0,3:0:0:0:
204,274,169150,1,0,3:0:0:0:
189,280,169292,1,0,3:0:0:0:
72,237,169575,1,2,3:0:0:0:
145,141,169858,5,0,3:0:0:0:
145,141,169999,1,0,3:0:0:0:
145,141,170141,2,0,P|184:142|234:146,1,80,0|0,3:0|3:0,0:0:0:0:
353,110,170707,1,2,3:0:0:0:
367,243,170990,1,0,3:0:0:0:
367,243,171131,1,0,3:0:0:0:
367,243,171273,2,0,P|328:242|278:238,2,80,0|0|2,3:0|3:0|3:0,0:0:0:0:
469,173,172122,5,0,3:0:0:0:
469,173,172263,1,0,3:0:0:0:
469,173,172405,2,0,P|483:226|483:269,1,80,0|0,3:0|3:0,0:0:0:0:
474,288,172830,2,0,P|455:330|411:361,1,80,0|0,3:0|3:0,0:0:0:0:
393,352,173254,2,0,P|355:347|300:348,1,80,0|0,3:0|3:0,0:0:0:0:
281,349,173679,1,0,3:0:0:0:
250,356,173820,1,0,3:0:0:0:
331,250,174103,1,2,3:0:0:0:
213,201,174386,5,0,3:0:0:0:
213,201,174528,1,0,3:0:0:0:
213,201,174669,2,0,P|169:208|116:214,1,80,4|0,1:0|3:0,0:0:0:0:
98,197,175094,2,0,L|59:181,1,40,0|0,3:0|1:0,0:0:0:0:
140,125,175377,1,0,3:0:0:0:
140,125,175518,2,0,L|127:68,1,40,0|0,3:0|0:0,0:0:0:0:
260,90,175801,6,0,P|299:74|356:46,1,80,0|0,1:0|3:0,0:0:0:0:
376,74,176226,2,0,L|426:104,1,40,0|0,3:0|1:0,0:0:0:0:
442,162,176509,1,0,3:0:0:0:
442,209,176650,1,0,3:0:0:0:
418,250,176792,1,0,3:0:0:0:
375,272,176933,1,4,1:0:0:0:
174,176,177216,5,0,3:0:0:0:
174,176,177358,2,0,L|165:223,1,40,0|0,3:0|1:0,0:0:0:0:
231,333,177641,1,0,3:0:0:0:
231,333,177782,2,0,L|179:315,1,40,0|0,3:0|0:0,0:0:0:0:
272,220,178065,5,0,1:0:0:0:
306,186,178207,1,0,3:0:0:0:
337,149,178348,1,0,3:0:0:0:
364,109,178490,1,0,3:0:0:0:
389,68,178631,2,0,L|376:25,1,40,0|0,1:0|0:0,0:0:0:0:
225,105,178914,2,0,L|216:155,1,40,0|0,3:0|0:0,0:0:0:0:
43,48,179197,6,0,L|55:187,1,128,4|0,0:0|0:0,0:0:0:0:
34,251,180046,1,2,0:0:0:0:
58,327,180330,1,2,0:0:0:0:
130,358,180613,1,2,0:0:0:0:
206,346,180896,1,2,0:0:0:0:
309,290,181179,5,2,0:0:0:0:
309,290,181320,1,2,0:0:0:0:
309,290,181462,2,0,P|367:291|408:305,1,80,4|0,1:0|3:0,0:0:0:0:
483,344,182028,1,0,3:0:0:0:
286,196,182311,5,0,3:0:0:0:
286,196,182452,1,0,3:0:0:0:
286,196,182594,2,0,P|242:202|201:220,1,80,4|0,1:0|3:0,0:0:0:0:
119,267,183160,1,0,3:0:0:0:
336,109,183443,5,0,3:0:0:0:
336,109,183584,1,0,3:0:0:0:
336,109,183726,1,4,1:0:0:0:
78,62,184150,1,4,1:3:0:0:
175,309,184575,1,4,1:3:0:0:
209,216,184858,1,4,1:3:0:0:
437,333,185424,5,2,0:0:0:0:
401,257,185565,1,2,0:0:0:0:
360,322,185707,1,2,0:0:0:0:
476,268,185848,1,0,3:0:0:0:
453,174,185990,6,0,P|396:145|310:143,1,120.000004577637,4|2,1:0|3:0,0:0:0:0:
207,267,186414,1,0,3:0:0:0:
303,249,186556,2,0,P|266:197|208:164,1,120.000004577637,0|2,1:0|3:0,0:0:0:0:
27,219,186980,1,0,3:0:0:0:
119,257,187122,2,0,P|115:200|80:130,1,120.000004577637,0|2,1:0|3:0,0:0:0:0:
37,45,187546,5,0,3:0:0:0:
37,45,187688,2,0,P|62:60|101:67,1,60.0000022888184,0|0,1:0|0:0,0:0:0:0:
168,68,187971,1,2,3:0:0:0:
243,57,188113,1,0,3:0:0:0:
328,28,188254,6,0,L|322:106,1,60.0000022888184,4|0,1:0|0:0,0:0:0:0:
418,211,188537,2,0,L|424:133,1,60.0000022888184,2|0,3:0|3:0,0:0:0:0:
277,75,188820,6,0,L|271:153,1,60.0000022888184,4|0,1:0|0:0,0:0:0:0:
127,311,189103,2,0,L|133:233,1,60.0000022888184,2|0,3:0|3:0,0:0:0:0:
316,142,189386,6,0,L|310:220,1,60.0000022888184,4|0,1:0|0:0,0:0:0:0:
378,356,189669,2,0,L|387:236,1,120.000004577637,2|0,3:0|1:0,0:0:0:0:
379,245,190094,1,0,3:0:0:0:
371,254,190235,1,2,3:0:0:0:
363,263,190377,1,0,3:0:0:0:
355,272,190518,5,2,0:0:0:0:
303,289,190660,1,2,0:0:0:0:
246,269,190801,1,2,0:0:0:0:
208,214,190943,1,2,0:0:0:0:
209,142,191084,1,4,1:0:0:0:
384,94,191367,1,2,3:0:0:0:
378,356,191650,6,0,P|315:367|237:372,1,120.000004577637,0|2,1:0|3:0,0:0:0:0:
184,352,192075,1,0,3:0:0:0:
120,306,192216,1,4,1:0:0:0:
291,99,192499,5,2,3:0:0:0:
366,128,192641,1,0,3:0:0:0:
316,189,192782,2,0,P|285:195|249:205,1,60.0000022888184,0|0,1:0|0:0,0:0:0:0:
84,113,193065,2,0,P|114:106|151:97,1,60.0000022888184,2|0,3:0|0:0,0:0:0:0:
186,322,193348,2,0,P|177:291|171:255,1,60.0000022888184,0|0,1:0|0:0,0:0:0:0:
366,128,193631,5,2,3:0:0:0:
391,203,193773,2,0,P|399:233|406:270,1,60.0000022888184,0|0,3:0|1:0,0:0:0:0:
430,82,194056,1,0,3:0:0:0:
366,128,194197,2,0,P|337:147|294:173,1,60.0000022888184,2|0,3:0|0:0,0:0:0:0:
152,110,194480,5,2,1:2:0:0:
222,139,194622,1,2,3:2:0:0:
111,177,194763,1,2,3:2:0:0:
91,63,194905,1,0,3:0:0:0:
111,177,195046,2,0,P|115:205|121:237,1,60.0000022888184,4|0,1:0|0:0,0:0:0:0:
268,274,195330,2,0,P|264:246|258:214,1,60.0000022888184,2|0,3:0|3:0,0:0:0:0:
204,316,195613,6,0,P|272:325|346:327,1,120.000004577637,0|2,1:0|3:0,0:0:0:0:
419,225,196037,1,0,3:0:0:0:
315,131,196179,2,0,P|247:122|173:120,1,120.000004577637,0|2,1:0|3:0,0:0:0:0:
93,192,196603,1,0,3:0:0:0:
104,50,196745,1,0,1:0:0:0:
104,50,197028,5,2,3:0:0:0:
104,50,197169,1,0,3:0:0:0:
104,50,197311,2,0,L|99:124,1,60.0000022888184,4|0,1:0|0:0,0:0:0:0:
93,192,197594,2,0,L|88:266,1,60.0000022888184,2|0,3:0|3:0,0:0:0:0:
219,43,197877,6,0,L|214:117,1,60.0000022888184,4|0,1:0|0:0,0:0:0:0:
203,248,198160,2,0,L|198:322,1,60.0000022888184,2|0,3:0|3:0,0:0:0:0:
335,35,198443,6,0,L|330:109,1,60.0000022888184,4|0,1:0|0:0,0:0:0:0:
322,297,198726,2,0,L|317:371,1,60.0000022888184,2|0,3:0|0:0,0:0:0:0:
327,196,199009,1,0,1:0:0:0:
479,148,199292,5,2,3:0:0:0:
479,148,199433,1,0,3:0:0:0:
479,148,199575,2,0,P|462:169|449:209,1,60.0000022888184,4|0,1:0|0:0,0:0:0:0:
322,297,199858,2,0,P|351:306|387:330,1,60.0000022888184,2|0,3:0|0:0,0:0:0:0:
178,224,200141,2,0,P|151:239|110:248,1,60.0000022888184,0|0,1:0|0:0,0:0:0:0:
261,167,200424,5,2,3:0:0:0:
233,299,200565,2,0,P|219:327|188:367,1,60.0000022888184,0|0,3:0|1:0,0:0:0:0:
143,126,200848,1,0,3:0:0:0:
143,126,200990,2,0,P|138:95|118:56,1,60.0000022888184,2|0,3:0|0:0,0:0:0:0:
233,299,201273,2,0,P|259:315|293:325,1,60.0000022888184,0|0,1:0|0:0,0:0:0:0:
35,181,201556,5,2,3:0:0:0:
102,218,201697,1,0,3:0:0:0:
178,224,201839,2,0,P|210:217|250:209,1,60.0000022888184,2|0,1:2|0:0,0:0:0:0:
431,167,202122,1,2,3:0:0:0:
431,167,202405,2,0,P|376:177|312:191,1,120.000004577637,2|2,1:2|3:0,0:0:0:0:
213,275,202830,5,0,3:0:0:0:
297,265,202971,1,2,1:2:0:0:
298,108,203113,1,4,3:0:0:0:
214,118,203254,1,4,3:0:0:0:
463,346,203537,6,0,P|426:290|372:241,1,120.000004577637,4|0,1:3|3:0,0:0:0:0:
256,192,203962,1,0,3:0:0:0:
256,192,204103,2,0,L|275:124,1,60.0000022888184,4|0,1:0|0:0,0:0:0:0:
49,38,204386,2,0,P|86:94|140:143,1,120.000004577637,2|0,3:0|1:0,0:0:0:0:
369,133,204811,5,0,3:0:0:0:
375,53,204952,2,0,P|346:62|318:71,1,60.0000022888184,2|0,3:0|3:0,0:0:0:0:
256,192,205235,2,0,L|237:260,1,60.0000022888184,4|0,1:0|0:0,0:0:0:0:
79,349,205518,2,0,P|136:330|194:313,1,120.000004577637,2|0,3:0|1:0,0:0:0:0:
468,254,205943,5,0,3:0:0:0:
411,309,206084,2,0,P|399:281|389:254,1,60.0000022888184,2|0,3:0|3:0,0:0:0:0:
256,192,206367,2,0,L|188:173,1,60.0000022888184,4|0,1:0|0:0,0:0:0:0:
99,74,206650,2,0,P|111:102|123:130,1,60.0000022888184,2|0,3:0|3:0,0:0:0:0:
318,59,206933,6,0,P|349:46|389:29,1,60.0000022888184,4|0,1:0|0:0,0:0:0:0:
256,192,207216,1,2,3:0:0:0:
224,258,207358,1,0,3:0:0:0:
194,325,207499,2,0,P|162:337|123:355,1,60.0000022888184,4|0,1:0|0:0,0:0:0:0:
256,192,207782,2,0,L|324:211,1,60.0000022888184,2|0,3:0|0:0,0:0:0:0:
48,106,208065,6,0,P|116:90|181:52,1,120.000004577637,0|2,1:0|3:0,0:0:0:0:
332,54,208490,1,0,3:0:0:0:
256,32,208631,2,0,L|264:112,1,60.0000022888184,4|0,1:0|0:0,0:0:0:0:
256,352,208914,2,0,L|248:272,1,60.0000022888184,2|0,3:0|3:0,0:0:0:0:
464,278,209197,6,0,P|396:294|331:332,1,120.000004577637,0|2,1:0|3:0,0:0:0:0:
219,159,209622,1,0,3:0:0:0:
261,91,209763,2,0,L|309:155,1,60.0000022888184,4|0,1:0|0:0,0:0:0:0:
251,293,210046,2,0,L|203:229,1,60.0000022888184,2|0,3:0|3:0,0:0:0:0:
115,186,210330,5,0,1:0:0:0:
115,186,210471,2,0,L|101:272,1,60.0000022888184,0|2,3:0|3:0,0:0:0:0:
396,197,210754,1,0,3:0:0:0:
396,197,210895,2,0,L|410:111,1,60.0000022888184,4|0,1:0|0:0,0:0:0:0:
349,65,211179,6,0,L|322:127,1,60.0000022888184,2|0,3:0|3:0,0:0:0:0:
162,318,211462,2,0,L|189:256,1,60.0000022888184,4|0,1:0|0:0,0:0:0:0:
89,133,211745,6,0,L|124:204,1,60.0000022888184,2|0,3:0|3:0,0:0:0:0:
423,251,212028,2,0,L|388:180,1,60.0000022888184,4|0,1:0|0:0,0:0:0:0:
259,112,212311,5,2,3:0:0:0:
253,272,212452,1,0,3:0:0:0:
259,112,212594,2,0,B|314:99|338:118|338:118|400:96,1,120.000004577637,0|2,1:0|3:0,0:0:0:0:
253,272,213018,1,0,3:0:0:0:
253,272,213160,2,0,B|197:284|174:266|174:266|112:288,1,120.000004577637,4|2,1:0|3:0,0:0:0:0:
370,219,213584,5,0,3:0:0:0:
142,165,213726,2,0,B|133:118|158:80|158:80|196:69,1,120.000004577637,0|2,1:0|3:0,0:0:0:0:
370,219,214150,1,0,3:0:0:0:
370,219,214292,2,0,B|379:266|354:304|354:304|316:315,1,120.000004577637,4|2,1:0|3:0,0:0:0:0:
243,318,214716,5,0,3:0:0:0:
196,249,214858,1,0,1:0:0:0:
256,192,214999,1,0,3:0:0:0:
316,135,215141,1,2,3:0:0:0:
269,66,215283,1,0,3:0:0:0:
138,99,215424,6,0,P|115:130|105:168,1,60.0000022888184,4|0,1:0|0:0,0:0:0:0:
363,204,215707,1,2,3:0:0:0:
316,135,215849,1,0,3:0:0:0:
185,168,215990,6,0,P|162:199|152:237,1,60.0000022888184,4|0,1:0|0:0,0:0:0:0:
410,273,216273,1,2,3:0:0:0:
363,204,216415,1,0,3:0:0:0:
232,237,216556,6,0,P|209:268|199:306,1,60.0000022888184,4|0,1:0|0:0,0:0:0:0:
456,335,216839,2,0,P|479:304|489:266,1,60.0000022888184,2|0,3:0|3:0,0:0:0:0:
258,369,217122,6,0,P|293:321|309:262,1,120.000004577637,0|2,1:0|3:0,0:0:0:0:
256,192,217546,1,0,3:0:0:0:
254,15,217688,2,0,P|218:62|202:121,1,120.000004577637,4|2,1:0|3:0,0:0:0:0:
256,192,218113,5,0,3:0:0:0:
433,190,218254,2,0,P|409:172|379:164,1,60.0000022888184,0|0,1:0|0:0,0:0:0:0:
79,194,218537,2,0,P|102:212|131:220,1,60.0000022888184,2|0,3:0|3:0,0:0:0:0:
397,272,218820,5,4,1:0:0:0:
309,264,218961,1,0,3:0:0:0:
256,192,219103,1,2,3:0:0:0:
309,120,219245,1,0,3:0:0:0:
397,112,219386,2,0,P|444:106|487:90,1,60.0000022888184,0|0,1:0|0:0,0:0:0:0:
256,192,219669,5,2,3:0:0:0:
203,120,219811,1,0,3:0:0:0:
115,112,219952,2,0,P|68:106|25:90,1,60.0000022888184,4|0,1:0|0:0,0:0:0:0:
236,31,220235,6,0,L|293:51,1,60.0000022888184,2|0,3:0|3:0,0:0:0:0:
276,353,220518,2,0,L|219:333,1,60.0000022888184,4|0,1:0|0:0,0:0:0:0:
85,208,220801,5,2,3:0:0:0:
170,202,220943,1,0,3:0:0:0:
256,192,221084,2,0,P|321:165|375:170,1,120.000004577637,4|2,1:0|3:0,0:0:0:0:
490,296,221650,1,0,1:0:0:0:
481,58,221933,5,2,3:0:0:0:
481,58,222075,1,0,3:0:0:0:
481,58,222216,2,0,P|489:121|470:188,1,120.000004577637,0|2,1:0|3:0,0:0:0:0:
311,271,222782,1,0,1:0:0:0:
112,117,223065,5,2,3:0:0:0:
112,117,223207,1,0,3:0:0:0:
112,117,223348,2,0,B|195:139|283:94|360:120,1,240.000009155274,0|0,1:0|0:0,0:0:0:0:
474,256,224339,5,0,3:0:0:0:
474,256,224480,2,0,P|479:205|482:158,1,80,4|0,3:1|3:0,0:0:0:0:
368,296,225046,2,0,P|324:292|271:287,1,80,2|0,3:0|3:0,0:0:0:0:
266,298,225471,1,0,3:0:0:0:
243,307,225613,1,0,3:0:0:0:
221,316,225754,1,0,3:0:0:0:
199,326,225896,1,0,3:0:0:0:
123,196,226179,1,2,3:0:0:0:
264,211,226462,5,0,3:0:0:0:
264,211,226603,1,0,3:0:0:0:
264,211,226745,1,0,3:0:0:0:
340,104,227028,1,0,3:0:0:0:
189,57,227311,2,0,P|140:68|89:80,1,80,2|0,3:0|3:0,0:0:0:0:
92,90,227735,1,0,3:0:0:0:
81,111,227877,1,0,3:0:0:0:
74,134,228018,1,0,3:0:0:0:
71,157,228160,1,0,3:0:0:0:
72,180,228301,1,0,3:0:0:0:
30,205,228443,5,2,3:0:0:0:
86,253,228584,1,2,3:0:0:0:
160,265,228726,1,2,3:0:0:0:
233,250,228867,1,2,3:0:0:0:
293,206,229009,2,0,P|326:189|364:178,1,60.0000022888184,4|0,1:0|0:0,0:0:0:0:
197,40,229292,2,0,P|191:72|178:103,1,60.0000022888184,2|0,3:0|0:0,0:0:0:0:
160,265,229575,2,0,P|162:296|176:336,1,60.0000022888184,0|0,1:0|0:0,0:0:0:0:
419,231,229858,5,2,3:0:0:0:
348,182,229999,1,0,3:0:0:0:
425,135,230141,2,0,B|444:111|444:111|431:59|464:15,2,120.000004577637,0|2|0,1:0|3:0|1:0,0:0:0:0:
399,346,230990,5,2,3:0:0:0:
323,322,231131,1,0,3:0:0:0:
247,343,231273,2,0,P|215:342|176:332,1,60.0000022888184,4|0,1:0|0:0,0:0:0:0:
384,203,231556,2,0,P|364:230|327:256,1,60.0000022888184,2|0,3:0|0:0,0:0:0:0:
124,289,231839,6,0,P|92:274|67:248,1,60.0000022888184,4|0,1:0|0:0,0:0:0:0:
377,67,232122,2,0,P|378:100|364:144,1,60.0000022888184,2|0,3:0|0:0,0:0:0:0:
66,178,232405,2,0,B|56:143|74:119|74:119|92:158|122:172,1,120.000004577637,4|0,1:0|3:0,0:0:0:0:
341,193,232971,5,2,3:0:0:0:
212,277,233113,1,2,3:0:0:0:
198,123,233254,1,2,3:0:0:0:
