osu file format v14

[General]
AudioFilename: audio.mp3
AudioLeadIn: 0
PreviewTime: 57778
Countdown: 0
SampleSet: Soft
StackLeniency: 0.7
Mode: 0
LetterboxInBreaks: 0
WidescreenStoryboard: 0

[Editor]
DistanceSpacing: 0.8
BeatDivisor: 4
GridSize: 32
TimelineZoom: 1

[Metadata]
Title:Omoi Nochi Hare
TitleUnicode:想いのち晴れ
Artist:Aoi (CV: Iguchi Yuka), Hinata (CV: Asumi Kana)
ArtistUnicode:あおい (CV: 井口裕香)、ひなた (CV: 阿澄佳奈)
Creator:CoLouRed GlaZeE
Version:Normal
Source:ヤマノススメ Next Summit
Tags:anime japanese j-pop jpop pop female voice yama no susume fourth season 4 op opening full size version Encouragement of Climb 雪村 あおい yukimura aoi 倉上 ひなた kuraue hinata
BeatmapID:4086283
BeatmapSetID:1953987

[Difficulty]
HPDrainRate:4
CircleSize:3
OverallDifficulty:4
ApproachRate:5
SliderMultiplier:1
SliderTickRate:1

[Events]
//Background and Video events
0,0,"bggggg.jpg",0,0
//Break Periods
2,143469,147958
//Storyboard Layer 0 (Background)
//Storyboard Layer 1 (Fail)
//Storyboard Layer 2 (Pass)
//Storyboard Layer 3 (Foreground)
//Storyboard Layer 4 (Overlay)
//Storyboard Sound Samples

[TimingPoints]
447,368.098159509202,4,2,1,70,1,0
3575,-100,4,2,1,60,0,0
5784,-100,4,2,1,70,0,0
6336,-100,4,2,1,70,0,1
6520,-100,4,2,1,70,0,0
12226,-100,4,2,1,60,0,0
22532,-100,4,2,1,70,0,0
22900,-100,4,2,1,60,0,0
24005,-100,4,2,1,70,0,0
25845,-100,4,2,1,60,0,0
26950,-100,4,2,1,70,0,0
34680,-100,4,2,1,60,0,0
35784,-100,4,2,1,70,0,0
37624,-100,4,2,1,60,0,0
38729,-100,4,2,1,70,0,0
44618,-100,4,2,1,60,0,0
51796,-100,4,2,1,70,0,0
55293,-100,4,2,1,60,0,0
57134,-100,4,2,1,70,0,0
57870,-100,4,2,1,80,0,1
69649,-100,4,2,1,70,0,1
77011,-100,4,2,1,70,0,0
82900,-100,4,2,1,70,0,1
83085,-100,4,2,1,70,0,0
87686,-100,4,2,1,60,0,0
88790,-100,4,2,1,70,0,0
90631,-100,4,2,1,60,0,0
91735,-100,4,2,1,70,0,0
97624,-100,4,2,1,60,0,0
103882,-100,4,2,1,70,0,0
108115,-100,4,2,1,60,0,0
109035,-100,4,2,1,40,0,0
109220,-100,4,2,1,60,0,0
110140,-100,4,2,1,70,0,0
110876,-100,4,2,1,80,0,1
122655,-100,4,2,1,70,0,0
125416,-100,4,2,1,80,0,1
128361,-100,4,2,1,70,0,0
131673,-100,4,2,1,60,0,0
137195,-100,4,2,1,70,0,0
140692,-100,4,2,1,60,0,0
141612,-100,4,2,1,70,0,0
143269,-100,4,2,1,50,0,0
148422,-100,4,2,1,60,0,0
149158,-100,4,2,1,70,0,0
151367,-100,4,2,1,60,0,0
151735,-100,4,2,1,50,0,0
152103,-100,4,2,1,60,0,0
153759,-100,4,2,1,65,0,0
154680,-100,4,2,1,70,0,0
155048,-100,4,2,1,80,0,1
160845,-100,4,2,1,80,0,0
160937,-100,4,2,1,80,0,1
166735,-100,4,2,1,80,0,0
166827,-100,4,2,1,80,0,1
174189,-100,4,2,1,70,0,0
180078,-100,4,2,1,70,0,1
180262,-100,4,2,1,70,0,0

[Colours]
Combo1 : 239,188,211
Combo2 : 181,211,244
Combo3 : 163,209,202
Combo4 : 186,198,233
Combo5 : 233,237,175

[HitObjects]
86,264,447,6,0,P|123:251|143:241,1,50,8|8,0:0|0:0,0:0:0:0:
169,212,815,1,2,0:0:0:0:
238,283,1183,2,0,P|264:297|292:307,1,50,8|8,0:0|0:0,0:0:0:0:
332,311,1551,1,2,0:0:0:0:
429,289,1919,2,0,P|424:249|414:222,1,50,8|8,0:0|0:0,0:0:0:0:
399,194,2287,1,2,0:0:0:0:
364,157,2471,2,0,P|302:137|256:109,1,100,12|4,0:0|3:0,0:0:0:0:
247,76,3023,1,8,0:0:0:0:
149,54,3391,5,8,0:0:0:0:
82,337,5600,2,0,P|47:334|22:327,2,50,4|8|8,3:0|0:0|0:0,0:0:0:0:
181,334,6336,6,0,L|234:330,1,50,4|2,3:1|0:0,0:0:0:0:
280,325,6704,1,8,0:0:0:0:
379,335,7072,2,0,L|395:278,1,50,0|2,3:0|0:0,0:0:0:0:
405,238,7440,1,8,0:0:0:0:
416,189,7624,2,0,P|370:199|301:201,1,100,2|2,0:0|0:0,0:0:0:0:
267,193,8177,1,8,0:0:0:0:
242,96,8545,2,0,L|190:75,1,50,0|2,3:0|3:2,0:0:0:0:
148,61,8913,1,8,0:0:0:0:
62,112,9281,6,0,P|41:175|47:225,1,100,0|8,3:0|0:0,0:0:0:0:
79,300,10017,1,0,3:0:0:0:
172,263,10385,1,8,0:0:0:0:
268,237,10753,2,0,P|329:241|373:259,1,100,0|8,3:0|0:0,0:0:0:0:
409,277,11305,1,2,0:0:0:0:
449,305,11489,2,0,P|455:332|465:361,2,50,0|2|8,3:0|0:0|0:0,0:0:0:0:
491,214,12226,6,0,P|492:165|476:108,1,100,4|0,3:2|3:0,0:0:0:0:
402,52,12962,2,0,P|379:99|385:150,1,100,8|0,0:0|3:0,0:0:0:0:
384,195,13514,2,0,P|326:187|278:165,1,100,2|2,3:2|3:2,0:0:0:0:
248,141,14066,1,0,3:0:0:0:
167,81,14434,2,0,P|154:122|157:184,1,100,8|0,0:0|3:0,0:0:0:0:
216,258,15170,5,4,3:2:0:0:
143,327,15539,1,0,3:0:0:0:
49,290,15907,2,0,L|33:222,1,50,8|8,0:0|3:0,0:0:0:0:
28,192,16275,1,8,0:0:0:0:
99,121,16643,1,12,0:0:0:0:
256,192,16827,12,12,21060,0:0:0:0:
323,268,22532,6,0,L|388:258,1,50,8|8,0:0|0:0,0:0:0:0:
421,253,22900,1,2,0:0:0:0:
424,152,23269,2,0,L|485:165,2,50,2|0|8,0:0|3:0|0:0,0:0:0:0:
341,95,24005,2,0,P|278:96|245:113,1,100,4|8,3:1|0:0,0:0:0:0:
199,93,24557,2,0,P|153:121|127:176,1,100,4|0,3:2|3:0,0:0:0:0:
125,209,25109,1,8,0:0:0:0:
152,305,25477,6,0,L|217:295,1,50,8|8,0:0|0:0,0:0:0:0:
250,290,25845,1,2,0:0:0:0:
348,270,26213,2,0,L|359:334,2,50,2|4|4,0:0|3:0|3:0,0:0:0:0:
395,181,26950,2,0,L|433:213,2,50,4|0|8,3:1|3:0|0:0,0:0:0:0:
376,134,27502,2,0,P|330:131|275:98,1,100,4|0,3:2|3:0,0:0:0:0:
253,65,28054,1,8,0:0:0:0:
155,42,28422,6,0,P|120:59|93:74,1,50,0|2,3:0|3:2,0:0:0:0:
68,92,28790,1,8,0:0:0:0:
34,186,29158,2,0,P|64:208|97:221,1,50,0|2,3:0|3:2,0:0:0:0:
122,231,29526,1,8,0:0:0:0:
215,265,29894,2,0,P|213:291|205:323,2,50,0|4|8,3:0|3:0|0:0,0:0:0:0:
234,218,30446,2,0,P|238:155|267:112,1,100,4|0,3:1|3:0,0:0:0:0:
295,92,30999,1,8,0:0:0:0:
383,44,31367,6,0,P|403:81|415:96,1,50,0|2,3:0|3:2,0:0:0:0:
448,115,31735,1,8,0:0:0:0:
476,210,32103,2,0,P|449:229|425:238,1,50,0|2,3:0|3:2,0:0:0:0:
385,248,32471,1,8,0:0:0:0:
290,279,32839,2,0,P|284:302|281:331,2,50,4|4|8,3:1|3:0|0:0,0:0:0:0:
281,229,33391,2,0,L|263:121,1,100,4|0,3:2|3:0,0:0:0:0:
256,81,33943,1,8,0:0:0:0:
162,46,34312,6,0,L|110:57,1,50,8|8,0:0|0:0,0:0:0:0:
64,65,34680,1,2,0:0:0:0:
41,162,35048,2,0,L|30:218,2,50,2|4|8,0:0|3:0|0:0,0:0:0:0:
139,180,35784,2,0,P|163:232|167:283,1,100,4|8,3:1|0:0,0:0:0:0:
169,323,36336,2,0,P|225:306|274:308,1,100,4|0,3:2|3:0,0:0:0:0:
315,315,36888,1,8,0:0:0:0:
411,340,37256,6,0,L|422:288,1,50,8|8,0:0|0:0,0:0:0:0:
430,242,37624,1,2,0:0:0:0:
430,141,37993,2,0,L|487:151,2,50,4|0|8,3:0|3:0|0:0,0:0:0:0:
339,99,38729,2,0,P|342:63|350:34,2,50,4|0|8,3:1|3:0|0:0,0:0:0:0:
309,139,39281,2,0,P|251:155|190:144,1,100,4|0,3:2|3:0,0:0:0:0:
162,142,39833,1,8,0:0:0:0:
71,98,40201,6,0,P|53:115|39:146,1,50,0|2,3:0|3:2,0:0:0:0:
31,186,40569,1,8,0:0:0:0:
41,285,40937,2,0,P|72:296|102:302,1,50,0|2,3:0|3:2,0:0:0:0:
138,299,41305,1,8,0:0:0:0:
218,239,41673,2,0,P|201:195|200:181,2,50,0|0|8,3:0|3:0|0:0,0:0:0:0:
261,263,42226,2,0,P|325:252|382:254,1,100,4|0,3:1|3:0,0:0:0:0:
409,260,42778,1,8,0:0:0:0:
475,185,43146,6,0,P|482:150|477:125,1,50,0|2,3:0|3:2,0:0:0:0:
464,88,43514,1,8,0:0:0:0:
372,47,43882,2,0,P|357:66|350:99,1,50,0|2,3:0|3:2,0:0:0:0:
339,140,44250,1,8,0:0:0:0:
261,202,44618,2,0,P|213:204|158:177,1,100,4|2,3:1|0:0,0:0:0:0:
170,133,45170,2,0,P|128:107|72:104,1,100,0|8,3:0|3:0,0:0:0:0:
36,130,45723,2,0,P|28:157|27:198,1,50,4|0,3:0|3:0,0:0:0:0:
21,228,46091,6,0,P|65:245|125:254,1,100,4|0,3:2|0:0,0:0:0:0:
205,300,46827,2,0,P|204:338|205:357,2,50,0|0|8,3:0|0:0|0:0,0:0:0:0:
254,291,47379,2,0,P|310:280|355:254,1,100,0|0,3:0|0:0,0:0:0:0:
379,221,47931,1,0,3:0:0:0:
418,128,48299,2,0,L|471:146,2,50,0|0|8,0:0|3:0|0:0,0:0:0:0:
378,98,48851,2,0,P|316:93|263:98,1,100,2|0,0:0|0:0,0:0:0:0:
228,103,49404,6,0,P|197:105|160:103,1,50,0|2,0:0|3:2,0:0:0:0:
86,143,49956,2,0,P|82:98|86:75,2,50,0|8|0,0:0|0:0|0:0,0:0:0:0:
111,239,50692,2,0,P|82:242|44:242,2,50,0|0|0,0:0|0:0|3:0,0:0:0:0:
152,267,51244,2,0,P|195:267|218:261,1,50,8|8,0:0|3:0,0:0:0:0:
250,256,51612,1,8,0:0:0:0:
290,285,51796,6,0,P|355:286|401:270,1,100,4|0,3:1|3:0,0:0:0:0:
430,249,52348,1,8,0:0:0:0:
472,158,52716,1,8,0:0:0:0:
398,89,53085,1,8,0:0:0:0:
327,159,53453,1,8,0:0:0:0:
248,97,53821,1,8,0:0:0:0:
183,173,54189,2,0,L|117:158,1,50,8|8,0:0|3:0,0:0:0:0:
85,152,54557,1,8,0:0:0:0:
35,142,54741,2,0,L|50:259,1,100,12|2,0:0|0:0,0:0:0:0:
72,284,55293,6,0,P|67:307|59:335,2,50,2|0|2,0:0|0:0|0:0,0:0:0:0:
167,255,56029,2,0,P|196:275|219:285,1,50,0|2,0:0|0:0,0:0:0:0:
309,280,56581,2,0,P|339:268|360:254,1,50,0|2,0:0|0:0,0:0:0:0:
416,180,57134,2,0,P|384:171|353:162,1,50,4|4,3:0|3:0,0:0:0:0:
321,148,57502,1,8,0:0:0:0:
259,68,57870,5,4,3:1:0:0:
209,65,58054,2,0,P|151:73|108:97,1,100,2|0,0:0|0:0,0:0:0:0:
85,132,58606,1,2,3:2:0:0:
81,231,58974,1,8,0:0:0:0:
103,275,59158,2,0,P|159:308|201:317,1,100,2|2,0:0|3:2,0:0:0:0:
242,319,59710,2,0,P|274:312|299:306,1,50,8|2,0:0|0:0,0:0:0:0:
338,294,60078,2,0,L|398:314,1,50,0|2,3:0|3:2,0:0:0:0:
433,322,60446,1,12,0:0:0:0:
473,230,60815,5,4,3:1:0:0:
440,191,60999,2,0,P|370:175|326:172,1,100,2|0,0:0|0:0,0:0:0:0:
293,182,61551,1,2,3:2:0:0:
200,218,61919,1,8,0:0:0:0:
153,235,62103,2,0,P|116:202|95:146,1,100,2|2,0:0|0:0,0:0:0:0:
88,106,62655,2,0,L|110:57,1,50,8|2,0:0|0:0,0:0:0:0:
152,36,63023,2,0,L|202:79,1,50,0|2,3:0|3:2,0:0:0:0:
230,97,63391,1,8,0:0:0:0:
321,56,63759,5,4,3:1:0:0:
369,45,63943,2,0,P|424:75|460:120,1,100,2|0,0:0|0:0,0:0:0:0:
472,146,64496,1,2,3:2:0:0:
469,245,64864,1,8,0:0:0:0:
453,292,65048,2,0,P|404:289|349:282,1,100,2|2,0:0|0:0,0:0:0:0:
303,277,65600,2,0,L|258:311,1,50,8|2,0:0|0:0,0:0:0:0:
218,329,65968,2,0,L|163:291,1,50,0|2,3:0|3:2,0:0:0:0:
137,269,66336,1,12,0:0:0:0:
37,270,66704,5,4,3:1:0:0:
29,220,66888,2,0,P|27:166|37:112,1,100,2|0,0:0|0:0,0:0:0:0:
49,73,67440,1,2,3:2:0:0:
144,42,67808,1,8,0:0:0:0:
165,87,67993,2,0,P|176:136|182:191,1,100,2|8,0:0|3:0,0:0:0:0:
168,233,68545,2,0,L|224:254,1,50,8|4,0:0|3:2,0:0:0:0:
263,263,68913,1,2,3:0:0:0:
312,257,69097,2,0,L|355:229,1,50,8|8,3:0|0:0,0:0:0:0:
438,176,69649,6,0,P|415:122|369:92,1,100,4|0,3:2|3:0,0:0:0:0:
335,83,70201,1,2,0:0:0:0:
285,74,70385,2,0,P|225:85|169:78,1,100,0|0,3:0|3:0,0:0:0:0:
137,72,70937,1,2,0:0:0:0:
50,122,71305,2,0,P|47:150|49:183,1,50,2|0,0:0|3:0,0:0:0:0:
59,220,71673,1,2,0:0:0:0:
144,272,72042,2,0,P|140:298|133:326,2,50,8|4|0,3:0|3:0|3:0,0:0:0:0:
192,282,72594,6,0,P|248:296|291:292,1,100,4|0,3:2|3:0,0:0:0:0:
337,277,73146,1,2,0:0:0:0:
375,244,73330,2,0,P|361:197|354:125,1,100,0|0,3:0|3:0,0:0:0:0:
373,100,73882,1,2,0:0:0:0:
295,36,74250,1,8,0:0:0:0:
253,63,74434,2,0,L|242:120,1,50,8|0,0:0|3:0,0:0:0:0:
216,153,74802,2,0,L|232:210,1,50,8|8,0:0|3:0,0:0:0:0:
244,248,75170,1,8,0:0:0:0:
315,318,75539,6,0,P|347:292|355:276,2,50,4|0|8,3:1|0:0|0:0,0:0:0:0:
284,357,76091,2,0,P|230:362|165:353,1,100,4|0,3:2|3:0,0:0:0:0:
137,340,76643,1,8,0:0:0:0:
74,269,77011,5,8,0:0:0:0:
74,269,77195,1,8,0:0:0:0:
74,173,77563,1,8,0:0:0:0:
74,173,77747,1,8,0:0:0:0:
137,96,78115,1,8,0:0:0:0:
137,96,78299,2,0,P|193:99|237:88,1,100,12|8,0:0|0:0,0:0:0:0:
278,64,78851,1,8,0:0:0:0:
378,59,79220,2,0,P|427:81|438:92,1,50,8|0,0:0|3:0,0:0:0:0:
461,111,79588,1,10,3:0:0:0:
472,214,79956,5,8,0:0:0:0:
472,214,80140,1,8,0:0:0:0:
377,200,80508,1,8,0:0:0:0:
377,200,80692,1,8,0:0:0:0:
295,256,81060,1,8,0:0:0:0:
295,256,81244,2,0,P|229:261|186:245,1,100,12|8,0:0|0:0,0:0:0:0:
152,229,81796,1,8,0:0:0:0:
58,194,82164,2,0,P|41:247|45:293,1,100,8|8,0:0|0:0,0:0:0:0:
116,359,82900,6,0,L|171:354,1,50,4|2,3:1|0:0,0:0:0:0:
215,351,83269,1,8,0:0:0:0:
314,356,83637,2,0,L|375:322,1,50,0|2,3:0|0:0,0:0:0:0:
400,306,84005,1,8,0:0:0:0:
426,263,84189,2,0,P|436:221|420:159,1,100,2|2,0:0|0:0,0:0:0:0:
399,122,84741,1,8,0:0:0:0:
301,98,85109,2,0,L|288:163,1,50,0|2,3:0|3:2,0:0:0:0:
281,196,85477,1,8,0:0:0:0:
222,276,85845,5,4,3:1:0:0:
124,253,86213,1,8,0:0:0:0:
96,211,86397,2,0,P|87:166|106:105,1,100,4|8,3:2|3:0,0:0:0:0:
132,76,86950,1,8,0:0:0:0:
227,45,87318,6,0,L|294:52,1,50,8|8,0:0|0:0,0:0:0:0:
326,57,87686,1,2,0:0:0:0:
419,92,88054,2,0,L|473:80,2,50,2|0|2,0:0|3:0|3:2,0:0:0:0:
348,163,88790,2,0,P|321:205|264:219,1,100,4|8,3:1|0:0,0:0:0:0:
227,204,89342,2,0,P|211:262|221:316,1,100,4|4,3:2|3:0,0:0:0:0:
236,346,89894,1,8,0:0:0:0:
335,349,90262,6,0,L|405:337,1,50,8|8,0:0|0:0,0:0:0:0:
433,332,90631,1,2,0:0:0:0:
425,232,90999,2,0,L|485:227,2,50,8|8|8,0:0|3:0|0:0,0:0:0:0:
359,156,91735,2,0,L|355:96,2,50,4|0|8,3:1|3:0|0:0,0:0:0:0:
324,191,92287,2,0,P|259:188|212:200,1,100,4|0,3:2|3:0,0:0:0:0:
178,212,92839,1,8,0:0:0:0:
127,298,93207,6,0,P|97:294|66:284,1,50,0|2,3:0|3:2,0:0:0:0:
39,257,93575,1,8,0:0:0:0:
24,158,93943,2,0,P|45:139|75:129,1,50,0|2,3:0|3:2,0:0:0:0:
114,123,94312,1,8,0:0:0:0:
210,95,94680,2,0,P|208:67|202:42,2,50,0|0|8,3:0|3:0|0:0,0:0:0:0:
245,129,95232,2,0,P|284:146|348:144,1,100,4|0,3:2|3:0,0:0:0:0:
387,128,95784,1,8,0:0:0:0:
471,181,96152,6,0,P|473:207|469:238,1,50,0|2,3:0|3:2,0:0:0:0:
456,278,96520,1,8,0:0:0:0:
382,345,96888,2,0,P|352:333|329:318,1,50,0|2,3:0|3:2,0:0:0:0:
301,288,97256,1,8,0:0:0:0:
269,193,97624,2,0,P|209:212|173:238,1,100,4|0,3:2|0:0,0:0:0:0:
159,279,98177,2,0,P|113:274|58:260,1,100,2|0,0:0|0:0,0:0:0:0:
35,218,98729,2,0,P|32:189|31:159,1,50,2|2,0:0|0:0,0:0:0:0:
28,118,99097,6,0,P|81:113|134:104,1,100,4|0,3:1|0:0,0:0:0:0:
224,84,99833,2,0,P|217:54|216:31,2,50,0|2|0,0:0|0:0|0:0,0:0:0:0:
273,82,100385,2,0,P|282:133|284:182,1,100,2|0,0:0|0:0,0:0:0:0:
272,229,100937,1,2,0:0:0:0:
213,310,101305,2,0,P|182:301|149:297,2,50,2|0|2,0:0|0:0|0:0,0:0:0:0:
250,343,101858,2,0,P|315:353|357:345,1,100,2|0,0:0|0:0,0:0:0:0:
394,327,102410,6,0,P|424:329|453:328,1,50,0|2,0:0|0:0,0:0:0:0:
473,233,102962,2,0,P|470:204|471:181,2,50,0|2|0,0:0|0:0|0:0,0:0:0:0:
373,230,103698,2,0,P|341:227|304:230,2,50,0|12|0,3:0|0:0|3:0,0:0:0:0:
377,180,104250,2,0,P|377:147|375:115,1,50,8|8,0:0|3:0,0:0:0:0:
374,80,104618,1,8,0:0:0:0:
338,44,104802,6,0,P|283:38|230:45,1,100,4|0,3:2|3:0,0:0:0:0:
197,71,105354,1,8,0:0:0:0:
101,39,105723,1,8,0:0:0:0:
38,116,106091,1,8,0:0:0:0:
69,210,106459,1,8,0:0:0:0:
166,231,106827,1,8,0:0:0:0:
238,162,107195,2,0,L|300:178,1,50,8|8,0:0|3:0,0:0:0:0:
335,185,107563,1,4,3:0:0:0:
383,196,107747,1,12,0:0:0:0:
444,274,108115,6,0,P|477:259|497:248,2,50,2|2|0,0:0|0:0|0:0,0:0:0:0:
417,316,108667,1,2,0:0:0:0:
322,349,109035,2,0,P|290:344|260:334,1,50,4|2,0:0|0:0,0:0:0:0:
188,285,109588,2,0,P|166:262|152:235,1,50,0|2,0:0|0:0,0:0:0:0:
122,152,110140,2,0,L|188:140,1,50,4|8,3:0|3:0,0:0:0:0:
220,136,110508,1,4,3:0:0:0:
291,65,110876,5,4,3:1:0:0:
340,60,111060,2,0,P|409:79|443:101,1,100,2|0,0:0|0:0,0:0:0:0:
469,127,111612,1,2,3:2:0:0:
451,225,111980,1,8,0:0:0:0:
404,243,112164,2,0,P|340:258|291:259,1,100,2|2,0:0|3:2,0:0:0:0:
256,256,112716,2,0,P|245:228|227:203,1,50,8|2,0:0|0:0,0:0:0:0:
203,171,113085,2,0,P|173:157|139:147,1,50,0|2,3:0|3:2,0:0:0:0:
107,142,113453,1,12,0:0:0:0:
45,220,113821,5,4,3:1:0:0:
47,269,114005,2,0,P|95:322|137:332,1,100,2|0,0:0|0:0,0:0:0:0:
170,333,114557,1,2,3:2:0:0:
269,338,114925,1,8,0:0:0:0:
300,299,115109,2,0,P|329:271|392:259,1,100,2|2,0:0|3:2,0:0:0:0:
434,270,115661,2,0,P|465:239|476:217,1,50,8|2,0:0|0:0,0:0:0:0:
474,184,116029,2,0,P|460:156|440:131,1,50,0|2,3:0|3:2,0:0:0:0:
410,109,116397,1,12,0:0:0:0:
325,54,116766,5,4,3:1:0:0:
305,99,116950,2,0,P|262:137|218:143,1,100,2|0,0:0|0:0,0:0:0:0:
171,139,117502,1,2,3:2:0:0:
107,62,117870,1,8,0:0:0:0:
59,78,118054,2,0,P|36:130|42:191,1,100,2|2,0:0|0:0,0:0:0:0:
45,221,118606,2,0,L|105:241,1,50,8|2,0:0|3:2,0:0:0:0:
136,260,118974,2,0,L|206:244,1,50,0|2,3:0|3:2,0:0:0:0:
232,235,119342,1,12,0:0:0:0:
322,191,119710,5,4,3:1:0:0:
370,200,119894,2,0,P|422:242|432:291,1,100,2|0,0:0|0:0,0:0:0:0:
440,320,120446,1,2,3:2:0:0:
344,349,120815,1,8,0:0:0:0:
294,346,120999,2,0,P|239:341|197:329,1,100,2|8,3:2|3:0,0:0:0:0:
150,307,121551,2,0,L|114:265,1,50,8|4,0:0|3:2,0:0:0:0:
94,224,121919,1,2,3:0:0:0:
89,174,122103,2,0,L|142:155,1,50,8|8,3:0|0:0,0:0:0:0:
226,199,122655,6,0,P|281:215|377:211,1,150,4|0,3:2|3:0,0:0:0:0:
420,198,123391,2,0,P|428:225|440:256,2,50,8|0|0,0:0|0:0|3:0,0:0:0:0:
445,154,123943,2,0,P|431:90|403:49,1,100,0|0,3:0|3:0,0:0:0:0:
314,77,124680,2,0,L|320:24,2,50,0|8|8,0:0|0:0|3:0,0:0:0:0:
224,121,125416,6,0,L|245:237,1,100,4|0,3:2|3:0,0:0:0:0:
285,244,125968,1,8,0:0:0:0:
242,334,126336,2,0,L|185:352,1,50,8|0,0:0|3:0,0:0:0:0:
145,337,126704,1,8,0:0:0:0:
100,314,126888,2,0,P|65:266|61:213,1,100,0|0,3:0|3:0,0:0:0:0:
62,176,127440,1,8,0:0:0:0:
101,84,127808,2,0,L|63:51,2,50,8|8|8,0:0|3:0|0:0,0:0:0:0:
146,63,128361,6,0,P|228:56|333:114,1,200,4|0,3:2|3:0,0:0:0:0:
366,143,129281,2,0,P|391:130|416:117,2,50,8|0|0,0:0|3:0|0:0,0:0:0:0:
366,192,129833,2,0,P|348:244|306:278,1,100,4|8,3:2|0:0,0:0:0:0:
268,289,130385,1,8,3:0:0:0:
218,284,130569,2,0,P|165:245|147:195,1,100,0|0,3:0|3:0,0:0:0:0:
108,124,131305,6,0,P|166:110|213:107,1,100,4|0,3:2|0:0,0:0:0:0:
256,106,131858,2,0,P|303:72|325:33,2,100,2|2|0,0:0|0:0|0:0,0:0:0:0:
243,154,132778,2,0,P|247:211|257:256,1,100,2|0,0:0|0:0,0:0:0:0:
286,292,133330,2,0,L|280:346,2,50,2|0|8,0:0|3:0|0:0,0:0:0:0:
435,298,134250,6,0,P|451:242|451:185,1,100,4|0,3:2|0:0,0:0:0:0:
428,156,134802,2,0,P|441:91|477:54,2,100,0|2|0,3:0|0:0|3:0,0:0:0:0:
382,176,135723,2,0,P|336:170|265:152,1,100,2|8,0:0|0:0,0:0:0:0:
238,136,136275,1,8,0:0:0:0:
139,155,136643,2,0,L|130:92,2,50,8|4|8,0:0|3:0|0:0,0:0:0:0:
100,187,137195,6,0,P|98:262|151:323,1,150,4|0,3:2|3:0,0:0:0:0:
238,347,138115,2,0,P|296:333|336:330,1,100,2|0,3:2|3:0,0:0:0:0:
400,253,138851,2,0,P|352:234|295:205,1,100,2|0,3:2|3:0,0:0:0:0:
254,128,139588,2,0,P|263:99|269:69,2,50,8|8|4,0:0|3:0|3:0,0:0:0:0:
204,126,140140,6,0,P|145:139|108:165,1,100,4|2,3:2|0:0,0:0:0:0:
79,197,140692,2,0,P|51:199|21:195,2,50,2|0|2,0:0|0:0|0:0,0:0:0:0:
144,272,141428,1,2,0:0:0:0:
188,294,141612,2,0,P|258:302|304:292,1,100,4|4,3:2|3:0,0:0:0:0:
334,281,142164,1,8,0:0:0:0:
400,206,142532,2,0,L|383:136,1,50,8|8,0:0|3:0,0:0:0:0:
377,108,142900,1,8,0:0:0:0:
283,70,143269,1,4,3:2:0:0:
319,87,149158,6,0,P|352:114|382:166,1,100,4|8,3:1|0:0,0:0:0:0:
418,255,149894,1,4,3:1:0:0:
366,340,150262,1,8,0:0:0:0:
265,340,150631,1,4,3:1:0:0:
178,289,150999,1,8,0:0:0:0:
135,198,151367,1,8,0:0:0:0:
127,98,151735,1,4,3:0:0:0:
209,40,152103,6,0,P|238:43|267:49,1,50,4|2,3:1|0:0,0:0:0:0:
357,57,152655,1,2,0:0:0:0:
370,105,152839,2,0,P|368:168|348:215,1,100,0|0,3:0|3:0,0:0:0:0:
324,241,153391,1,6,0:0:0:0:
235,287,153759,6,0,L|251:345,2,50,8|8|0,0:0|0:0|3:0,0:0:0:0:
196,255,154312,2,0,L|201:189,1,50,8|4,0:0|3:0,0:0:0:0:
204,155,154680,1,12,3:0:0:0:
253,71,155048,5,12,0:1:0:0:
210,44,155232,2,0,P|178:37|149:37,1,50,2|8,3:2|0:0,0:0:0:0:
111,43,155600,1,0,3:0:0:0:
67,67,155784,1,10,0:0:0:0:
27,159,156152,5,8,0:0:0:0:
31,208,156336,2,0,P|67:254|110:266,1,100,2|2,3:2|3:2,0:0:0:0:
154,256,156888,1,8,0:0:0:0:
203,260,157072,1,2,3:2:0:0:
245,286,157256,2,0,P|288:297|307:296,1,50,8|6,0:0|3:2,0:0:0:0:
343,293,157624,1,12,0:0:0:0:
417,226,157993,5,12,0:1:0:0:
393,182,158177,2,0,P|363:169|336:165,1,50,2|8,3:2|0:0,0:0:0:0:
296,165,158545,1,0,3:0:0:0:
248,180,158729,1,10,0:0:0:0:
159,133,159097,5,8,0:0:0:0:
169,84,159281,2,0,P|209:58|280:46,1,100,2|2,3:2|3:2,0:0:0:0:
309,45,159833,2,0,P|344:57|375:61,1,50,8|2,0:0|3:2,0:0:0:0:
406,50,160201,2,0,P|426:81|443:99,1,50,8|2,0:0|3:2,0:0:0:0:
479,113,160569,1,12,0:0:0:0:
479,212,160937,5,12,0:1:0:0:
438,241,161121,2,0,P|410:250|376:254,1,50,2|8,3:2|0:0,0:0:0:0:
339,250,161489,1,0,3:0:0:0:
291,235,161673,1,10,0:0:0:0:
210,175,162042,5,8,0:0:0:0:
162,159,162226,2,0,P|104:191|77:234,1,100,2|2,3:2|3:2,0:0:0:0:
69,265,162778,1,8,0:0:0:0:
70,314,162962,1,2,3:2:0:0:
95,357,163146,2,0,P|126:360|152:356,1,50,4|12,3:0|0:0,0:0:0:0:
193,349,163514,1,12,0:0:0:0:
292,351,163882,5,12,0:1:0:0:
338,331,164066,2,0,P|363:316|387:302,1,50,2|8,3:2|0:0,0:0:0:0:
409,264,164434,1,0,3:0:0:0:
415,214,164618,1,10,0:0:0:0:
321,177,164986,5,8,0:0:0:0:
313,127,165170,2,0,P|276:75|238:45,1,100,2|4,3:2|3:0,0:0:0:0:
199,43,165723,1,12,0:0:0:0:
149,50,165907,1,8,0:0:0:0:
109,81,166091,2,0,P|89:100|71:124,1,50,2|8,3:0|0:0,0:0:0:0:
54,163,166459,1,8,0:0:0:0:
54,262,166827,6,0,P|115:268|158:266,1,100,12|8,0:1|0:0,0:0:0:0:
203,261,167379,1,0,3:0:0:0:
249,242,167563,1,8,0:0:0:0:
334,294,167931,1,8,0:0:0:0:
375,265,168115,1,0,3:0:0:0:
405,225,168299,2,0,P|410:168|402:109,1,100,8|8,0:0|0:0,0:0:0:0:
369,90,168851,1,0,3:0:0:0:
323,68,169035,1,8,0:0:0:0:
250,136,169404,1,8,0:0:0:0:
284,229,169772,6,0,P|290:290|281:348,1,100,12|8,0:1|0:0,0:0:0:0:
241,352,170324,1,0,3:0:0:0:
191,350,170508,1,8,0:0:0:0:
99,308,170876,1,8,0:0:0:0:
74,264,171060,1,0,3:0:0:0:
65,214,171244,2,0,P|117:201|169:181,1,100,8|8,0:0|0:0,0:0:0:0:
191,146,171796,1,0,3:0:0:0:
203,97,171980,1,8,0:0:0:0:
287,43,172348,1,8,0:0:0:0:
373,93,172716,6,0,P|399:79|421:65,2,50,4|8|4,3:1|3:0|3:0,0:0:0:0:
356,140,173269,2,0,P|354:198|378:240,1,100,12|0,0:0|3:0,0:0:0:0:
417,256,173821,1,8,0:0:0:0:
412,359,174189,5,8,0:0:0:0:
412,359,174373,1,8,0:0:0:0:
318,343,174741,1,8,0:0:0:0:
318,343,174925,1,8,0:0:0:0:
253,274,175293,1,8,0:0:0:0:
253,274,175477,2,0,P|233:235|185:194,1,100,12|8,0:0|0:0,0:0:0:0:
143,183,176029,1,8,0:0:0:0:
43,193,176397,2,0,P|44:149|47:122,1,50,4|4,3:0|3:0,0:0:0:0:
47,93,176766,1,10,3:0:0:0:
133,41,177134,5,8,0:0:0:0:
133,41,177318,1,8,0:0:0:0:
234,69,177686,1,8,0:0:0:0:
234,69,177870,1,8,0:0:0:0:
331,37,178238,1,8,0:0:0:0:
331,37,178422,2,0,P|339:86|340:141,1,100,12|8,0:0|0:0,0:0:0:0:
336,185,178974,1,8,0:0:0:0:
268,258,179342,2,0,P|315:308|357:326,1,100,8|8,3:0|0:0,0:0:0:0:
442,327,180078,6,0,L|454:271,1,50,4|2,3:1|0:0,0:0:0:0:
463,229,180446,1,8,0:0:0:0:
431,134,180815,2,0,L|373:114,1,50,0|2,3:0|0:0,0:0:0:0:
336,102,181183,1,8,0:0:0:0:
288,86,181367,2,0,P|232:97|181:88,1,100,2|2,0:0|0:0,0:0:0:0:
141,78,181919,1,8,0:0:0:0:
50,120,182287,2,0,L|74:179,1,50,0|2,3:0|3:2,0:0:0:0:
90,211,182655,1,8,0:0:0:0:
188,193,183023,5,4,3:1:0:0:
287,188,183391,1,8,0:0:0:0:
336,195,183575,2,0,P|399:221|429:250,1,100,4|8,3:2|3:0,0:0:0:0:
454,280,184127,1,8,0:0:0:0:
391,359,184496,5,8,0:0:0:0:
391,359,184680,1,8,0:0:0:0:
296,326,185048,2,0,P|283:345|258:360,2,50,0|2|0,0:0|0:0|0:0,0:0:0:0:
319,281,185600,1,2,0:0:0:0:
316,231,185784,1,2,0:0:0:0:
