osu file format v14

[General]
AudioFilename: audio.mp3
AudioLeadIn: 0
PreviewTime: 57778
Countdown: 0
SampleSet: Soft
StackLeniency: 0.7
Mode: 0
LetterboxInBreaks: 0
WidescreenStoryboard: 0

[Editor]
DistanceSpacing: 0.8
BeatDivisor: 3
GridSize: 32
TimelineZoom: 1

[Metadata]
Title:Omoi Nochi Hare
TitleUnicode:想いのち晴れ
Artist:Aoi (CV: Iguchi Yuka), Hinata (CV: Asumi Kana)
ArtistUnicode:あおい (CV: 井口裕香)、ひなた (CV: 阿澄佳奈)
Creator:CoLouRed GlaZeE
Version:Insane
Source:ヤマノススメ Next Summit
Tags:anime japanese j-pop jpop pop female voice yama no susume fourth season 4 op opening full size version Encouragement of Climb 雪村 あおい yukimura aoi 倉上 ひなた kuraue hinata
BeatmapID:4046673
BeatmapSetID:1953987

[Difficulty]
HPDrainRate:6
CircleSize:4
OverallDifficulty:8
ApproachRate:9
SliderMultiplier:1.8
SliderTickRate:1

[Events]
//Background and Video events
0,0,"bggggg.jpg",0,0
//Break Periods
//Storyboard Layer 0 (Background)
//Storyboard Layer 1 (Fail)
//Storyboard Layer 2 (Pass)
//Storyboard Layer 3 (Foreground)
//Storyboard Layer 4 (Overlay)
//Storyboard Sound Samples

[TimingPoints]
447,368.098159509202,4,2,1,70,1,0
3575,-100,4,2,1,60,0,0
5784,-100,4,2,1,70,0,0
6336,-100,4,2,1,70,0,1
6520,-100,4,2,1,70,0,0
12226,-100,4,2,1,60,0,0
22532,-100,4,2,1,70,0,0
22900,-100,4,2,1,60,0,0
24005,-100,4,2,1,70,0,0
25845,-100,4,2,1,60,0,0
26950,-100,4,2,1,70,0,0
34680,-100,4,2,1,60,0,0
35784,-100,4,2,1,70,0,0
37624,-100,4,2,1,60,0,0
38729,-100,4,2,1,70,0,0
44618,-100,4,2,1,60,0,0
51796,-100,4,2,1,70,0,0
55293,-100,4,2,1,60,0,0
57134,-100,4,2,1,70,0,0
57870,-90.9090909090909,4,2,1,80,0,1
69649,-90.9090909090909,4,2,1,70,0,1
77011,-90.9090909090909,4,2,1,70,0,0
82900,-100,4,2,1,70,0,1
83085,-100,4,2,1,70,0,0
87686,-100,4,2,1,60,0,0
88790,-100,4,2,1,70,0,0
90631,-100,4,2,1,60,0,0
91735,-100,4,2,1,70,0,0
97624,-100,4,2,1,60,0,0
103882,-100,4,2,1,70,0,0
108115,-100,4,2,1,60,0,0
109035,-100,4,2,1,40,0,0
109220,-100,4,2,1,60,0,0
110140,-100,4,2,1,70,0,0
110876,-90.9090909090909,4,2,1,80,0,1
122655,-100,4,2,1,70,0,0
125416,-90.9090909090909,4,2,1,80,0,1
128361,-100,4,2,1,70,0,0
131673,-100,4,2,1,60,0,0
137195,-100,4,2,1,70,0,0
140692,-100,4,2,1,60,0,0
141612,-100,4,2,1,70,0,0
143269,-125,4,2,1,50,0,0
148422,-125,4,2,1,60,0,0
149158,-100,4,2,1,70,0,0
151367,-125,4,2,1,60,0,0
151735,-166.666666666667,4,2,1,50,0,0
152103,-125,4,2,1,60,0,0
153759,-100,4,2,1,65,0,0
154680,-83.3333333333333,4,2,1,70,0,0
155048,-83.3333333333333,4,2,1,80,0,1
160845,-83.3333333333333,4,2,1,80,0,0
160937,-83.3333333333333,4,2,1,80,0,1
166735,-83.3333333333333,4,2,1,80,0,0
166827,-83.3333333333333,4,2,1,80,0,1
174189,-83.3333333333333,4,2,1,70,0,0
180078,-100,4,2,1,70,0,1
180262,-100,4,2,1,70,0,0

[Colours]
Combo1 : 239,188,211
Combo2 : 181,211,244
Combo3 : 163,209,202
Combo4 : 186,198,233
Combo5 : 233,237,175

[HitObjects]
191,291,447,5,8,0:0:0:0:
296,105,631,1,8,0:0:0:0:
289,204,815,2,0,B|235:192|203:150,1,90,2|0,0:0|0:0,0:0:0:0:
374,241,1183,5,8,0:0:0:0:
125,116,1367,1,8,0:0:0:0:
116,242,1551,2,0,L|152:205,2,45,2|2|0,0:0|0:0|0:0,0:0:0:0:
233,277,1919,5,8,0:0:0:0:
204,72,2103,1,8,0:0:0:0:
233,277,2287,1,2,0:0:0:0:
204,72,2471,2,0,B|271:87|320:46|320:46|351:74|366:110,1,180,12|4,0:0|3:0,0:0:0:0:
400,185,3023,2,0,L|364:232,2,45,8|8|0,0:0|0:0|0:0,0:0:0:0:
201,335,3391,6,0,L|97:347,1,90,8|2,0:0|0:0,0:0:0:0:
303,236,3943,6,0,L|199:248,1,90,0|2,0:0|0:0,0:0:0:0:
405,137,4496,6,0,L|301:149,1,90,0|2,0:0|0:0,0:0:0:0:
481,37,5048,5,0,0:0:0:0:
481,37,5232,2,0,L|287:59,1,180,2|4,0:0|3:0,0:0:0:0:
206,69,5784,1,8,0:0:0:0:
149,151,5968,1,8,0:0:0:0:
149,151,6060,1,8,0:0:0:0:
149,151,6152,2,0,B|202:174|241:162,1,90,8|4,3:0|3:1,0:0:0:0:
375,141,6520,5,2,0:0:0:0:
469,219,6704,2,0,B|427:244|377:240,1,90,8|2,0:0|0:0,0:0:0:0:
280,251,7072,1,0,3:0:0:0:
439,284,7256,1,2,0:0:0:0:
287,156,7440,1,8,0:0:0:0:
346,321,7624,2,0,B|288:352|217:346|217:346|176:302,1,180,2|2,0:0|0:0,0:0:0:0:
192,166,8177,5,8,0:0:0:0:
296,113,8361,1,2,0:0:0:0:
131,228,8545,1,0,3:0:0:0:
287,156,8729,1,2,3:2:0:0:
125,273,8913,1,8,0:0:0:0:
267,284,9097,5,2,0:0:0:0:
267,284,9281,2,0,B|286:243|278:180,1,90,0|0,3:0|0:0,0:0:0:0:
141,31,9649,2,0,B|149:90|187:113,1,90,8|0,0:0|0:0,0:0:0:0:
68,310,10017,2,0,B|120:310|149:232|149:232|200:221|196:161,1,180,0|8,3:0|0:0,0:0:0:0:
192,195,10753,5,0,3:0:0:0:
287,268,10937,1,2,0:0:0:0:
287,268,11029,1,2,0:0:0:0:
287,268,11121,2,0,B|342:265|366:225,1,90,8|2,0:0|0:0,0:0:0:0:
299,125,11489,1,0,3:0:0:0:
272,131,11581,1,2,0:0:0:0:
245,127,11673,1,2,0:0:0:0:
218,119,11766,1,2,0:0:0:0:
194,105,11858,1,8,0:0:0:0:
477,49,12226,6,0,B|427:61|397:104,1,90,4|2,3:2|0:0,0:0:0:0:
383,204,12594,2,0,B|429:194|463:147,1,90,0|2,3:0|0:0,0:0:0:0:
402,96,12962,1,8,0:0:0:0:
429,202,13146,1,2,0:0:0:0:
402,301,13330,1,0,3:0:0:0:
334,148,13514,2,0,B|298:177|314:266|314:266|290:248|249:242,1,180,2|2,3:2|3:2,0:0:0:0:
259,84,14066,6,0,B|221:129|220:184,1,90,0|2,3:0|0:0,0:0:0:0:
125,108,14434,2,0,B|135:168|126:207,1,90,8|2,0:0|3:2,0:0:0:0:
64,262,14802,1,0,3:0:0:0:
64,262,14986,1,2,3:2:0:0:
230,350,15170,6,0,B|172:351|145:322,1,90,4|0,3:2|0:0,0:0:0:0:
311,245,15539,2,0,B|369:244|396:273,1,90,0|0,3:0|0:0,0:0:0:0:
224,249,15907,1,8,0:0:0:0:
320,338,16091,1,8,3:0:0:0:
224,249,16275,2,0,L|180:225,2,45,8|8|4,0:0|0:0|3:0,0:0:0:0:
165,94,16643,5,12,0:0:0:0:
256,192,16735,12,0,17747,3:0:0:0:
347,94,18115,5,12,0:0:0:0:
256,192,18207,12,0,19220,3:0:0:0:
347,290,19588,5,12,0:0:0:0:
256,192,19680,12,0,20692,3:0:0:0:
165,290,21060,5,12,0:0:0:0:
256,192,21152,12,8,22164,0:0:0:0:
221,114,22532,5,8,0:0:0:0:
275,295,22716,1,8,0:0:0:0:
170,183,22900,2,0,B|122:147|138:45|202:32,1,180,2|2,0:0|0:0,0:0:0:0:
221,114,23453,1,0,3:0:0:0:
88,179,23637,2,0,B|95:130|139:110,1,90,8|0,0:0|0:0,0:0:0:0:
230,240,24005,6,0,B|179:256|155:290|155:290|142:345|89:346,1,180,4|8,3:1|0:0,0:0:0:0:
282,144,24557,2,0,B|332:128|357:94|357:94|370:39|423:38,1,180,4|0,3:2|3:0,0:0:0:0:
410,161,25109,2,0,B|379:196|329:212,1,90,8|0,0:0|0:0,0:0:0:0:
243,185,25477,5,8,0:0:0:0:
456,233,25661,1,8,0:0:0:0:
252,269,25845,2,0,B|205:328|205:328|145:326|90:278,1,180,2|2,0:0|0:0,0:0:0:0:
88,210,26397,1,4,3:0:0:0:
95,184,26489,1,4,3:0:0:0:
87,158,26581,2,0,B|33:161|7:203,1,90,4|0,3:0|0:0,0:0:0:0:
225,194,26950,5,4,3:1:0:0:
89,59,27134,1,0,3:0:0:0:
284,130,27318,1,8,0:0:0:0:
158,258,27502,2,0,B|133:194|152:125|152:125|210:81,1,180,4|0,3:2|3:0,0:0:0:0:
275,265,28054,1,8,0:0:0:0:
318,49,28238,5,2,0:0:0:0:
253,170,28422,1,0,3:0:0:0:
234,40,28606,1,2,3:2:0:0:
234,40,28790,1,8,0:0:0:0:
319,129,28974,5,2,0:0:0:0:
281,248,29158,1,0,3:0:0:0:
238,128,29342,1,2,3:2:0:0:
238,128,29526,1,8,0:0:0:0:
306,210,29710,5,2,0:0:0:0:
224,335,29894,2,0,B|169:356|133:342,2,90,0|4|8,3:0|3:0|0:0,0:0:0:0:
171,244,30446,2,0,B|176:199|153:147|153:147|189:164|234:139,1,180,4|0,3:1|3:0,0:0:0:0:
189,61,30999,1,8,0:0:0:0:
85,222,31183,5,2,0:0:0:0:
256,215,31367,1,0,3:0:0:0:
171,244,31551,1,2,3:2:0:0:
171,244,31735,1,8,0:0:0:0:
187,165,31919,5,2,0:0:0:0:
344,219,32103,1,0,3:0:0:0:
233,296,32287,1,2,3:2:0:0:
233,296,32471,1,8,0:0:0:0:
343,107,32655,5,2,0:0:0:0:
386,208,32839,1,4,3:1:0:0:
152,286,33207,1,8,0:0:0:0:
245,338,33391,1,4,3:2:0:0:
248,86,33759,1,0,3:0:0:0:
248,86,33943,2,0,B|270:163|224:210|121:186,1,180,8|8,0:0|0:0,0:0:0:0:
322,230,34496,6,0,B|385:215|411:187,1,90,8|2,0:0|0:0,0:0:0:0:
403,194,35048,1,2,0:0:0:0:
346,313,35232,1,4,3:0:0:0:
346,313,35416,2,0,B|289:308|247:274,1,90,8|0,0:0|0:0,0:0:0:0:
45,194,35784,6,0,B|129:177|180:190|180:190|179:217|191:238,1,180,4|8,3:1|0:0,0:0:0:0:
350,47,36336,2,0,B|351:76|347:103|347:103|287:130|285:221,1,180,4|0,3:2|3:0,0:0:0:0:
206,315,36888,2,0,B|156:319|116:277,1,90,8|0,0:0|0:0,0:0:0:0:
127,131,37256,5,8,0:0:0:0:
282,285,37440,1,8,0:0:0:0:
377,180,37624,1,2,0:0:0:0:
377,180,37993,2,0,B|320:166|280:172,1,90,4|0,3:0|3:0,0:0:0:0:
135,204,38361,2,0,B|192:218|232:212,1,90,8|0,0:0|0:0,0:0:0:0:
25,65,38729,5,4,3:1:0:0:
127,131,38913,1,0,3:0:0:0:
235,37,39097,1,8,0:0:0:0:
25,65,39281,2,0,B|-16:174|69:253,1,180,4|0,3:2|3:0,0:0:0:0:
73,247,39741,1,0,3:0:0:0:
96,260,39833,1,8,0:0:0:0:
180,294,40017,1,2,0:0:0:0:
353,225,40201,6,0,B|347:167|304:151,1,90,0|2,3:0|3:2,0:0:0:0:
264,231,40569,1,8,0:0:0:0:
418,282,40753,1,2,0:0:0:0:
223,311,40937,2,0,B|173:288|173:229,1,90,0|2,3:0|3:2,0:0:0:0:
309,323,41305,1,8,0:0:0:0:
140,351,41489,1,2,0:0:0:0:
71,186,41673,5,0,3:0:0:0:
1,260,41858,2,0,B|45:294|85:283,1,90,0|8,3:0|0:0,0:0:0:0:
174,242,42226,2,0,B|199:267|241:287|241:287|269:232|333:209,1,180,4|0,3:1|3:0,0:0:0:0:
444,215,42778,2,0,B|421:173|426:124,1,90,8|2,0:0|0:0,0:0:0:0:
316,121,43146,5,0,3:0:0:0:
502,153,43330,1,2,3:2:0:0:
291,243,43514,1,8,0:0:0:0:
444,215,43698,1,2,0:0:0:0:
271,338,43882,1,0,3:0:0:0:
445,328,44066,2,0,B|399:312|376:264,1,90,2|8,3:2|0:0,0:0:0:0:
351,166,44434,5,0,3:0:0:0:
337,143,44526,1,0,3:0:0:0:
334,116,44618,2,0,B|336:223|244:266,1,180,4|2,3:1|0:0,0:0:0:0:
243,173,45170,2,0,B|164:238|63:207,1,180,0|8,3:0|3:0,0:0:0:0:
24,149,45723,1,4,3:0:0:0:
24,149,45907,1,0,3:0:0:0:
32,308,46091,6,0,L|229:327,1,180,4|0,3:2|0:0,0:0:0:0:
211,325,46827,1,0,3:0:0:0:
344,258,47011,2,0,B|360:208|327:161,1,90,0|8,0:0|0:0,0:0:0:0:
273,225,47379,1,0,0:0:0:0:
281,302,47563,2,0,B|314:342|364:332,1,90,0|0,3:0|0:0,0:0:0:0:
415,283,47931,1,0,0:0:0:0:
273,225,48115,2,0,B|224:232|205:285|205:285|163:248|151:188,1,180,0|0,3:0|3:0,0:0:0:0:
214,166,48667,1,8,0:0:0:0:
92,71,48851,6,0,B|63:129|63:129|60:195|98:258,1,180,2|0,0:0|0:0,0:0:0:0:
141,143,49404,2,0,L|186:50,1,90,0|2,0:0|3:2,0:0:0:0:
180,61,49772,1,0,3:0:0:0:
205,191,49956,2,0,B|162:226|162:279,1,90,0|8,0:0|0:0,0:0:0:0:
299,326,50324,2,0,B|283:274|236:261,1,90,0|0,0:0|3:0,0:0:0:0:
132,341,50692,2,0,B|183:358|231:333,1,90
299,326,51060,1,0,3:0:0:0:
205,191,51244,1,8,0:0:0:0:
299,326,51428,2,0,L|342:350,2,45,8|0|8,3:0|3:0|0:0,0:0:0:0:
301,101,51796,6,0,B|372:75|435:135|417:202,1,180,4|0,3:1|3:0,0:0:0:0:
411,289,52348,1,8,0:0:0:0:
245,257,52532,2,0,B|303:253|338:203,1,90,0|8,3:0|0:0,0:0:0:0:
166,209,52900,1,0,3:0:0:0:
27,98,53085,2,0,B|70:107|83:163,1,90,8|0,0:0|3:0,0:0:0:0:
153,302,53453,5,8,0:0:0:0:
38,234,53637,1,0,3:0:0:0:
223,267,53821,1,8,0:0:0:0:
162,132,54005,1,0,3:0:0:0:
303,259,54189,1,8,0:0:0:0:
328,112,54373,1,8,3:0:0:0:
303,259,54557,1,8,0:0:0:0:
114,32,54741,6,0,B|155:61|155:61|209:18|297:36,1,180,12|2,0:0|0:0,0:0:0:0:
416,142,55293,1,2,0:0:0:0:
364,64,55477,1,0,0:0:0:0:
467,220,55661,1,2,0:0:0:0:
248,342,56029,1,0,0:0:0:0:
248,342,56213,1,2,0:0:0:0:
146,116,56581,1,0,0:0:0:0:
146,116,56766,2,0,B|215:76|286:114|264:206,1,180,2|4,0:0|3:0,0:0:0:0:
349,279,57318,5,4,3:0:0:0:
451,269,57502,2,0,L|475:323,2,45,8|8|8,0:0|0:0|3:0,0:0:0:0:
377,82,57870,5,4,3:1:0:0:
172,172,58054,2,0,B|221:198|274:182,1,99.0000030212403,2|8,0:0|0:0,0:0:0:0:
370,175,58422,1,0,0:0:0:0:
170,81,58606,1,2,3:2:0:0:
300,272,58790,6,0,B|261:244|268:184,1,99.0000030212403,0|8,0:0|0:0,0:0:0:0:
53,90,59158,2,0,B|99:124|90:197,1,99.0000030212403,2|0,0:0|3:0,0:0:0:0:
87,216,59434,1,0,3:0:0:0:
110,248,59526,1,2,3:2:0:0:
202,212,59710,5,8,0:0:0:0:
118,326,59894,1,2,0:0:0:0:
282,264,60078,1,0,3:0:0:0:
101,135,60262,1,2,3:2:0:0:
204,354,60446,2,0,B|258:358|312:338,1,99.0000030212403,12|0,0:0|0:0,0:0:0:0:
457,195,60815,5,4,3:1:0:0:
457,195,60999,2,0,B|400:185|347:224,1,99.0000030212403,2|8,0:0|0:0,0:0:0:0:
326,84,61367,1,0,0:0:0:0:
326,84,61551,2,0,B|271:92|214:54,1,99.0000030212403,2|0,3:2|0:0,0:0:0:0:
220,212,61919,1,8,0:0:0:0:
306,161,62103,5,2,0:0:0:0:
234,316,62287,1,0,3:0:0:0:
367,323,62471,2,0,B|403:318|425:301|425:301|435:255,1,99.0000030212403,2|8,0:0|0:0,0:0:0:0:
203,131,62839,2,0,B|166:135|145:153|145:153|135:199,1,99.0000030212403,2|0,0:0|3:0,0:0:0:0:
201,339,63207,1,2,3:2:0:0:
367,323,63391,1,8,0:0:0:0:
405,312,63483,1,8,0:0:0:0:
430,281,63575,1,8,3:0:0:0:
371,78,63759,5,4,3:1:0:0:
307,145,63943,1,2,0:0:0:0:
389,179,64127,1,8,0:0:0:0:
459,122,64312,1,0,0:0:0:0:
286,60,64496,1,2,3:2:0:0:
459,122,64680,2,0,B|503:170|477:229,1,99.0000030212403,0|8,0:0|0:0,0:0:0:0:
277,225,65048,5,2,0:0:0:0:
388,350,65232,2,0,B|413:300|387:236,1,99.0000030212403,0|2,3:0|0:0,0:0:0:0:
374,218,65508,1,0,3:0:0:0:
382,179,65600,1,8,0:0:0:0:
281,319,65784,1,2,0:0:0:0:
227,97,65968,5,0,3:0:0:0:
320,220,66152,1,2,3:2:0:0:
466,130,66336,2,0,B|433:81|375:84,1,99.0000030212403,12|0,0:0|0:0,0:0:0:0:
178,182,66704,5,4,3:1:0:0:
48,120,66888,2,0,L|154:98,1,99.0000030212403,2|8,0:0|0:0,0:0:0:0:
291,150,67256,1,0,0:0:0:0:
237,262,67440,1,2,3:2:0:0:
291,150,67624,2,0,L|397:128,1,99.0000030212403,0|8,0:0|0:0,0:0:0:0:
464,216,67993,5,2,0:0:0:0:
478,252,68085,1,0,0:0:0:0:
462,288,68177,1,4,3:0:0:0:
374,251,68361,1,8,3:0:0:0:
472,138,68545,5,8,0:0:0:0:
260,112,68729,1,4,3:2:0:0:
233,324,68913,1,2,3:0:0:0:
445,350,69097,1,8,3:0:0:0:
240,205,69281,5,8,0:0:0:0:
326,248,69465,1,4,3:0:0:0:
401,189,69649,2,0,B|431:159|443:109|443:109|358:87|357:35,1,198.000006042481,4|0,3:2|3:0,0:0:0:0:
359,50,70201,1,2,0:0:0:0:
289,121,70385,2,0,B|256:181|273:235,1,99.0000030212403,0|2,3:0|0:0,0:0:0:0:
150,351,70753,2,0,B|186:305|173:239,1,99.0000030212403,0|2,3:0|0:0,0:0:0:0:
129,180,71121,5,0,3:0:0:0:
44,147,71305,1,2,0:0:0:0:
125,103,71489,1,0,3:0:0:0:
217,85,71673,1,2,0:0:0:0:
211,178,71858,1,0,3:0:0:0:
168,92,72042,1,8,3:0:0:0:
267,76,72226,2,0,B|293:114|295:176,1,99.0000030212403,4|0,3:0|3:0,0:0:0:0:
342,328,72594,6,0,B|401:304|443:329|443:329|469:288|481:231,1,198.000006042481,4|0,3:2|3:0,0:0:0:0:
435,156,73146,1,2,0:0:0:0:
462,58,73330,2,0,B|420:87|364:82,1,99.0000030212403,0|2,3:0|0:0,0:0:0:0:
276,69,73698,1,0,3:0:0:0:
125,33,73882,2,0,B|177:50|191:109,1,99.0000030212403,2|0,0:0|3:0,0:0:0:0:
233,197,74250,5,8,0:0:0:0:
233,197,74434,1,8,0:0:0:0:
162,277,74618,1,0,3:0:0:0:
135,247,74710,1,8,0:0:0:0:
124,208,74802,1,8,0:0:0:0:
143,113,74986,1,8,3:0:0:0:
233,197,75170,2,0,L|288:208,2,49.5000015106202,8|8|4,0:0|0:0|3:0,0:0:0:0:
359,310,75539,6,0,B|416:322|456:284,1,99.0000030212403,4|0,3:1|0:0,0:0:0:0:
383,213,75907,1,8,0:0:0:0:
123,296,76091,2,0,B|170:346|252:343|252:343|294:274,1,198.000006042481,4|0,3:2|3:0,0:0:0:0:
298,201,76643,2,0,L|269:93,1,99.0000030212403,8|0,0:0|0:0,0:0:0:0:
411,130,77011,5,8,0:0:0:0:
411,130,77195,1,8,0:0:0:0:
208,70,77563,5,8,0:0:0:0:
310,114,77747,1,8,0:0:0:0:
39,38,78115,5,8,0:0:0:0:
123,146,78299,2,0,B|188:159|246:197|246:197|296:191|312:211,1,198.000006042481,12|8,0:0|0:0,0:0:0:0:
398,182,78851,2,0,B|452:173|497:166,1,99.0000030212403,8|0,0:0|0:0,0:0:0:0:
269,280,79220,2,0,B|215:289|170:296,1,99.0000030212403,8|0,0:0|3:0,0:0:0:0:
171,295,79588,1,10,3:0:0:0:
66,264,79956,5,8,0:0:0:0:
66,264,80140,1,8,0:0:0:0:
192,150,80508,5,8,0:0:0:0:
95,175,80692,1,8,0:0:0:0:
357,168,81060,5,8,0:0:0:0:
253,76,81244,2,0,B|228:63|202:75|202:75|179:24|114:14|77:59,1,198.000006042481,12|8,0:0|0:0,0:0:0:0:
55,161,81796,2,0,B|111:158|134:108,1,99.0000030212403,8|0,0:0|0:0,0:0:0:0:
273,190,82164,2,0,B|241:236|268:300,1,99.0000030212403,8|0,0:0|3:0,0:0:0:0:
278,320,82440,1,8,0:0:0:0:
304,349,82532,1,8,0:0:0:0:
37,323,82900,5,4,3:1:0:0:
129,303,83085,1,2,0:0:0:0:
154,205,83269,1,8,0:0:0:0:
58,189,83453,1,2,0:0:0:0:
148,253,83637,1,0,3:0:0:0:
215,152,83821,1,2,0:0:0:0:
104,106,84005,1,8,0:0:0:0:
236,247,84189,2,0,B|278:234|299:197|299:197|288:127|328:81,1,180,2|2,0:0|0:0,0:0:0:0:
392,42,84741,6,0,B|384:89|413:151,1,90,8|2,0:0|0:0,0:0:0:0:
374,224,85109,2,0,B|412:271|465:262,1,90,0|2,3:0|3:2,0:0:0:0:
305,314,85477,1,8,0:0:0:0:
287,293,85569,1,4,3:0:0:0:
261,284,85661,1,4,3:0:0:0:
234,282,85753,1,4,3:0:0:0:
208,291,85845,2,0,B|144:332|73:285|96:205,1,180,4|8,3:1|0:0,0:0:0:0:
234,70,86397,6,0,B|267:113|253:159,1,90,4|0,3:2|0:0,0:0:0:0:
384,136,86766,1,8,3:0:0:0:
368,236,86950,2,0,B|372:287|318:318,1,90,8|0,0:0|0:0,0:0:0:0:
473,339,87318,5,8,0:0:0:0:
283,236,87502,1,8,0:0:0:0:
283,236,87686,2,0,B|237:263|185:238,1,90,2|0,0:0|0:0,0:0:0:0:
171,233,87962,1,2,0:0:0:0:
151,214,88054,1,2,0:0:0:0:
214,105,88238,2,0,B|174:130|120:132,1,90,0|2,3:0|3:2,0:0:0:0:
392,297,88790,6,0,B|355:228|355:228|377:171|442:142,1,180,4|8,3:1|0:0,0:0:0:0:
120,87,89342,2,0,B|157:156|157:156|135:213|70:242,1,180,4|4,3:2|3:0,0:0:0:0:
182,284,89894,2,0,B|232:309|275:283,1,90,8|0,0:0|0:0,0:0:0:0:
253,168,90262,5,8,0:0:0:0:
430,226,90446,1,8,0:0:0:0:
430,226,90631,2,0,L|411:111,1,90,2|8,0:0|3:0,0:0:0:0:
435,119,90907,1,0,3:0:0:0:
455,101,90999,1,8,0:0:0:0:
356,62,91183,2,0,L|302:112,2,45,8|0|8,3:0|3:0|0:0,0:0:0:0:
344,344,91735,5,4,3:1:0:0:
311,221,91919,1,0,3:0:0:0:
421,297,92103,1,8,0:0:0:0:
443,156,92287,2,0,B|470:117|446:64,1,90,4|0,3:2|0:0,0:0:0:0:
366,34,92655,1,0,3:0:0:0:
366,34,92839,1,8,0:0:0:0:
320,178,93023,5,2,0:0:0:0:
153,81,93207,1,0,3:0:0:0:
320,178,93391,2,0,B|266:171|224:125,1,90,2|8,3:2|0:0,0:0:0:0:
407,251,93759,5,2,0:0:0:0:
313,93,93943,1,0,3:0:0:0:
407,251,94127,2,0,B|422:307|464:335,1,90,2|8,3:2|0:0,0:0:0:0:
411,156,94496,5,2,0:0:0:0:
336,290,94680,1,0,3:0:0:0:
336,290,94864,1,0,3:0:0:0:
172,165,95048,1,8,0:0:0:0:
172,165,95232,2,0,B|171:209|133:241|133:241|172:293|240:273,1,180,4|0,3:2|3:0,0:0:0:0:
81,148,95784,2,0,B|76:180|41:195|41:195|1:182,1,90,8|2,0:0|0:0,0:0:0:0:
189,70,96152,6,0,B|213:41|246:37|246:37|274:56,1,90,0|2,3:0|3:2,0:0:0:0:
360,142,96520,1,8,0:0:0:0:
314,266,96704,1,2,0:0:0:0:
94,181,96888,6,0,B|111:150|148:143|148:143|174:163,1,90,0|2,3:0|3:2,0:0:0:0:
234,291,97256,1,8,0:0:0:0:
92,351,97440,1,2,0:0:0:0:
20,238,97624,5,4,3:2:0:0:
150,77,97993,1,0,0:0:0:0:
150,77,98177,1,2,0:0:0:0:
306,246,98545,1,0,0:0:0:0:
306,246,98729,1,2,0:0:0:0:
306,246,98913,1,2,0:0:0:0:
255,322,99097,6,0,B|213:293|213:293|201:224|228:151,2,180,4|0|0,3:1|0:0|0:0,0:0:0:0:
330,343,100017,1,2,0:0:0:0:
407,335,100201,1,0,0:0:0:0:
453,271,100385,1,2,0:0:0:0:
461,194,100569,2,0,B|434:154|386:148,1,90,2|0,0:0|0:0,0:0:0:0:
310,168,100937,2,0,B|258:166|218:120,1,90,0|2,0:0|0:0,0:0:0:0:
453,271,101489,5,0,0:0:0:0:
453,271,101673,1,2,0:0:0:0:
393,323,101858,2,0,B|323:367|261:325|261:325|309:288,1,180,2|0,0:0|0:0,0:0:0:0:
354,256,102410,1,0,0:0:0:0:
257,235,102594,2,0,B|185:287|185:287|128:279|87:262,1,180,2|0,0:0|0:0,0:0:0:0:
162,207,103146,2,0,B|113:198|71:175,1,90,2|0,0:0|0:0,0:0:0:0:
144,125,103514,2,0,B|193:134|235:157,1,90,2|0,0:0|3:0,0:0:0:0:
312,219,103882,5,12,0:0:0:0:
407,314,104066,1,0,3:0:0:0:
334,186,104250,1,8,0:0:0:0:
368,45,104434,1,8,3:0:0:0:
368,45,104526,1,4,3:0:0:0:
368,45,104618,1,8,0:0:0:0:
485,173,104802,6,0,B|463:285|322:269,1,180,4|0,3:2|3:0,0:0:0:0:
203,160,105354,1,8,0:0:0:0:
279,265,105539,1,0,3:0:0:0:
69,142,105723,1,8,0:0:0:0:
158,263,105907,1,0,3:0:0:0:
69,268,106091,5,8,0:0:0:0:
203,160,106275,1,0,3:0:0:0:
358,191,106459,2,0,B|394:155|389:106,1,90,8|0,0:0|3:0,0:0:0:0:
240,277,106827,2,0,B|214:324|237:367,1,90,8|2,0:0|3:2,0:0:0:0:
262,364,107103,1,2,3:2:0:0:
288,365,107195,2,0,L|385:332,1,90,8|8,0:0|3:0,0:0:0:0:
431,262,107563,1,4,3:0:0:0:
227,108,107747,1,12,0:0:0:0:
299,79,108115,5,2,0:0:0:0:
285,170,108299,1,2,0:0:0:0:
183,176,108483,1,0,0:0:0:0:
160,79,108667,1,2,0:0:0:0:
158,272,109035,5,4,0:0:0:0:
132,157,109220,1,2,0:0:0:0:
134,367,109588,5,0,0:0:0:0:
111,241,109772,2,0,B|153:220|240:232|301:202,1,180,2|4,0:0|3:0,0:0:0:0:
294,181,110232,1,8,0:0:0:0:
318,168,110324,1,8,3:0:0:0:
344,172,110416,1,4,3:0:0:0:
361,192,110508,1,4,3:0:0:0:
365,218,110600,1,8,0:0:0:0:
358,244,110692,1,8,0:0:0:0:
340,264,110784,1,8,0:0:0:0:
315,274,110876,1,4,3:1:0:0:
475,330,111060,6,0,B|431:361|372:346,1,99.0000030212403,2|8,0:0|0:0,0:0:0:0:
444,196,111428,1,0,0:0:0:0:
472,46,111612,2,0,B|425:74|362:64,1,99.0000030212403,2|0,3:2|0:0,0:0:0:0:
239,159,111980,1,8,0:0:0:0:
252,37,112164,1,2,0:0:0:0:
239,159,112348,1,0,3:0:0:0:
104,222,112532,5,2,3:2:0:0:
135,245,112624,1,0,3:0:0:0:
172,232,112716,1,8,0:0:0:0:
114,139,112900,1,2,0:0:0:0:
51,291,113085,1,0,3:0:0:0:
203,320,113269,1,2,3:2:0:0:
353,290,113453,2,0,B|408:274|408:274|423:245|420:215,1,99.0000030212403,12|0,0:0|0:0,0:0:0:0:
352,152,113821,5,4,3:1:0:0:
477,155,114005,1,2,0:0:0:0:
218,188,114189,1,8,0:0:0:0:
342,196,114373,1,0,0:0:0:0:
147,110,114557,2,0,L|135:313,1,198.000006042481,2|8,3:2|0:0,0:0:0:0:
325,347,115109,6,0,B|348:298|319:238,1,99.0000030212403,2|0,0:0|3:0,0:0:0:0:
270,171,115477,1,2,3:2:0:0:
283,133,115569,1,0,3:0:0:0:
319,117,115661,1,8,0:0:0:0:
389,185,115845,1,2,0:0:0:0:
248,247,116029,1,0,3:0:0:0:
411,304,116213,1,2,3:2:0:0:
248,247,116397,2,0,L|145:263,1,99.0000030212403,12|0,0:0|0:0,0:0:0:0:
457,232,116766,6,0,L|478:134,1,99.0000030212403,4|2,3:1|0:0,0:0:0:0:
360,49,117134,1,8,0:0:0:0:
235,148,117318,1,0,0:0:0:0:
359,265,117502,2,0,L|380:167,1,99.0000030212403,2|0,3:2|3:0,0:0:0:0:
409,141,117778,1,0,3:0:0:0:
438,114,117870,1,8,0:0:0:0:
462,264,118054,2,0,B|464:300|436:347|436:347|388:365|317:363,1,198.000006042481,2|2,0:0|0:0,0:0:0:0:
225,313,118606,5,8,0:0:0:0:
194,155,118790,1,2,3:2:0:0:
163,179,118882,1,0,3:0:0:0:
157,218,118974,1,0,3:0:0:0:
130,62,119158,1,2,3:2:0:0:
254,232,119342,2,0,B|305:207|307:138,1,99.0000030212403,12|0,0:0|0:0,0:0:0:0:
373,70,119710,5,4,3:1:0:0:
472,146,119894,1,2,0:0:0:0:
449,267,120078,1,8,0:0:0:0:
331,283,120262,1,0,0:0:0:0:
417,298,120446,1,2,3:2:0:0:
298,313,120631,2,0,L|186:327,1,99.0000030212403,0|8,0:0|0:0,0:0:0:0:
379,176,120999,5,2,3:2:0:0:
339,180,121091,1,0,3:0:0:0:
300,185,121183,1,4,3:0:0:0:
450,53,121367,5,8,3:0:0:0:
353,63,121551,1,8,0:0:0:0:
432,245,121735,5,4,3:2:0:0:
203,195,121919,1,2,3:0:0:0:
334,103,122103,1,8,3:0:0:0:
113,200,122287,1,8,0:0:0:0:
193,329,122471,5,4,3:0:0:0:
90,345,122655,2,0,B|-10:301|20:199,1,180,4|0,3:2|0:0,0:0:0:0:
19,199,123207,1,0,3:0:0:0:
121,217,123391,2,0,B|173:234|212:237,1,90,8|0,0:0|0:0,0:0:0:0:
308,205,123759,1,0,3:0:0:0:
308,205,123943,2,0,B|338:208|360:178|360:178|426:244|488:197,2,180,0|0|0,3:0|3:0|0:0,0:0:0:0:
243,130,124864,2,0,B|196:143|134:144,1,90,8|8,0:0|3:0,0:0:0:0:
233,229,125232,5,8,0:0:0:0:
272,221,125324,1,8,0:0:0:0:
308,205,125416,2,0,B|353:183|353:183|389:118|373:27,1,198.000006042481,4|0,3:2|3:0,0:0:0:0:
171,63,125968,2,0,B|213:104|276:87,1,99.0000030212403,8|0,0:0|3:0,0:0:0:0:
118,179,126336,2,0,B|76:138|13:155,1,99.0000030212403,8|0,0:0|3:0,0:0:0:0:
201,323,126704,5,8,0:0:0:0:
90,271,126888,1,0,3:0:0:0:
309,272,127072,1,8,0:0:0:0:
190,215,127256,1,0,3:0:0:0:
402,153,127440,2,0,L|303:187,1,99.0000030212403,8|0,0:0|3:0,0:0:0:0:
485,253,127808,2,0,L|386:287,1,99.0000030212403,8|8,0:0|3:0,0:0:0:0:
252,330,128177,1,8,0:0:0:0:
138,238,128361,6,0,B|138:191|72:175|72:175|97:132|138:114,1,180,4|0,3:2|0:0,0:0:0:0:
224,247,128913,2,0,B|229:188|195:152,1,90,0|0,0:0|3:0,0:0:0:0:
272,95,129281,1,8,0:0:0:0:
354,138,129465,1,0,3:0:0:0:
405,219,129649,1,0,0:0:0:0:
290,304,129833,6,0,B|255:356|151:344|141:265,1,180,4|8,3:2|0:0,0:0:0:0:
224,247,130385,1,8,3:0:0:0:
436,339,130569,2,0,B|381:315|381:315|364:275,1,90,0|8,3:0|0:0,0:0:0:0:
426,153,130937,2,0,B|414:125|414:125|359:101,1,90,0|8,3:0|0:0,0:0:0:0:
323,95,131213,1,8,0:0:0:0:
296,70,131305,1,4,3:2:0:0:
134,240,131673,5,0,0:0:0:0:
134,240,131858,1,2,0:0:0:0:
206,297,132042,1,0,0:0:0:0:
206,297,132226,2,0,B|154:305|129:345|129:345|33:324,1,180,2|0,0:0|0:0,0:0:0:0:
124,154,132778,6,0,B|102:210|146:254,1,90,2|0,0:0|0:0,0:0:0:0:
213,192,133146,1,0,0:0:0:0:
303,219,133330,2,0,B|334:258|314:329,1,90,2|0,0:0|3:0,0:0:0:0:
481,333,133698,6,0,B|389:241|480:148,1,180,8|4,0:0|3:0,0:0:0:0:
229,278,134250,1,4,3:2:0:0:
280,59,134618,1,0,0:0:0:0:
280,59,134802,2,0,B|336:45|383:91|383:91|438:17,2,180,0|2|0,3:0|0:0|3:0,0:0:0:0:
200,97,135723,2,0,B|144:98|123:41,1,90,2|0,0:0|3:0,0:0:0:0:
304,147,136091,5,8,0:0:0:0:
156,196,136275,1,8,0:0:0:0:
279,263,136459,2,0,L|262:322,2,45,0|8|8,3:0|0:0|0:0,0:0:0:0:
394,205,136827,5,4,3:0:0:0:
456,325,137011,1,8,0:0:0:0:
394,205,137195,2,0,L|450:29,1,180,4|0,3:2|0:0,0:0:0:0:
359,42,137747,2,0,B|347:68|322:83|322:83|283:88,1,90,0|0,3:0|0:0,0:0:0:0:
196,83,138115,5,2,3:2:0:0:
122,34,138299,1,0,0:0:0:0:
211,52,138483,1,0,3:0:0:0:
240,140,138667,1,0,0:0:0:0:
245,156,138759,1,0,0:0:0:0:
250,172,138851,2,0,B|252:229|206:249,1,90,2|0,3:2|0:0,0:0:0:0:
345,246,139220,2,0,B|343:189|389:169,1,90,0|0,3:0|0:0,0:0:0:0:
421,318,139588,5,8,0:0:0:0:
400,335,139680,1,8,0:0:0:0:
375,345,139772,1,8,3:0:0:0:
348,351,139864,1,4,3:0:0:0:
321,353,139956,1,4,3:0:0:0:
294,353,140048,1,8,0:0:0:0:
267,350,140140,2,0,B|210:355|154:257|222:206,1,180,4|2,3:2|0:0,0:0:0:0:
326,115,140692,5,2,0:0:0:0:
222,141,140876,1,0,0:0:0:0:
137,76,141060,1,2,0:0:0:0:
368,195,141428,5,2,0:0:0:0:
195,322,141612,2,0,B|151:279|84:313|84:313|50:293|57:250,1,180,4|4,3:2|3:0,0:0:0:0:
67,146,142164,2,0,B|86:124|91:98|91:98|69:59,1,90,8|0,0:0|3:0,0:0:0:0:
56,46,142440,1,8,0:0:0:0:
31,34,142532,1,8,0:0:0:0:
166,127,142716,5,8,3:0:0:0:
234,35,142900,1,8,0:0:0:0:
276,125,143085,2,0,L|287:172,2,45,0|0|4,3:0|3:0|3:2,0:0:0:0:
417,249,143637,6,0,C|389:316|306:312,3,144,2|0|2|0,0:0|0:0|0:0|0:0,0:0:0:0:
199,353,145109,2,0,C|131:329|136:242,3,144,2|0|2|0,0:0|0:0|0:0|0:0,0:0:0:0:
134,127,146581,2,0,C|210:122|254:197,1,144,2|0,0:0|0:0,0:0:0:0:
343,109,147318,2,0,C|398:161|375:240,2,144,2|0|2,0:0|0:0|0:0,0:0:0:0:
106,262,148422,5,8,0:0:0:0:
188,277,148606,1,0,3:0:0:0:
271,293,148790,1,4,3:0:0:0:
28,139,149158,6,0,L|128:129,1,90,4|0,3:1|0:0,0:0:0:0:
244,216,149526,1,8,0:0:0:0:
244,216,149649,2,0,B|208:190|235:150,1,60,8|8,0:0|0:0,0:0:0:0:
253,90,149894,6,0,L|353:80,1,90,4|0,3:1|0:0,0:0:0:0:
417,212,150262,1,8,0:0:0:0:
417,212,150385,2,0,B|453:238|426:278,1,60,8|8,0:0|0:0,0:0:0:0:
408,338,150631,6,0,L|308:348,1,90,4|0,3:1|0:0,0:0:0:0:
138,306,150999,1,8,0:0:0:0:
138,306,151121,2,0,B|127:267|162:246,1,60,8|8,0:0|0:0,0:0:0:0:
227,221,151367,5,8,0:0:0:0:
227,221,151489,2,0,B|230:181|190:171,1,48,8|8,3:0|3:0,0:0:0:0:
149,136,151735,5,4,3:0:0:0:
149,136,151858,2,0,B|145:105|176:94,1,35.9999989013672,4|4,3:0|3:0,0:0:0:0:
206,45,152103,6,0,B|236:76|232:122,1,72,4|2,3:1|0:0,0:0:0:0:
376,216,152655,1,2,0:0:0:0:
329,290,152839,2,0,B|272:236|311:145,1,144,0|0,3:0|3:0,0:0:0:0:
306,156,153391,1,6,0:0:0:0:
33,178,153759,5,8,0:0:0:0:
88,249,153943,1,8,0:0:0:0:
144,152,154127,1,0,3:0:0:0:
161,147,154220,1,8,0:0:0:0:
178,142,154312,1,8,0:0:0:0:
115,281,154496,1,4,3:0:0:0:
37,97,154680,2,0,L|170:59,1,107.999996704102,12|0,3:0|0:0,0:0:0:0:
345,32,155048,5,12,0:1:0:0:
426,182,155232,2,0,B|461:237|414:309,1,107.999996704102,2|8,3:2|0:0,0:0:0:0:
326,229,155600,1,0,3:0:0:0:
121,205,155784,2,0,L|254:167,1,107.999996704102,10|0,0:0|3:0,0:0:0:0:
379,111,156152,5,8,0:0:0:0:
243,62,156336,1,2,3:2:0:0:
250,276,156520,5,8,0:0:0:0:
224,175,156704,1,2,3:2:0:0:
326,229,156888,1,8,0:0:0:0:
235,318,157072,1,2,3:2:0:0:
143,138,157256,1,8,0:0:0:0:
344,146,157440,1,6,3:2:0:0:
235,318,157624,2,0,B|170:338|130:274,1,107.999996704102,12|0,0:0|3:0,0:0:0:0:
121,260,157900,1,0,3:0:0:0:
122,227,157993,1,12,0:1:0:0:
214,60,158177,6,0,B|271:100|244:177,1,107.999996704102,2|8,3:2|0:0,0:0:0:0:
47,179,158545,1,0,3:0:0:0:
235,318,158729,2,0,B|297:330|343:280,1,107.999996704102,10|0,0:0|3:0,0:0:0:0:
155,141,159097,5,8,0:0:0:0:
266,237,159281,1,2,3:2:0:0:
104,281,159465,1,8,0:0:0:0:
266,237,159649,1,2,3:2:0:0:
232,52,159833,5,8,0:0:0:0:
155,141,160017,1,2,3:2:0:0:
286,155,160201,1,8,0:0:0:0:
232,52,160385,1,2,3:2:0:0:
154,243,160569,2,0,B|88:241|60:179,1,107.999996704102,12|8,0:0|0:0,0:0:0:0:
57,158,160845,1,8,0:0:0:0:
64,126,160937,1,12,0:1:0:0:
232,52,161121,6,0,B|261:34|261:34|310:33|333:62,1,107.999996704102,2|8,3:2|0:0,0:0:0:0:
404,200,161489,1,0,3:0:0:0:
250,248,161673,2,0,B|221:266|221:266|172:267|149:238,1,107.999996704102,10|0,0:0|3:0,0:0:0:0:
64,126,162042,1,8,0:0:0:0:
218,153,162226,2,0,L|329:137,1,107.999996704102,2|8,3:2|0:0,0:0:0:0:
338,304,162594,5,2,3:2:0:0:
444,243,162778,1,8,0:0:0:0:
338,304,162962,1,2,3:2:0:0:
307,294,163054,1,8,3:0:0:0:
276,284,163146,1,4,3:0:0:0:
153,245,163330,1,12,0:0:0:0:
264,95,163514,2,0,L|375:79,1,107.999996704102,12|0,0:0|0:0,0:0:0:0:
484,257,163882,5,12,0:1:0:0:
348,172,164066,2,0,B|399:225|356:292,2,107.999996704102,2|8|0,3:2|0:0|3:0,0:0:0:0:
197,135,164618,1,10,0:0:0:0:
291,62,164802,2,0,B|356:48|392:116,1,107.999996704102,0|8,3:0|0:0,0:0:0:0:
246,285,165170,2,0,B|181:299|145:231,1,107.999996704102,2|8,3:2|0:0,0:0:0:0:
406,219,165539,5,4,3:0:0:0:
386,245,165631,1,4,3:0:0:0:
367,271,165723,1,12,0:0:0:0:
454,340,165907,1,8,0:0:0:0:
467,124,166091,1,2,3:0:0:0:
250,104,166275,1,8,0:0:0:0:
238,320,166459,1,8,0:0:0:0:
334,164,166643,5,8,0:0:0:0:
314,190,166735,1,8,0:0:0:0:
295,216,166827,1,12,0:1:0:0:
250,104,167011,2,0,L|226:42,2,53.9999983520508,0|0|8,3:0|3:0|0:0,0:0:0:0:
177,221,167379,2,0,L|157:300,2,53.9999983520508,0|0|8,3:0|3:0|0:0,0:0:0:0:
105,96,167747,2,0,L|81:34,2,53.9999983520508,0|0|8,3:0|3:0|0:0,0:0:0:0:
11,177,168115,5,0,3:0:0:0:
24,206,168207,1,0,3:0:0:0:
38,235,168299,1,8,0:0:0:0:
106,321,168483,2,0,L|55:350,2,53.9999983520508,0|0|8,3:0|3:0|0:0,0:0:0:0:
251,297,168851,2,0,L|208:355,2,53.9999983520508,0|0|8,3:0|3:0|0:0,0:0:0:0:
380,257,169220,2,0,L|362:319,2,53.9999983520508,0|0|8,3:0|3:0|0:0,0:0:0:0:
459,154,169588,5,0,3:0:0:0:
445,124,169680,1,0,3:0:0:0:
431,94,169772,1,12,0:1:0:0:
319,143,169956,2,0,L|301:205,2,53.9999983520508,0|0|8,3:0|3:0|0:0,0:0:0:0:
191,70,170324,2,0,L|213:132,2,53.9999983520508,0|0|8,3:0|3:0|0:0,0:0:0:0:
65,103,170692,2,0,L|80:37,2,53.9999983520508,0|0|8,3:0|3:0|0:0,0:0:0:0:
104,217,171060,5,0,3:0:0:0:
76,234,171152,1,0,3:0:0:0:
48,251,171244,1,8,0:0:0:0:
151,330,171428,2,0,L|210:342,2,53.9999983520508,0|0|8,3:0|3:0|0:0,0:0:0:0:
306,282,171796,2,0,L|374:270,2,53.9999983520508,0|0|8,3:0|3:0|0:0,0:0:0:0:
406,164,172164,5,0,3:0:0:0:
437,157,172256,1,0,3:0:0:0:
462,136,172348,1,8,0:0:0:0:
459,103,172440,1,8,3:0:0:0:
430,87,172532,1,4,3:0:0:0:
398,80,172624,1,8,0:0:0:0:
365,80,172716,2,0,B|304:97|251:27,2,107.999996704102,4|8|4,3:1|3:0|3:0,0:0:0:0:
453,231,173269,6,0,B|373:263|343:296|343:296|342:246|260:230,1,215.999993408203,12|0,0:0|3:0,0:0:0:0:
59,153,173821,2,0,B|139:121|169:88|169:88|170:138|252:154,1,215.999993408203,8|8,0:0|0:0,0:0:0:0:
365,186,174373,1,8,0:0:0:0:
288,237,174741,5,8,0:0:0:0:
147,198,174925,1,8,0:0:0:0:
210,133,175293,5,8,0:0:0:0:
386,181,175477,2,0,B|411:261|372:321|372:321|352:343|283:311,1,215.999993408203,12|8,0:0|0:0,0:0:0:0:
305,320,176029,1,8,0:0:0:0:
202,282,176213,1,0,3:0:0:0:
171,269,176305,1,0,3:0:0:0:
138,273,176397,2,0,B|71:271|45:328,1,107.999996704102,4|4,3:0|3:0,0:0:0:0:
139,180,176766,2,0,B|206:182|232:125,1,107.999996704102,10|0,3:0|3:0,0:0:0:0:
47,42,177134,5,8,0:0:0:0:
164,82,177318,1,8,0:0:0:0:
88,48,177686,5,8,0:0:0:0:
229,132,177870,1,8,0:0:0:0:
132,55,178238,5,8,0:0:0:0:
261,221,178422,2,0,B|220:247|240:299|240:299|140:260|149:173,1,215.999993408203,12|8,0:0|0:0,0:0:0:0:
48,265,178974,2,0,B|24:203|41:125,1,107.999996704102,8|0,0:0|3:0,0:0:0:0:
59,136,179250,1,0,3:0:0:0:
90,145,179342,2,0,B|153:143|215:118,1,107.999996704102,8|4,3:0|3:0,0:0:0:0:
377,68,179710,1,8,0:0:0:0:
249,337,180078,5,4,3:1:0:0:
271,238,180262,1,2,0:0:0:0:
277,328,180446,1,8,0:0:0:0:
254,193,180631,1,2,0:0:0:0:
305,319,180815,1,0,3:0:0:0:
237,148,180999,1,2,0:0:0:0:
333,310,181183,1,8,0:0:0:0:
130,126,181367,2,0,B|181:112|218:58|218:58|316:102,1,180,2|2,0:0|0:0,0:0:0:0:
379,157,181919,5,8,0:0:0:0:
291,227,182103,1,2,0:0:0:0:
182,214,182287,1,0,3:0:0:0:
74,191,182471,1,2,3:2:0:0:
150,249,182655,1,8,0:0:0:0:
44,228,182839,1,2,0:0:0:0:
144,341,183023,6,0,B|204:347|226:302|226:302|339:326,1,180,4|8,3:1|0:0,0:0:0:0:
375,240,183575,2,0,B|391:182|344:136,1,90,4|0,3:2|0:0,0:0:0:0:
359,154,183943,1,8,3:0:0:0:
137,144,184127,2,0,B|121:202|168:248,1,90,8|0,0:0|0:0,0:0:0:0:
375,240,184496,5,8,0:0:0:0:
137,144,184680,1,8,0:0:0:0:
269,232,185048,5,0,0:0:0:0:
221,167,185232,1,2,0:0:0:0:
298,192,185416,1,0,0:0:0:0:
221,216,185600,1,2,0:0:0:0:
269,151,185784,1,2,0:0:0:0:
