osu file format v14

[General]
AudioFilename: audio.mp3
AudioLeadIn: 0
PreviewTime: 57778
Countdown: 0
SampleSet: Soft
StackLeniency: 0.7
Mode: 0
LetterboxInBreaks: 0
WidescreenStoryboard: 0

[Editor]
DistanceSpacing: 0.8
BeatDivisor: 4
GridSize: 32
TimelineZoom: 1

[Metadata]
Title:Omoi Nochi Hare
TitleUnicode:想いのち晴れ
Artist:Aoi (CV: Iguchi Yuka), Hinata (CV: Asumi Kana)
ArtistUnicode:あおい (CV: 井口裕香)、ひなた (CV: 阿澄佳奈)
Creator:CoLouRed GlaZeE
Version:Hard
Source:ヤマノススメ Next Summit
Tags:anime japanese j-pop jpop pop female voice yama no susume fourth season 4 op opening full size version Encouragement of Climb 雪村 あおい yukimura aoi 倉上 ひなた kuraue hinata
BeatmapID:4086282
BeatmapSetID:1953987

[Difficulty]
HPDrainRate:5
CircleSize:4
OverallDifficulty:7
ApproachRate:8
SliderMultiplier:1.4
SliderTickRate:1

[Events]
//Background and Video events
0,0,"bggggg.jpg",0,0
//Break Periods
2,143469,147672
//Storyboard Layer 0 (Background)
//Storyboard Layer 1 (Fail)
//Storyboard Layer 2 (Pass)
//Storyboard Layer 3 (Foreground)
//Storyboard Layer 4 (Overlay)
//Storyboard Sound Samples

[TimingPoints]
447,368.098159509202,4,2,1,70,1,0
3575,-100,4,2,1,60,0,0
5784,-100,4,2,1,70,0,0
6336,-100,4,2,1,70,0,1
6520,-100,4,2,1,70,0,0
12226,-100,4,2,1,60,0,0
22532,-100,4,2,1,70,0,0
22900,-100,4,2,1,60,0,0
24005,-100,4,2,1,70,0,0
25845,-100,4,2,1,60,0,0
26950,-100,4,2,1,70,0,0
34680,-100,4,2,1,60,0,0
35784,-100,4,2,1,70,0,0
37624,-100,4,2,1,60,0,0
38729,-100,4,2,1,70,0,0
44618,-100,4,2,1,60,0,0
51796,-100,4,2,1,70,0,0
55293,-100,4,2,1,60,0,0
57134,-100,4,2,1,70,0,0
57870,-90.9090909090909,4,2,1,80,0,1
69649,-90.9090909090909,4,2,1,70,0,1
77011,-90.9090909090909,4,2,1,70,0,0
82900,-100,4,2,1,70,0,1
83085,-100,4,2,1,70,0,0
87686,-100,4,2,1,60,0,0
88790,-100,4,2,1,70,0,0
90631,-100,4,2,1,60,0,0
91735,-100,4,2,1,70,0,0
97624,-100,4,2,1,60,0,0
103882,-100,4,2,1,70,0,0
108115,-100,4,2,1,60,0,0
109035,-100,4,2,1,40,0,0
109220,-100,4,2,1,60,0,0
110140,-100,4,2,1,70,0,0
110876,-90.9090909090909,4,2,1,80,0,1
122655,-100,4,2,1,70,0,0
125416,-90.9090909090909,4,2,1,80,0,1
128361,-100,4,2,1,70,0,0
131673,-100,4,2,1,60,0,0
137195,-100,4,2,1,70,0,0
140692,-100,4,2,1,60,0,0
141612,-100,4,2,1,70,0,0
143269,-125,4,2,1,50,0,0
148422,-125,4,2,1,60,0,0
149158,-100,4,2,1,70,0,0
151367,-125,4,2,1,60,0,0
151735,-166.666666666667,4,2,1,50,0,0
152103,-125,4,2,1,60,0,0
153759,-100,4,2,1,65,0,0
154680,-83.3333333333333,4,2,1,70,0,0
155048,-83.3333333333333,4,2,1,80,0,1
160845,-83.3333333333333,4,2,1,80,0,0
160937,-83.3333333333333,4,2,1,80,0,1
166735,-83.3333333333333,4,2,1,80,0,0
166827,-83.3333333333333,4,2,1,80,0,1
174189,-83.3333333333333,4,2,1,70,0,0
180078,-100,4,2,1,70,0,1
180262,-100,4,2,1,70,0,0

[Colours]
Combo1 : 239,188,211
Combo2 : 181,211,244
Combo3 : 163,209,202
Combo4 : 186,198,233
Combo5 : 233,237,175

[HitObjects]
37,264,447,5,8,0:0:0:0:
115,303,631,1,8,0:0:0:0:
193,263,815,2,0,P|200:222|183:184,1,70,2|0,0:0|0:0,0:0:0:0:
234,338,1183,2,0,L|309:308,1,70,8|8,0:0|0:0,0:0:0:0:
384,328,1551,2,0,P|385:304|381:279,2,35,2|2|0,0:0|0:0|0:0,0:0:0:0:
465,290,1919,5,8,0:0:0:0:
477,205,2103,1,8,0:0:0:0:
409,150,2287,1,2,0:0:0:0:
330,184,2471,2,0,P|294:214|202:194,1,140,12|4,0:0|3:0,0:0:0:0:
262,135,3023,2,0,L|271:91,2,35,8|8|0,0:0|0:0|0:0,0:0:0:0:
175,119,3391,6,0,P|137:117|91:108,1,70,8|2,0:0|0:0,0:0:0:0:
33,215,3943,6,0,P|67:220|102:222,1,70,0|2,0:0|0:0,0:0:0:0:
166,332,4496,6,0,P|128:330|82:321,1,70,0|2,0:0|0:0,0:0:0:0:
218,232,5048,5,0,0:0:0:0:
218,232,5232,2,0,P|288:243|360:247,1,140,2|4,0:0|3:0,0:0:0:0:
439,217,5784,1,8,0:0:0:0:
448,131,5968,2,0,P|448:107|454:86,2,35,8|8|8,0:0|0:0|3:0,0:0:0:0:
439,217,6336,6,0,L|458:296,1,70,4|2,3:1|0:0,0:0:0:0:
388,339,6704,2,0,L|318:287,1,70,8|2,0:0|0:0,0:0:0:0:
247,310,7072,1,0,3:0:0:0:
270,226,7256,1,2,0:0:0:0:
355,222,7440,1,8,0:0:0:0:
407,152,7624,2,0,P|434:90|384:39,1,140,2|2,0:0|0:0,0:0:0:0:
310,73,8177,6,0,P|266:82|221:79,1,70,8|2,0:0|0:0,0:0:0:0:
162,47,8545,1,0,3:0:0:0:
154,132,8729,1,2,3:2:0:0:
229,174,8913,2,0,P|275:183|307:185,1,70,8|2,0:0|0:0,0:0:0:0:
365,243,9281,6,0,P|413:206|495:224,2,140,0|8|0,3:0|0:0|3:0,0:0:0:0:
172,348,10385,1,8,0:0:0:0:
218,150,10753,2,0,P|209:95|135:67,1,140,0|8,3:0|0:0,0:0:0:0:
55,98,11305,1,2,0:0:0:0:
28,186,11489,1,0,3:0:0:0:
28,186,11581,1,2,0:0:0:0:
28,186,11673,2,0,L|36:233,2,35,2|2|8,0:0|0:0|0:0,0:0:0:0:
192,326,12226,6,0,P|232:338|262:351,1,70,4|2,3:2|0:0,0:0:0:0:
242,253,12594,2,0,P|211:226|167:194,1,70,0|2,3:0|0:0,0:0:0:0:
300,187,12962,2,0,P|335:194|372:207,2,70,8|2|0,0:0|0:0|3:0,0:0:0:0:
232,132,13514,2,0,P|263:85|357:87,1,140,2|2,3:2|3:2,0:0:0:0:
419,112,14066,5,0,3:0:0:0:
466,181,14250,1,2,0:0:0:0:
470,265,14434,2,0,P|433:296|393:304,1,70,8|2,0:0|3:2,0:0:0:0:
356,237,14802,2,0,P|317:220|282:219,1,70,0|2,3:0|3:2,0:0:0:0:
218,264,15170,5,4,3:2:0:0:
282,64,15539,1,0,3:0:0:0:
76,107,15907,1,8,0:0:0:0:
150,151,16091,1,8,3:0:0:0:
78,197,16275,2,0,L|50:226,2,35,8|8|4,0:0|0:0|3:0,0:0:0:0:
146,248,16643,1,12,0:0:0:0:
256,192,16827,12,12,19588,0:0:0:0:
256,192,19772,12,0,21796,3:0:0:0:
381,95,22532,5,8,0:0:0:0:
314,158,22716,1,8,0:0:0:0:
394,193,22900,2,0,P|424:233|394:313,1,140,2|2,0:0|0:0,0:0:0:0:
315,322,23453,2,0,P|312:276|315:235,1,70,0|8,3:0|0:0,0:0:0:0:
77,327,24005,6,0,P|68:269|84:170,1,140,4|8,3:1|0:0,0:0:0:0:
167,198,24557,2,0,P|220:184|250:106,1,140,4|0,3:2|3:0,0:0:0:0:
208,34,25109,2,0,P|163:30|129:34,1,70,8|0,0:0|0:0,0:0:0:0:
51,66,25477,5,8,0:0:0:0:
92,148,25661,1,8,0:0:0:0:
171,114,25845,2,0,P|224:117|324:133,1,140,2|2,0:0|0:0,0:0:0:0:
389,158,26397,2,0,P|400:138|402:110,2,35,4|4|4,3:0|3:0|3:0,0:0:0:0:
361,351,26950,5,4,3:1:0:0:
278,335,27134,1,0,3:0:0:0:
294,251,27318,1,8,0:0:0:0:
377,267,27502,2,0,P|441:246|460:178,1,140,4|0,3:2|3:0,0:0:0:0:
427,103,28054,6,0,P|382:91|348:87,1,70,8|2,0:0|0:0,0:0:0:0:
277,107,28422,1,0,3:0:0:0:
211,48,28606,2,0,P|200:77|191:127,1,70,2|8,3:2|0:0,0:0:0:0:
243,185,28974,1,2,0:0:0:0:
328,176,29158,1,0,3:0:0:0:
297,258,29342,2,0,P|249:266|219:269,1,70,2|8,3:2|0:0,0:0:0:0:
147,242,29710,5,2,0:0:0:0:
74,290,29894,2,0,P|79:342|85:371,2,70,0|4|8,3:0|3:0|0:0,0:0:0:0:
34,214,30446,2,0,P|43:155|123:127,1,140,4|0,3:1|3:0,0:0:0:0:
191,155,30999,6,0,P|235:162|276:158,1,70,8|2,0:0|0:0,0:0:0:0:
334,120,31367,1,0,3:0:0:0:
332,207,31551,2,0,L|327:292,1,70,2|8,3:2|0:0,0:0:0:0:
393,333,31919,1,2,0:0:0:0:
442,263,32103,1,0,3:0:0:0:
463,179,32287,2,0,P|443:143|411:126,1,70,2|8,3:2|0:0,0:0:0:0:
334,120,32655,5,2,0:0:0:0:
269,177,32839,2,0,P|230:197|194:197,1,70,4|4,3:1|3:0,0:0:0:0:
265,270,33207,1,8,0:0:0:0:
181,290,33391,2,0,P|120:280|68:210,1,140,4|0,3:2|3:0,0:0:0:0:
60,137,33943,2,0,P|99:97|194:92,1,140,8|8,0:0|0:0,0:0:0:0:
256,40,34496,5,8,0:0:0:0:
254,127,34680,2,0,P|255:194|258:290,1,140,2|2,0:0|0:0,0:0:0:0:
343,266,35232,2,0,P|389:262|428:252,1,70,4|8,3:0|0:0,0:0:0:0:
463,48,35784,6,0,P|426:75|323:65,1,140,4|8,3:1|0:0,0:0:0:0:
256,40,36336,2,0,P|210:63|185:156,1,140,4|0,3:2|3:0,0:0:0:0:
253,191,36888,1,8,0:0:0:0:
189,248,37072,2,0,L|138:267,2,35,0|0|8,0:0|0:0|0:0,0:0:0:0:
259,296,37440,6,0,P|306:306|334:310,1,70,8|2,0:0|0:0,0:0:0:0:
412,294,37808,2,0,P|421:319|418:340,2,35,8|8|4,3:0|3:0|3:0,0:0:0:0:
356,225,38177,1,0,3:0:0:0:
435,188,38361,1,8,0:0:0:0:
267,39,38729,5,4,3:1:0:0:
352,45,38913,1,0,3:0:0:0:
344,130,39097,1,8,0:0:0:0:
259,124,39281,2,0,P|197:107|116:109,1,140,4|0,3:2|3:0,0:0:0:0:
55,157,39833,6,0,P|48:194|52:234,1,70,8|2,0:0|0:0,0:0:0:0:
123,266,40201,1,0,3:0:0:0:
147,184,40385,2,0,P|193:186|233:194,1,70,2|8,3:2|0:0,0:0:0:0:
301,195,40753,1,2,0:0:0:0:
293,277,40937,1,0,3:0:0:0:
208,270,41121,2,0,P|205:306|203:351,1,70,2|8,3:2|0:0,0:0:0:0:
288,358,41489,5,2,0:0:0:0:
370,341,41673,2,0,P|405:351|448:342,2,70,0|0|8,3:0|3:0|0:0,0:0:0:0:
410,264,42226,2,0,L|414:119,1,140,4|0,3:1|3:0,0:0:0:0:
352,67,42778,6,0,P|330:102|332:146,1,70,8|2,0:0|0:0,0:0:0:0:
338,213,43146,1,0,3:0:0:0:
269,263,43330,2,0,P|233:268|193:255,1,70,2|8,3:2|0:0,0:0:0:0:
241,184,43698,1,2,0:0:0:0:
206,106,43882,1,0,3:0:0:0:
124,82,44066,2,0,P|81:83|38:106,1,70,2|8,3:2|0:0,0:0:0:0:
20,171,44434,5,0,3:0:0:0:
20,171,44526,1,0,3:0:0:0:
20,171,44618,2,0,P|10:229|73:278,1,140,4|2,3:1|0:0,0:0:0:0:
105,200,45170,2,0,P|157:180|242:200,1,140,0|8,3:0|3:0,0:0:0:0:
322,208,45723,1,4,3:0:0:0:
379,270,45907,1,0,3:0:0:0:
463,284,46091,6,0,P|495:226|474:140,1,140,4|0,3:2|0:0,0:0:0:0:
318,34,46827,1,0,3:0:0:0:
337,117,47011,2,0,P|314:156|263:167,1,70,0|8,0:0|0:0,0:0:0:0:
215,132,47379,2,0,P|211:188|279:251,1,140
346,229,47931,1,0,0:0:0:0:
321,310,48115,2,0,P|281:333|197:298,1,140,0|0,3:0|3:0,0:0:0:0:
131,352,48667,1,8,0:0:0:0:
60,306,48851,6,0,P|62:252|129:208,1,140,2|0,0:0|0:0,0:0:0:0:
214,219,49404,1,0,0:0:0:0:
186,135,49588,2,0,P|237:142|330:114,1,140,2|0,3:2|0:0,0:0:0:0:
271,47,50140,1,8,0:0:0:0:
356,30,50324,2,0,P|388:53|408:87,1,70,0|0,0:0|3:0,0:0:0:0:
416,162,50692,2,0,P|461:154|486:136,2,70,0|0|0,0:0|0:0|3:0,0:0:0:0:
353,218,51244,1,8,0:0:0:0:
411,282,51428,2,0,P|427:291|448:296,2,35,8|0|8,3:0|3:0|0:0,0:0:0:0:
340,338,51796,6,0,P|262:312|212:264,1,140,4|0,3:1|3:0,0:0:0:0:
260,196,52348,1,8,0:0:0:0:
243,112,52532,1,0,3:0:0:0:
179,56,52716,2,0,P|141:46|92:54,1,70,8|0,0:0|3:0,0:0:0:0:
135,130,53085,5,8,0:0:0:0:
71,188,53269,2,0,P|54:157|49:108,2,70,0|8|0,3:0|0:0|3:0,0:0:0:0:
138,239,53821,1,8,0:0:0:0:
200,182,54005,1,0,3:0:0:0:
223,262,54189,1,8,0:0:0:0:
302,236,54373,2,0,P|341:220|380:210,1,70,8|8,3:0|0:0,0:0:0:0:
454,173,54741,6,0,P|398:133|323:128,1,140,12|2,0:0|0:0,0:0:0:0:
250,133,55293,2,0,P|247:85|252:45,2,70,2|0|2,0:0|0:0|0:0,0:0:0:0:
293,339,56029,2,0,P|258:341|223:337,1,70,0|2,0:0|0:0,0:0:0:0:
42,224,56581,1,0,0:0:0:0:
42,224,56766,2,0,P|112:219|183:226,1,140,2|4,0:0|3:0,0:0:0:0:
256,266,57318,1,4,3:0:0:0:
337,235,57502,2,0,P|342:212|341:186,2,35,8|8|8,0:0|0:0|3:0,0:0:0:0:
388,304,57870,5,4,3:1:0:0:
449,238,58054,2,0,P|456:197|451:159,1,77.0000023498536,2|8,0:0|0:0,0:0:0:0:
370,132,58422,1,0,0:0:0:0:
371,42,58606,2,0,P|322:32|288:30,1,77.0000023498536,2|0,3:2|0:0,0:0:0:0:
211,50,58974,1,8,0:0:0:0:
263,119,59158,2,0,P|268:175|342:234,1,154.000004699707,2|2,0:0|0:0,0:0:0:0:
416,279,59710,6,0,P|386:314|345:329,1,77.0000023498536,8|2,0:0|0:0,0:0:0:0:
271,338,60078,1,0,3:0:0:0:
204,277,60262,1,2,3:2:0:0:
193,189,60446,1,12,0:0:0:0:
407,136,60815,5,4,3:1:0:0:
435,50,60999,2,0,P|398:52|346:61,1,77.0000023498536,2|8,0:0|0:0,0:0:0:0:
273,69,61367,1,0,0:0:0:0:
325,137,61551,2,0,P|337:176|333:218,1,77.0000023498536,2|0,3:2|0:0,0:0:0:0:
416,242,61919,1,8,0:0:0:0:
352,297,62103,2,0,P|302:312|194:288,1,154.000004699707,2|2,0:0|0:0,0:0:0:0:
126,337,62655,6,0,P|107:296|101:243,1,77.0000023498536,8|2,0:0|0:0,0:0:0:0:
151,193,63023,1,0,3:0:0:0:
74,152,63207,1,2,3:2:0:0:
148,106,63391,2,0,P|147:80|141:61,2,38.5000011749268,8|8|8,0:0|0:0|3:0,0:0:0:0:
229,140,63759,5,4,3:1:0:0:
316,133,63943,2,0,P|361:118|394:84,1,77.0000023498536,2|8,0:0|0:0,0:0:0:0:
387,198,64312,1,0,0:0:0:0:
318,256,64496,2,0,P|275:245|240:218,1,77.0000023498536,2|0,3:2|0:0,0:0:0:0:
229,140,64864,1,8,0:0:0:0:
154,94,65048,2,0,P|104:137|96:235,1,154.000004699707,2|2,0:0|0:0,0:0:0:0:
69,314,65600,6,0,P|113:306|158:306,1,77.0000023498536,8|2,0:0|0:0,0:0:0:0:
224,344,65968,1,0,3:0:0:0:
304,309,66152,1,2,3:2:0:0:
368,248,66336,1,12,0:0:0:0:
275,47,66704,5,4,3:1:0:0:
188,55,66888,2,0,P|133:65|101:66,1,77.0000023498536,2|8,0:0|0:0,0:0:0:0:
32,33,67256,1,0,0:0:0:0:
32,121,67440,2,0,P|88:141|118:145,1,77.0000023498536,2|0,3:2|0:0,0:0:0:0:
188,166,67808,1,8,0:0:0:0:
263,125,67993,2,0,P|284:92|327:72,1,77.0000023498536,2|4,0:0|3:0,0:0:0:0:
376,139,68361,5,8,3:0:0:0:
397,223,68545,1,8,0:0:0:0:
392,308,68729,1,4,3:2:0:0:
313,264,68913,1,2,3:0:0:0:
278,344,69097,2,0,P|237:350|186:347,1,77.0000023498536,8|8,3:0|0:0,0:0:0:0:
117,341,69465,1,4,3:0:0:0:
172,269,69649,6,0,L|134:111,1,154.000004699707,4|0,3:2|3:0,0:0:0:0:
216,129,70201,1,2,0:0:0:0:
283,174,70385,2,0,P|312:195|355:199,1,77.0000023498536,0|2,3:0|0:0,0:0:0:0:
432,192,70753,1,0,3:0:0:0:
457,117,70937,2,0,P|462:78|487:41,2,77.0000023498536,2|0|2,0:0|3:0|0:0,0:0:0:0:
432,192,71489,1,0,3:0:0:0:
459,268,71673,2,0,P|481:298|492:344,2,77.0000023498536,2|0|8,0:0|3:0|3:0,0:0:0:0:
432,192,72226,1,4,3:0:0:0:
364,151,72410,5,0,3:0:0:0:
364,151,72502,1,0,3:0:0:0:
364,151,72594,2,0,P|327:189|224:173,1,154.000004699707,4|0,3:2|3:0,0:0:0:0:
209,105,73146,1,2,0:0:0:0:
147,56,73330,2,0,P|112:38|52:38,1,77.0000023498536,0|2,3:0|0:0,0:0:0:0:
26,97,73698,1,0,3:0:0:0:
100,125,73882,2,0,P|117:172|115:213,1,77.0000023498536,2|0,0:0|3:0,0:0:0:0:
50,239,74250,5,8,0:0:0:0:
101,310,74434,1,8,0:0:0:0:
186,297,74618,2,0,L|215:340,2,38.5000011749268,0|8|8,3:0|0:0|0:0,0:0:0:0:
225,218,74986,1,8,3:0:0:0:
250,132,75170,2,0,L|221:89,2,38.5000011749268,8|8|4,0:0|0:0|3:0,0:0:0:0:
333,160,75539,6,0,P|368:137|392:105,2,77.0000023498536,4|0|8,3:1|0:0|0:0,0:0:0:0:
302,243,76091,2,0,P|332:287|436:317,1,154.000004699707,4|0,3:2|3:0,0:0:0:0:
478,248,76643,2,0,P|485:193|468:90,1,154.000004699707,8|8,0:0|0:0,0:0:0:0:
402,41,77195,1,8,0:0:0:0:
219,78,77563,1,8,0:0:0:0:
219,78,77747,1,8,0:0:0:0:
74,191,78115,1,8,0:0:0:0:
74,191,78299,2,0,P|109:235|207:248,1,154.000004699707,12|8,0:0|0:0,0:0:0:0:
278,215,78851,6,0,P|306:253|314:316,1,77.0000023498536,8|0,0:0|3:0,0:0:0:0:
386,328,79220,2,0,P|400:284|401:235,1,77.0000023498536,8|0,0:0|3:0,0:0:0:0:
410,168,79588,1,10,3:0:0:0:
228,109,79956,5,8,0:0:0:0:
228,109,80140,1,8,0:0:0:0:
73,232,80508,1,8,0:0:0:0:
73,232,80692,1,8,0:0:0:0:
232,340,81060,1,8,0:0:0:0:
232,340,81244,2,0,P|318:345|356:280,1,154.000004699707,12|8,0:0|0:0,0:0:0:0:
390,211,81796,6,0,P|328:222|232:195,1,154.000004699707,8|8,0:0|0:0,0:0:0:0:
170,147,82348,1,0,3:0:0:0:
187,132,82440,1,8,0:0:0:0:
205,117,82532,1,8,0:0:0:0:
392,40,82900,6,0,L|411:108,1,70,4|2,3:1|0:0,0:0:0:0:
329,122,83269,2,0,L|316:208,1,70,8|2,0:0|0:0,0:0:0:0:
401,213,83637,1,0,3:0:0:0:
399,296,83821,1,2,0:0:0:0:
315,308,84005,1,8,0:0:0:0:
245,257,84189,2,0,P|208:234|109:266,1,140,2|2,0:0|0:0,0:0:0:0:
47,300,84741,6,0,P|34:265|27:221,1,70,8|2,0:0|0:0,0:0:0:0:
33,146,85109,1,0,3:0:0:0:
117,161,85293,1,2,3:2:0:0:
91,78,85477,2,0,L|66:43,2,35,8|4|4,0:0|3:0|3:0,0:0:0:0:
170,39,85845,6,0,P|207:95|218:183,1,140,4|8,3:1|0:0,0:0:0:0:
255,245,86397,2,0,P|288:223|317:179,1,70,4|0,3:2|0:0,0:0:0:0:
295,113,86766,1,8,3:0:0:0:
376,139,86950,2,0,P|411:145|450:154,1,70,8|0,0:0|0:0,0:0:0:0:
477,234,87318,5,8,0:0:0:0:
436,320,87502,1,8,0:0:0:0:
391,246,87686,2,0,P|354:283|259:285,1,140,2|2,0:0|0:0,0:0:0:0:
209,233,88238,2,0,P|199:213|197:189,2,35,0|0|2,3:0|0:0|3:2,0:0:0:0:
27,294,88790,6,0,P|44:339|44:369,2,70,4|8|8,3:1|3:0|0:0,0:0:0:0:
29,200,89342,2,0,P|42:148|120:105,1,140,4|4,3:2|3:0,0:0:0:0:
183,56,89894,2,0,P|217:78|249:77,1,70,8|0,0:0|0:0,0:0:0:0:
337,51,90262,5,8,0:0:0:0:
308,146,90446,1,8,0:0:0:0:
219,149,90631,1,2,0:0:0:0:
242,232,90815,2,0,L|235:280,2,35,8|0|8,3:0|3:0|0:0,0:0:0:0:
160,223,91183,2,0,P|125:221|80:212,1,70,8|8,3:0|0:0,0:0:0:0:
269,351,91735,5,4,3:1:0:0:
320,280,91919,1,0,3:0:0:0:
373,349,92103,1,8,0:0:0:0:
421,277,92287,2,0,P|445:224|423:138,1,140,4|0,3:2|3:0,0:0:0:0:
363,88,92839,6,0,P|336:126|326:159,1,70,8|2,0:0|0:0,0:0:0:0:
254,193,93207,1,0,3:0:0:0:
245,107,93391,2,0,P|211:117|174:141,1,70,2|8,3:2|0:0,0:0:0:0:
105,177,93759,1,2,0:0:0:0:
113,90,93943,1,0,3:0:0:0:
35,129,94127,2,0,P|23:161|17:200,1,70,2|8,3:2|0:0,0:0:0:0:
61,272,94496,5,2,0:0:0:0:
141,302,94680,2,0,P|155:336|153:369,2,70,0|0|8,3:0|3:0|0:0,0:0:0:0:
123,210,95232,2,0,P|177:231|271:225,1,140,4|0,3:2|3:0,0:0:0:0:
300,157,95784,6,0,L|282:72,1,70,8|2,0:0|0:0,0:0:0:0:
354,37,96152,1,0,3:0:0:0:
425,83,96336,2,0,L|408:169,1,70,2|8,3:2|0:0,0:0:0:0:
377,228,96704,1,2,0:0:0:0:
466,219,96888,1,0,3:0:0:0:
475,306,97072,2,0,P|454:335|409:353,1,70,2|8,3:2|0:0,0:0:0:0:
341,350,97440,5,2,0:0:0:0:
281,287,97624,2,0,P|221:264|136:308,1,140,4|0,3:2|0:0,0:0:0:0:
218,344,98177,2,0,P|250:301|229:204,1,140,2|0,0:0|0:0,0:0:0:0:
191,152,98729,1,2,0:0:0:0:
113,130,98913,1,2,0:0:0:0:
37,176,99097,6,0,L|58:321,1,140,4|0,3:1|0:0,0:0:0:0:
239,285,99833,2,0,L|227:354,2,70,0|2|0,0:0|0:0|0:0,0:0:0:0:
322,297,100385,2,0,P|304:215|294:150,1,140,2|0,0:0|0:0,0:0:0:0:
351,104,100937,1,0,0:0:0:0:
273,73,101121,2,0,P|229:108|211:191,1,140,2|0,0:0|0:0,0:0:0:0:
426,226,101858,6,0,P|381:287|313:294,1,140,2|0,0:0|0:0,0:0:0:0:
246,278,102410,1,0,0:0:0:0:
186,332,102594,2,0,P|140:315|118:229,1,140,2|0,0:0|0:0,0:0:0:0:
129,155,103146,2,0,P|127:118|116:80,1,70,2|0,0:0|0:0,0:0:0:0:
202,73,103514,5,2,0:0:0:0:
261,133,103698,1,0,3:0:0:0:
337,173,103882,2,0,P|380:160|418:148,1,70,12|0,0:0|3:0,0:0:0:0:
474,202,104250,1,8,0:0:0:0:
491,117,104434,2,0,L|500:70,2,35,8|4|8,3:0|3:0|0:0,0:0:0:0:
414,68,104802,6,0,P|346:53|247:44,1,140,4|0,3:2|3:0,0:0:0:0:
192,34,105354,1,8,0:0:0:0:
220,116,105539,1,0,3:0:0:0:
304,143,105723,2,0,P|345:138|383:135,2,70,8|0|8,0:0|3:0|0:0,0:0:0:0:
238,199,106275,6,0,P|220:228|183:247,1,70,0|8,3:0|0:0,0:0:0:0:
104,239,106643,2,0,P|68:219|50:190,1,70,0|8,3:0|0:0,0:0:0:0:
47,111,107011,2,0,P|37:93|26:83,2,35,2|2|8,3:2|3:2|0:0,0:0:0:0:
128,80,107379,1,8,3:0:0:0:
166,157,107563,1,4,3:0:0:0:
225,95,107747,1,12,0:0:0:0:
360,237,108115,6,0,P|404:237|431:230,1,70,2|2,0:0|0:0,0:0:0:0:
417,156,108483,2,0,P|373:156|346:163,1,70,0|2,0:0|0:0,0:0:0:0:
302,334,109035,1,4,0:0:0:0:
302,334,109220,2,0,P|233:348|163:346,1,140,2|0,0:0|0:0,0:0:0:0:
93,317,109772,1,2,0:0:0:0:
39,151,110140,2,0,L|28:109,3,35,4|8|8|4,3:0|0:0|3:0|3:0,0:0:0:0:
71,104,110508,2,0,L|60:62,3,35,4|8|8|8,3:0|0:0|0:0|0:0,0:0:0:0:
103,57,110876,5,4,3:1:0:0:
185,32,111060,2,0,P|195:71|192:110,1,77.0000023498536,2|8,0:0|0:0,0:0:0:0:
144,178,111428,1,0,0:0:0:0:
229,188,111612,2,0,P|265:165|285:134,1,77.0000023498536,2|0,3:2|0:0,0:0:0:0:
271,51,111980,1,8,0:0:0:0:
357,33,112164,2,0,P|400:72|388:167,1,154.000004699707,2|2,0:0|0:0,0:0:0:0:
449,227,112716,6,0,P|406:248|367:248,1,77.0000023498536,8|2,0:0|0:0,0:0:0:0:
307,197,113085,1,0,3:0:0:0:
255,268,113269,1,2,3:2:0:0:
241,355,113453,1,12,0:0:0:0:
33,347,113821,5,4,3:1:0:0:
76,274,114005,2,0,L|48:199,1,77.0000023498536,2|8,0:0|0:0,0:0:0:0:
32,118,114373,1,0,0:0:0:0:
115,139,114557,2,0,P|150:156|195:157,1,77.0000023498536,2|0,3:2|0:0,0:0:0:0:
258,109,114925,1,8,0:0:0:0:
272,192,115109,2,0,P|313:203|429:221,1,154.000004699707,2|2,0:0|0:0,0:0:0:0:
483,157,115661,6,0,P|468:122|441:92,1,77.0000023498536,8|2,0:0|0:0,0:0:0:0:
360,114,116029,1,0,3:0:0:0:
323,35,116213,1,2,3:2:0:0:
250,81,116397,1,12,0:0:0:0:
226,254,116766,5,4,3:1:0:0:
301,295,116950,2,0,P|335:276|359:234,1,77.0000023498536,2|8,0:0|0:0,0:0:0:0:
423,298,117318,1,0,0:0:0:0:
481,233,117502,2,0,P|460:200|429:169,1,77.0000023498536,2|0,3:2|0:0,0:0:0:0:
357,137,117870,1,8,0:0:0:0:
280,178,118054,2,0,P|259:128|275:33,1,154.000004699707,2|2,0:0|0:0,0:0:0:0:
185,61,118606,6,0,P|153:84|93:80,1,77.0000023498536,8|2,0:0|0:0,0:0:0:0:
29,63,118974,1,0,3:0:0:0:
35,152,119158,1,2,3:2:0:0:
57,239,119342,1,12,0:0:0:0:
280,178,119710,5,4,3:1:0:0:
314,259,119894,2,0,L|278:329,1,77.0000023498536,2|8,0:0|0:0,0:0:0:0:
196,352,120262,1,0,0:0:0:0:
209,267,120446,2,0,L|180:193,1,77.0000023498536,2|0,3:2|0:0,0:0:0:0:
151,114,120815,1,8,0:0:0:0:
208,51,120999,2,0,P|237:74|281:95,1,77.0000023498536,2|4,3:2|3:0,0:0:0:0:
339,34,121367,5,8,3:0:0:0:
380,110,121551,1,8,0:0:0:0:
334,185,121735,1,4,3:2:0:0:
412,221,121919,1,2,3:0:0:0:
459,145,122103,2,0,P|483:183|494:224,1,77.0000023498536,8|8,3:0|0:0,0:0:0:0:
484,298,122471,5,4,3:0:0:0:
484,298,122563,1,0,3:0:0:0:
484,298,122655,2,0,P|425:322|329:299,1,140,4|0,3:2|0:0,0:0:0:0:
280,353,123207,1,0,3:0:0:0:
276,268,123391,2,0,P|278:224|285:186,2,70,8|0|0,0:0|0:0|3:0,0:0:0:0:
203,315,123943,2,0,P|119:322|58:337,2,140,0|0|0,3:0|3:0|0:0,0:0:0:0:
192,232,124864,2,0,L|168:149,1,70,8|8,0:0|3:0,0:0:0:0:
230,104,125232,5,8,0:0:0:0:
230,104,125324,1,8,0:0:0:0:
230,104,125416,2,0,P|273:63|362:71,1,154.000004699707,4|0,3:2|3:0,0:0:0:0:
446,94,125968,2,0,P|417:133|374:158,1,77.0000023498536,8|0,0:0|3:0,0:0:0:0:
286,184,126336,2,0,P|333:213|372:223,1,77.0000023498536,8|0,0:0|3:0,0:0:0:0:
438,250,126704,5,8,0:0:0:0:
372,306,126888,2,0,P|330:314|291:316,1,77.0000023498536,0|8,3:0|0:0,0:0:0:0:
210,304,127256,1,0,3:0:0:0:
169,227,127440,2,0,P|194:191|205:152,1,77.0000023498536,8|0,0:0|3:0,0:0:0:0:
152,89,127808,2,0,P|105:83|67:90,1,77.0000023498536,8|8,0:0|3:0,0:0:0:0:
32,162,128177,1,8,0:0:0:0:
32,246,128361,6,0,P|82:280|179:272,1,140,4|0,3:2|0:0,0:0:0:0:
336,346,129097,1,0,3:0:0:0:
330,264,129281,2,0,P|319:230|311:184,2,70,8|0|0,0:0|3:0|0:0,0:0:0:0:
405,307,129833,2,0,P|420:261|436:163,1,140,4|8,3:2|0:0,0:0:0:0:
408,91,130385,1,8,3:0:0:0:
342,39,130569,6,0,L|295:97,1,70,0|8,3:0|0:0,0:0:0:0:
275,181,130937,2,0,L|203:152,1,70,0|8,3:0|0:0,0:0:0:0:
191,145,131213,1,8,0:0:0:0:
171,136,131305,1,4,3:2:0:0:
84,284,131673,6,0,P|50:291|15:291,2,70,0|2|0,0:0|0:0|0:0,0:0:0:0:
147,240,132226,2,0,P|166:285|245:321,1,140,2|0,0:0|0:0,0:0:0:0:
317,351,132778,2,0,P|368:345|409:270,1,140,2|0,0:0|0:0,0:0:0:0:
439,202,133330,2,0,P|406:199|362:200,1,70,2|0,0:0|3:0,0:0:0:0:
295,182,133698,2,0,P|242:201|164:146,1,140,8|4,0:0|3:0,0:0:0:0:
241,122,134250,1,4,3:2:0:0:
59,48,134618,5,0,0:0:0:0:
33,122,134802,2,0,P|23:179|39:265,2,140,0|2|0,3:0|0:0|3:0,0:0:0:0:
109,109,135723,2,0,P|149:91|192:83,1,70,2|0,0:0|3:0,0:0:0:0:
255,64,136091,1,8,0:0:0:0:
338,64,136275,1,8,0:0:0:0:
295,140,136459,2,0,L|247:145,2,35,0|8|8,3:0|0:0|0:0,0:0:0:0:
382,152,136827,1,4,3:0:0:0:
360,238,137011,1,8,0:0:0:0:
273,243,137195,6,0,P|209:247|100:249,1,140,4|0,3:2|0:0,0:0:0:0:
60,209,137747,2,0,P|58:273|69:363,1,140,0|2,3:0|3:2,0:0:0:0:
142,322,138299,1,0,0:0:0:0:
218,348,138483,1,0,3:0:0:0:
288,312,138667,2,0,P|327:307|367:308,1,70,0|2,0:0|3:2,0:0:0:0:
440,288,139035,2,0,P|445:337|445:365,2,70,0|0|0,0:0|3:0|0:0,0:0:0:0:
439,200,139588,2,0,L|462:164,2,35,8|8|8,0:0|0:0|3:0,0:0:0:0:
355,221,139956,5,4,3:0:0:0:
355,221,140048,1,8,0:0:0:0:
355,221,140140,2,0,P|304:195|254:112,1,140,4|2,3:2|0:0,0:0:0:0:
284,46,140692,1,2,0:0:0:0:
368,33,140876,1,0,0:0:0:0:
354,117,141060,1,2,0:0:0:0:
133,85,141428,5,2,0:0:0:0:
57,127,141612,2,0,P|95:171|179:189,1,140,4|4,3:2|3:0,0:0:0:0:
248,226,142164,2,0,P|286:204|328:193,1,70,8|0,0:0|3:0,0:0:0:0:
331,195,142440,1,8,0:0:0:0:
351,194,142532,1,8,0:0:0:0:
428,233,142716,1,8,3:0:0:0:
433,146,142900,1,8,0:0:0:0:
360,100,143085,2,0,L|321:85,2,35,0|0|4,3:0|3:0|3:2,0:0:0:0:
376,149,148422,6,0,P|382:198|380:225,2,56,8|0|4,0:0|3:0|3:0,0:0:0:0:
243,61,149158,2,0,L|167:69,1,70,4|0,3:1|0:0,0:0:0:0:
114,129,149526,6,0,P|89:133|64:131,2,46.6666666666667,8|8|8,0:0|0:0|0:0,0:0:0:0:
134,148,149894,2,0,L|203:140,1,70,4|0,3:1|0:0,0:0:0:0:
262,209,150262,6,0,P|286:213|312:211,2,46.6666666666667,8|8|8,0:0|0:0|0:0,0:0:0:0:
242,228,150631,2,0,L|172:220,1,70,4|0,3:1|0:0,0:0:0:0:
121,291,150999,6,0,P|96:295|71:293,2,46.6666666666667,8|8|8,0:0|0:0|0:0,0:0:0:0:
138,315,151367,6,0,P|123:335|104:351,2,37.3333333333333,8|8|8,0:0|3:0|3:0,0:0:0:0:
162,329,151735,6,0,P|166:353|164:379,2,27.9999991455078,4|4|4,3:0|3:0|3:0,0:0:0:0:
198,318,152103,6,0,L|267:310,1,56,4|2,3:1|0:0,0:0:0:0:
442,240,152655,1,2,0:0:0:0:
472,170,152839,2,0,P|427:168|341:186,1,112,0|0,3:0|3:0,0:0:0:0:
296,210,153391,1,6,0:0:0:0:
96,128,153759,5,8,0:0:0:0:
161,72,153943,1,8,0:0:0:0:
181,158,154127,2,0,L|192:213,2,35,0|8|8,3:0|0:0|0:0,0:0:0:0:
250,106,154496,1,4,3:0:0:0:
335,92,154680,2,0,P|378:91|419:85,1,83.9999974365235,12|0,3:0|0:0,0:0:0:0:
417,189,155048,5,12,0:1:0:0:
419,275,155232,2,0,P|379:282|332:279,1,83.9999974365235,2|8,3:2|0:0,0:0:0:0:
257,215,155600,1,0,3:0:0:0:
261,301,155784,2,0,P|220:306|174:302,1,83.9999974365235,10|0,0:0|3:0,0:0:0:0:
93,269,156152,1,8,0:0:0:0:
41,190,156336,2,0,P|97:192|133:187,1,83.9999974365235,2|8,3:2|0:0,0:0:0:0:
192,125,156704,5,2,3:2:0:0:
281,145,156888,2,0,P|291:97|284:48,1,83.9999974365235,8|2,0:0|3:2,0:0:0:0:
373,35,157256,1,8,0:0:0:0:
384,122,157440,1,6,3:2:0:0:
365,208,157624,2,0,P|425:201|472:209,1,83.9999974365235,12|0,0:0|3:0,0:0:0:0:
480,293,157993,5,12,0:1:0:0:
392,310,158177,2,0,P|347:299|303:283,1,83.9999974365235,2|8,3:2|0:0,0:0:0:0:
282,205,158545,1,0,3:0:0:0:
194,222,158729,2,0,P|149:211|105:195,1,83.9999974365235,10|0,0:0|3:0,0:0:0:0:
57,131,159097,1,8,0:0:0:0:
21,210,159281,2,0,P|22:251|33:303,1,83.9999974365235,2|8,3:2|0:0,0:0:0:0:
102,339,159649,5,2,3:2:0:0:
177,296,159833,2,0,P|216:309|242:356,1,83.9999974365235,8|2,0:0|3:2,0:0:0:0:
324,344,160201,2,0,P|346:301|355:250,1,83.9999974365235,8|2,0:0|3:2,0:0:0:0:
272,236,160569,1,12,0:0:0:0:
325,166,160753,5,8,0:0:0:0:
325,166,160845,1,8,0:0:0:0:
325,166,160937,1,12,0:1:0:0:
235,151,161121,2,0,P|198:169|145:184,1,83.9999974365235,2|8,3:2|0:0,0:0:0:0:
86,133,161489,1,0,3:0:0:0:
108,47,161673,2,0,P|150:61|202:68,1,83.9999974365235,10|0,0:0|3:0,0:0:0:0:
275,77,162042,1,8,0:0:0:0:
351,28,162226,2,0,P|371:82|374:129,1,83.9999974365235,2|8,3:2|0:0,0:0:0:0:
448,153,162594,5,2,3:2:0:0:
448,240,162778,2,0,P|409:241|353:236,1,83.9999974365235,8|2,0:0|3:2,0:0:0:0:
339,234,163054,1,8,3:0:0:0:
314,230,163146,1,4,3:0:0:0:
296,319,163330,1,12,0:0:0:0:
207,305,163514,2,0,P|168:306|112:301,1,83.9999974365235,12|0,0:0|0:0,0:0:0:0:
204,209,163882,5,12,0:1:0:0:
270,151,164066,2,0,P|276:110|271:63,1,83.9999974365235,2|8,3:2|0:0,0:0:0:0:
191,36,164434,1,0,3:0:0:0:
192,123,164618,2,0,P|153:121|102:123,1,83.9999974365235,10|0,0:0|3:0,0:0:0:0:
36,169,164986,1,8,0:0:0:0:
55,255,165170,2,0,P|95:233|120:201,1,83.9999974365235,2|8,3:2|0:0,0:0:0:0:
201,227,165539,6,0,L|210:272,2,41.9999987182618,4|4|12,3:0|3:0|0:0,0:0:0:0:
266,168,165907,1,8,0:0:0:0:
192,123,166091,1,2,3:0:0:0:
260,67,166275,1,8,0:0:0:0:
338,107,166459,2,0,P|344:161|341:214,1,83.9999974365235,8|8,0:0|0:0,0:0:0:0:
345,215,166735,1,8,0:0:0:0:
345,240,166827,1,12,0:1:0:0:
416,295,167011,6,0,L|451:326,2,41.9999987182618,0|0|8,3:0|3:0|0:0,0:0:0:0:
441,213,167379,2,0,L|491:228,2,41.9999987182618,0|0|8,3:0|3:0|0:0,0:0:0:0:
442,125,167747,2,0,L|500:114,2,41.9999987182618,0|0|8,3:0|3:0|0:0,0:0:0:0:
377,63,168115,2,0,L|409:32,2,41.9999987182618,0|0|8,3:0|3:0|0:0,0:0:0:0:
322,133,168483,2,0,L|344:176,2,41.9999987182618,0|0|8,3:0|3:0|0:0,0:0:0:0:
265,62,168851,2,0,L|301:27,2,41.9999987182618,0|0|8,3:0|3:0|0:0,0:0:0:0:
219,138,169220,2,0,L|230:199,2,41.9999987182618,0|0|8,3:0|3:0|0:0,0:0:0:0:
147,92,169588,5,0,3:0:0:0:
147,92,169680,1,0,3:0:0:0:
147,92,169772,1,12,0:1:0:0:
61,61,169956,2,0,L|21:28,2,41.9999987182618,0|0|8,3:0|3:0|0:0,0:0:0:0:
59,150,170324,2,0,L|25:192,2,41.9999987182618,0|0|8,3:0|3:0|0:0,0:0:0:0:
138,189,170692,2,0,L|155:241,2,41.9999987182618,0|0|8,3:0|3:0|0:0,0:0:0:0:
226,179,171060,2,0,L|265:145,2,41.9999987182618,0|0|8,3:0|3:0|0:0,0:0:0:0:
254,265,171428,2,0,L|240:311,2,41.9999987182618,0|0|8,3:0|3:0|0:0,0:0:0:0:
348,267,171796,2,0,L|383:306,2,41.9999987182618,0|0|8,3:0|3:0|0:0,0:0:0:0:
355,186,172164,5,0,3:0:0:0:
355,186,172256,1,0,3:0:0:0:
355,186,172348,1,8,0:0:0:0:
364,95,172532,2,0,P|372:69|371:45,2,41.9999987182618,4|8|4,3:0|0:0|3:1,0:0:0:0:
282,125,172900,2,0,P|260:85|224:58,1,83.9999974365235,8|4,3:0|3:0,0:0:0:0:
144,39,173269,2,0,P|142:122|140:217,1,167.999994873047,12|0,0:0|3:0,0:0:0:0:
83,281,173821,6,0,P|166:282|261:285,1,167.999994873047,8|8,0:0|0:0,0:0:0:0:
341,293,174373,1,8,0:0:0:0:
469,157,174741,1,8,0:0:0:0:
469,157,174925,1,8,0:0:0:0:
312,45,175293,1,8,0:0:0:0:
312,45,175477,2,0,P|268:88|154:76,1,167.999994873047,12|8,0:0|0:0,0:0:0:0:
96,46,176029,5,8,0:0:0:0:
69,128,176213,2,0,L|21:134,2,41.9999987182618,0|0|4,3:0|3:0|3:0,0:0:0:0:
135,182,176581,2,0,P|177:191|227:193,2,83.9999974365235,4|10|0,3:0|3:0|3:0,0:0:0:0:
61,236,177134,5,8,0:0:0:0:
61,236,177318,1,8,0:0:0:0:
218,348,177686,1,8,0:0:0:0:
218,348,177870,1,8,0:0:0:0:
378,258,178238,1,8,0:0:0:0:
378,258,178422,2,0,P|385:181|369:88,1,167.999994873047,12|8,0:0|0:0,0:0:0:0:
294,153,178974,6,0,P|235:155|199:148,1,83.9999974365235,8|0,0:0|3:0,0:0:0:0:
186,142,179250,1,0,3:0:0:0:
165,126,179342,2,0,P|157:100|144:82,4,41.9999987182618,8|0|4|0|8,3:0|3:0|3:0|3:0|0:0,0:0:0:0:
50,276,180078,6,0,L|124:262,1,70,4|2,3:1|0:0,0:0:0:0:
130,349,180446,2,0,L|204:335,1,70,8|2,0:0|0:0,0:0:0:0:
220,253,180815,1,0,3:0:0:0:
283,306,180999,1,2,0:0:0:0:
365,280,181183,1,8,0:0:0:0:
391,198,181367,2,0,P|332:160|246:175,1,140,2|2,0:0|0:0,0:0:0:0:
182,190,181919,6,0,P|135:166|114:136,1,70,8|2,0:0|0:0,0:0:0:0:
119,68,182287,1,0,3:0:0:0:
200,98,182471,1,2,3:2:0:0:
284,86,182655,2,0,P|327:69|348:29,1,70,8|2,0:0|0:0,0:0:0:0:
425,48,183023,6,0,P|454:99|429:201,1,140,4|8,3:1|0:0,0:0:0:0:
359,192,183575,2,0,P|292:188|209:184,1,140,4|8,3:2|3:0,0:0:0:0:
143,225,184127,2,0,P|134:282|151:312,1,70,8|0,0:0|0:0,0:0:0:0:
211,338,184496,5,8,0:0:0:0:
288,296,184680,1,8,0:0:0:0:
478,349,185048,5,0,0:0:0:0:
479,274,185232,2,0,P|480:239|477:200,1,70,2|0,0:0|0:0,0:0:0:0:
407,241,185600,1,2,0:0:0:0:
411,165,185784,1,2,0:0:0:0:
