osu file format v14

[General]
AudioFilename: audio.mp3
AudioLeadIn: 0
PreviewTime: 57778
Countdown: 0
SampleSet: Soft
StackLeniency: 0.7
Mode: 0
LetterboxInBreaks: 0
WidescreenStoryboard: 0

[Editor]
DistanceSpacing: 0.8
BeatDivisor: 4
GridSize: 16
TimelineZoom: 1

[Metadata]
Title:Omoi Nochi Hare
TitleUnicode:想いのち晴れ
Artist:Aoi (CV: Iguchi Yuka), Hinata (CV: Asumi Kana)
ArtistUnicode:あおい (CV: 井口裕香)、ひなた (CV: 阿澄佳奈)
Creator:CoLouRed GlaZeE
Version:Extra
Source:ヤマノススメ Next Summit
Tags:anime japanese j-pop jpop pop female voice yama no susume fourth season 4 op opening full size version Encouragement of Climb 雪村 あおい yukimura aoi 倉上 ひなた kuraue hinata
BeatmapID:4085833
BeatmapSetID:1953987

[Difficulty]
HPDrainRate:6
CircleSize:4
OverallDifficulty:9
ApproachRate:9
SliderMultiplier:1.8
SliderTickRate:1

[Events]
//Background and Video events
0,0,"bggggg.jpg",0,0
//Break Periods
//Storyboard Layer 0 (Background)
//Storyboard Layer 1 (Fail)
//Storyboard Layer 2 (Pass)
//Storyboard Layer 3 (Foreground)
//Storyboard Layer 4 (Overlay)
//Storyboard Sound Samples

[TimingPoints]
447,368.098159509202,4,2,1,70,1,0
3575,-100,4,2,1,60,0,0
5784,-100,4,2,1,70,0,0
6336,-100,4,2,1,70,0,1
6520,-100,4,2,1,70,0,0
12226,-100,4,2,1,60,0,0
22532,-100,4,2,1,70,0,0
22900,-100,4,2,1,60,0,0
24005,-100,4,2,1,70,0,0
25845,-100,4,2,1,60,0,0
26950,-100,4,2,1,70,0,0
34680,-100,4,2,1,60,0,0
35784,-100,4,2,1,70,0,0
37624,-100,4,2,1,60,0,0
38729,-100,4,2,1,70,0,0
44618,-100,4,2,1,60,0,0
51796,-100,4,2,1,70,0,0
55293,-100,4,2,1,60,0,0
57134,-100,4,2,1,70,0,0
57870,-90.9090909090909,4,2,1,80,0,1
69649,-90.9090909090909,4,2,1,70,0,1
76919,-90.9090909090909,4,2,1,5,0,1
77011,-90.9090909090909,4,2,1,70,0,0
82900,-100,4,2,1,70,0,1
83085,-100,4,2,1,70,0,0
87686,-100,4,2,1,60,0,0
88790,-100,4,2,1,70,0,0
91735,-100,4,2,1,70,0,0
97624,-100,4,2,1,60,0,0
103882,-100,4,2,1,70,0,0
108115,-200,4,2,1,60,0,0
108207,-200,4,2,1,5,0,0
108299,-200,4,2,1,60,0,0
108391,-200,4,2,1,5,0,0
108483,-100,4,2,1,60,0,0
109035,-100,4,2,1,40,0,0
109220,-100,4,2,1,60,0,0
109312,-100,4,2,1,5,0,0
109588,-100,4,2,1,60,0,0
109680,-100,4,2,1,5,0,0
109772,-100,4,2,1,60,0,0
110140,-100,4,2,1,70,0,0
110876,-90.9090909090909,4,2,1,80,0,1
122655,-100,4,2,1,70,0,0
125416,-90.9090909090909,4,2,1,80,0,1
128361,-100,4,2,1,70,0,0
131673,-100,4,2,1,60,0,0
137195,-100,4,2,1,70,0,0
140692,-100,4,2,1,60,0,0
141612,-100,4,2,1,70,0,0
143269,-125,4,2,1,50,0,0
148422,-125,4,2,1,60,0,0
149158,-100,4,2,1,70,0,0
149894,-83.3333333333333,4,2,1,70,0,0
150631,-71.4285714285714,4,2,1,70,0,0
151367,-83.3333333333333,4,2,1,60,0,0
151735,-100,4,2,1,50,0,0
152103,-125,4,2,1,60,0,0
153759,-100,4,2,1,65,0,0
154680,-71.4285714285714,4,2,1,70,0,0
155048,-83.3333333333333,4,2,1,80,0,1
160845,-83.3333333333333,4,2,1,80,0,0
160937,-83.3333333333333,4,2,1,80,0,1
166735,-83.3333333333333,4,2,1,80,0,0
166827,-83.3333333333333,4,2,1,80,0,1
174189,-83.3333333333333,4,2,1,70,0,0
180078,-100,4,2,1,70,0,1
180262,-100,4,2,1,70,0,0

[Colours]
Combo1 : 239,188,211
Combo2 : 181,211,244
Combo3 : 163,209,202
Combo4 : 186,198,233
Combo5 : 233,237,175

[HitObjects]
416,192,447,5,8,0:0:0:0:
96,192,631,1,8,0:0:0:0:
256,192,815,1,2,0:0:0:0:
256,192,999,1,2,0:0:0:0:
142,78,1183,5,8,0:0:0:0:
369,305,1367,1,8,0:0:0:0:
256,192,1551,1,2,0:0:0:0:
256,192,1643,1,2,0:0:0:0:
256,192,1735,1,0,0:0:0:0:
256,352,1919,5,8,0:0:0:0:
256,32,2103,1,8,0:0:0:0:
256,192,2287,1,2,0:0:0:0:
455,108,2471,6,0,P|479:155|457:247,1,135,12|0,0:0|0:0,0:0:0:0:
419,307,2839,1,4,3:0:0:0:
180,220,3023,1,8,0:0:0:0:
180,220,3115,1,8,0:0:0:0:
180,220,3207,1,0,0:0:0:0:
377,98,3391,5,8,0:0:0:0:
298,64,3575,1,2,0:0:0:0:
128,150,3943,5,0,0:0:0:0:
162,71,4127,1,2,0:0:0:0:
214,320,4496,5,0,0:0:0:0:
135,286,4680,1,2,0:0:0:0:
350,313,5048,5,0,0:0:0:0:
418,155,5232,1,2,0:0:0:0:
321,299,5600,5,4,3:0:0:0:
355,220,5784,1,8,0:0:0:0:
59,191,5968,5,8,0:0:0:0:
67,199,6060,1,8,0:0:0:0:
75,207,6152,1,8,3:0:0:0:
83,215,6244,1,0,3:0:0:0:
91,223,6336,1,4,3:1:0:0:
227,167,6520,1,2,0:0:0:0:
363,111,6704,1,8,0:0:0:0:
65,260,6888,5,2,0:0:0:0:
214,165,7072,1,0,3:0:0:0:
363,70,7256,1,2,0:0:0:0:
68,305,7440,5,8,0:0:0:0:
367,33,7624,2,0,P|416:83|385:189,1,180,2|2,0:0|0:0,0:0:0:0:
367,33,8177,5,8,0:0:0:0:
268,161,8361,1,2,0:0:0:0:
169,289,8545,1,0,3:0:0:0:
321,51,8729,5,2,3:2:0:0:
200,280,8913,1,8,0:0:0:0:
261,165,9097,1,2,0:0:0:0:
452,82,9281,6,0,P|472:132|459:184,1,90,0|0,3:0|0:0,0:0:0:0:
384,138,9649,2,0,L|374:253,1,90,8|0,0:0|0:0,0:0:0:0:
305,285,10017,1,0,3:0:0:0:
165,219,10201,1,0,0:0:0:0:
128,137,10385,5,8,0:0:0:0:
268,203,10569,1,0,0:0:0:0:
136,301,10753,1,0,3:0:0:0:
128,137,10937,1,2,0:0:0:0:
128,137,11029,1,2,0:0:0:0:
128,137,11121,1,8,0:0:0:0:
238,301,11305,1,2,0:0:0:0:
294,102,11489,5,0,3:0:0:0:
256,125,11581,1,2,0:0:0:0:
239,84,11673,1,2,0:0:0:0:
201,107,11766,1,2,0:0:0:0:
184,66,11858,1,8,0:0:0:0:
330,206,12134,5,0,3:0:0:0:
330,206,12226,2,0,P|377:177|393:143,1,90,4|2,3:2|0:0,0:0:0:0:
182,178,12594,1,0,3:0:0:0:
391,147,12778,1,2,0:0:0:0:
182,178,12962,2,0,P|135:207|119:241,1,90,8|2,0:0|0:0,0:0:0:0:
203,263,13330,1,0,3:0:0:0:
426,300,13514,2,0,P|447:249|383:143,1,180,2|2,3:2|3:2,0:0:0:0:
235,81,14066,5,0,3:0:0:0:
247,183,14250,1,2,0:0:0:0:
321,122,14434,1,8,0:0:0:0:
168,149,14618,1,2,3:2:0:0:
168,149,14710,1,0,0:0:0:0:
168,149,14802,1,0,3:0:0:0:
249,205,14986,1,2,3:2:0:0:
426,300,15170,6,0,L|437:207,1,90,4|0,3:2|0:0,0:0:0:0:
344,258,15539,2,0,L|365:74,1,180,0|8,3:0|0:0,0:0:0:0:
344,258,16091,1,8,3:0:0:0:
361,75,16275,1,8,0:0:0:0:
327,87,16367,1,8,0:0:0:0:
303,114,16459,1,4,3:0:0:0:
336,126,16551,1,0,3:0:0:0:
371,122,16643,1,12,0:0:0:0:
33,349,17011,5,0,3:0:0:0:
105,308,17195,1,0,0:0:0:0:
133,329,17287,1,2,0:0:0:0:
161,350,17379,1,0,3:0:0:0:
241,324,17563,1,0,0:0:0:0:
319,350,17747,1,0,3:0:0:0:
392,302,17931,1,0,0:0:0:0:
422,320,18023,1,8,0:0:0:0:
406,352,18115,1,12,0:0:0:0:
30,247,18483,5,0,3:0:0:0:
113,230,18667,1,0,0:0:0:0:
188,268,18851,1,0,3:0:0:0:
252,211,19035,1,8,0:0:0:0:
346,282,19220,1,0,3:0:0:0:
321,255,19312,1,0,1:0:0:0:
346,229,19404,1,0,1:0:0:0:
440,255,19588,1,12,0:0:0:0:
31,152,19956,5,0,3:0:0:0:
38,157,20048,1,0,0:0:0:0:
45,162,20140,1,0,0:0:0:0:
52,167,20232,1,0,0:0:0:0:
59,172,20324,1,8,0:0:0:0:
142,183,20508,1,0,0:0:0:0:
172,163,20600,1,0,1:0:0:0:
207,163,20692,1,0,3:0:0:0:
289,185,20876,1,8,0:0:0:0:
361,141,21060,1,0,3:0:0:0:
31,44,21244,5,8,0:0:0:0:
109,100,21428,1,0,3:0:0:0:
216,88,21612,1,0,0:0:0:0:
194,59,21704,1,0,1:0:0:0:
208,26,21796,1,8,0:0:0:0:
305,45,21980,1,8,3:0:0:0:
292,138,22164,1,8,0:0:0:0:
335,151,22256,1,2,0:0:0:0:
377,137,22348,1,2,0:0:0:0:
400,98,22440,1,2,0:0:0:0:
398,53,22532,1,8,0:0:0:0:
445,324,22716,5,8,0:0:0:0:
370,267,22900,2,0,P|410:239|452:228,1,90,2|0,0:0|0:0,0:0:0:0:
467,230,23177,1,0,0:0:0:0:
484,232,23269,1,2,0:0:0:0:
445,324,23453,1,0,3:0:0:0:
370,267,23637,1,8,0:0:0:0:
111,60,24005,6,0,P|61:131|106:216,1,180,4|8,3:1|0:0,0:0:0:0:
254,317,24557,2,0,P|260:276|269:226,1,90,4|0,3:2|0:0,0:0:0:0:
476,252,24925,1,0,3:0:0:0:
447,153,25109,2,0,P|436:112|422:54,1,90,8|0,0:0|0:0,0:0:0:0:
419,48,25385,1,0,0:0:0:0:
414,30,25477,1,8,0:0:0:0:
376,279,25661,5,8,0:0:0:0:
305,226,25845,2,0,P|262:250|208:252,1,90,2|0,0:0|0:0,0:0:0:0:
204,250,26121,1,0,0:0:0:0:
186,246,26213,1,2,0:0:0:0:
115,187,26397,1,4,3:0:0:0:
94,216,26489,1,4,3:0:0:0:
94,251,26581,2,0,P|113:302|151:333,1,90,4|0,3:0|0:0,0:0:0:0:
252,87,26950,5,4,3:1:0:0:
389,218,27134,1,0,3:0:0:0:
251,348,27318,1,8,0:0:0:0:
201,195,27502,2,0,P|251:186|303:156,1,90,4|0,3:2|0:0,0:0:0:0:
397,94,27870,1,0,3:0:0:0:
397,94,28054,1,8,0:0:0:0:
185,32,28238,5,2,0:0:0:0:
201,195,28422,1,0,3:0:0:0:
103,123,28606,1,2,3:2:0:0:
282,104,28790,1,8,0:0:0:0:
103,123,28974,5,2,0:0:0:0:
129,300,29158,1,0,3:0:0:0:
34,225,29342,1,2,3:2:0:0:
201,195,29526,1,8,0:0:0:0:
34,225,29710,5,2,0:0:0:0:
209,351,29894,1,0,3:0:0:0:
296,187,30078,1,4,3:0:0:0:
129,300,30262,1,8,0:0:0:0:
98,132,30446,2,0,P|187:118|284:105,1,180,4|0,3:1|3:0,0:0:0:0:
420,120,30999,1,8,0:0:0:0:
316,277,31183,5,2,0:0:0:0:
449,294,31367,1,0,3:0:0:0:
386,203,31551,1,2,3:2:0:0:
370,361,31735,1,8,0:0:0:0:
132,256,31919,5,2,0:0:0:0:
316,277,32103,1,0,3:0:0:0:
228,178,32287,1,2,3:2:0:0:
209,353,32471,1,8,0:0:0:0:
40,256,32655,5,2,0:0:0:0:
167,94,32839,1,4,3:1:0:0:
105,177,33023,2,0,P|79:130|58:84,1,90,4|8,3:0|0:0,0:0:0:0:
245,38,33391,2,0,P|325:75|332:169,1,180,4|0,3:2|3:0,0:0:0:0:
267,346,33943,2,0,P|187:309|180:215,1,180,8|8,0:0|0:0,0:0:0:0:
435,165,34496,5,8,0:0:0:0:
379,246,34680,2,0,P|316:238|283:221,1,90,2|0,0:0|0:0,0:0:0:0:
286,209,34956,1,0,0:0:0:0:
280,191,35048,2,0,P|243:159|197:131,1,90,2|4,0:0|3:0,0:0:0:0:
122,109,35416,1,8,0:0:0:0:
435,165,35784,5,4,3:1:0:0:
368,345,35968,2,0,P|314:331|260:307,1,90,0|8,0:0|0:0,0:0:0:0:
102,220,36336,2,0,P|191:204|288:189,1,180,4|0,3:2|3:0,0:0:0:0:
411,79,36888,2,0,P|430:131|436:190,1,90,8|0,0:0|0:0,0:0:0:0:
432,183,37164,1,0,0:0:0:0:
428,201,37256,1,8,0:0:0:0:
283,285,37440,5,8,0:0:0:0:
168,124,37624,2,0,P|214:142|251:165,1,90,2|8,0:0|3:0,0:0:0:0:
254,181,37900,1,8,3:0:0:0:
259,199,37993,1,4,3:0:0:0:
172,243,38177,1,0,3:0:0:0:
283,285,38361,1,8,0:0:0:0:
270,59,38545,5,0,0:0:0:0:
270,59,38637,1,0,0:0:0:0:
270,59,38729,1,4,3:1:0:0:
259,199,38913,1,0,3:0:0:0:
423,145,39097,1,8,0:0:0:0:
114,117,39281,2,0,P|108:170|108:224,1,90,4|0,3:2|0:0,0:0:0:0:
358,312,39649,2,0,P|364:259|364:205,1,90,0|8,3:0|0:0,0:0:0:0:
80,336,40017,5,2,0:0:0:0:
181,349,40201,1,0,3:0:0:0:
90,248,40385,5,2,3:2:0:0:
288,271,40569,1,8,0:0:0:0:
204,163,40753,5,2,0:0:0:0:
305,176,40937,1,0,3:0:0:0:
127,59,41121,5,2,3:2:0:0:
325,82,41305,1,8,0:0:0:0:
127,59,41489,1,2,0:0:0:0:
106,281,41673,5,0,3:0:0:0:
115,190,41858,1,0,3:0:0:0:
324,256,42042,1,8,0:0:0:0:
182,337,42226,2,0,P|107:368|14:309,1,180,4|0,3:1|3:0,0:0:0:0:
106,281,42778,1,8,0:0:0:0:
124,99,42962,5,2,0:0:0:0:
241,163,43146,1,0,3:0:0:0:
206,34,43330,1,2,3:2:0:0:
201,234,43514,1,8,0:0:0:0:
337,129,43698,1,2,0:0:0:0:
137,147,43882,5,0,3:0:0:0:
337,129,44066,1,2,3:2:0:0:
269,342,44250,1,8,0:0:0:0:
56,257,44434,5,0,3:0:0:0:
56,257,44526,1,0,3:0:0:0:
56,257,44618,2,0,P|50:167|44:74,1,180,4|2,3:1|0:0,0:0:0:0:
134,127,45170,2,0,P|202:156|316:133,1,180,0|8,3:0|3:0,0:0:0:0:
338,44,45723,1,4,3:0:0:0:
241,49,45907,1,0,3:0:0:0:
267,292,46091,6,0,P|335:321|449:298,1,180,4|0,3:2|0:0,0:0:0:0:
437,304,46827,1,0,3:0:0:0:
267,292,47011,1,0,0:0:0:0:
437,304,47195,1,8,0:0:0:0:
450,218,47379,2,0,P|449:170|460:118,1,90,0|0,0:0|3:0,0:0:0:0:
302,217,47747,1,0,0:0:0:0:
367,163,47931,1,0,0:0:0:0:
219,162,48115,2,0,P|219:209|209:262,1,90,0|0,3:0|0:0,0:0:0:0:
129,201,48483,2,0,P|105:198|81:194,2,45,0|0|8,3:0|0:0|0:0,0:0:0:0:
189,77,48851,5,2,0:0:0:0:
189,77,48943,1,2,0:0:0:0:
189,77,49035,2,0,P|235:80|284:90,1,90,0|0,3:0|0:0,0:0:0:0:
375,116,49404,1,0,0:0:0:0:
250,319,49588,2,0,P|328:332|403:248,1,180,2|0,3:2|0:0,0:0:0:0:
436,166,50140,1,8,0:0:0:0:
306,240,50324,1,0,0:0:0:0:
113,125,50508,5,0,3:0:0:0:
263,166,50692,1,0,0:0:0:0:
90,144,50876,5,0,0:0:0:0:
244,158,51060,1,0,3:0:0:0:
399,172,51244,5,8,0:0:0:0:
99,248,51428,1,8,3:0:0:0:
99,248,51520,1,0,3:0:0:0:
99,248,51612,1,8,0:0:0:0:
332,72,51796,6,0,P|417:105|437:199,1,180,4|0,3:1|3:0,0:0:0:0:
348,355,52348,1,8,0:0:0:0:
228,150,52532,1,0,3:0:0:0:
469,260,52716,1,8,0:0:0:0:
370,273,52900,2,0,P|362:222|362:178,1,90,0|8,3:0|0:0,0:0:0:0:
120,86,53269,2,0,P|128:137|128:181,1,90,0|8,3:0|0:0,0:0:0:0:
56,326,53637,5,0,3:0:0:0:
49,217,53821,1,8,0:0:0:0:
100,324,54005,5,0,3:0:0:0:
86,106,54189,1,8,0:0:0:0:
426,278,54373,5,8,3:0:0:0:
412,60,54557,1,8,0:0:0:0:
149,327,54741,5,12,0:0:0:0:
149,327,55109,1,2,0:0:0:0:
143,229,55293,1,2,0:0:0:0:
229,300,55477,1,0,0:0:0:0:
223,202,55661,1,2,0:0:0:0:
448,192,56029,5,0,0:0:0:0:
429,100,56213,1,2,0:0:0:0:
41,313,56581,5,0,0:0:0:0:
64,192,56766,2,0,P|162:181|261:171,1,180,2|4,0:0|3:0,0:0:0:0:
432,197,57318,5,4,3:0:0:0:
130,287,57502,1,8,0:0:0:0:
170,307,57594,1,8,0:0:0:0:
214,307,57686,1,8,3:0:0:0:
254,288,57778,1,0,3:0:0:0:
280,246,57870,1,4,3:1:0:0:
277,55,58054,5,2,0:0:0:0:
426,110,58238,1,8,0:0:0:0:
360,251,58422,1,0,0:0:0:0:
117,93,58606,1,2,3:2:0:0:
117,93,58974,1,8,0:0:0:0:
86,250,59158,5,2,0:0:0:0:
86,250,59250,1,0,0:0:0:0:
86,250,59342,1,0,3:0:0:0:
185,242,59526,1,2,0:0:0:0:
165,349,59710,5,8,0:0:0:0:
363,333,59894,1,2,0:0:0:0:
344,135,60078,1,0,3:0:0:0:
146,151,60262,1,2,3:2:0:0:
396,237,60446,2,0,P|449:196|429:63,1,198.000006042481,12|4,0:0|3:1,0:0:0:0:
237,227,60999,2,0,P|188:231|136:234,1,99.0000030212403,2|8,0:0|0:0,0:0:0:0:
68,93,61367,1,0,0:0:0:0:
179,82,61551,1,2,3:2:0:0:
197,329,61735,2,0,P|246:326|295:322,1,99.0000030212403,0|8,0:0|0:0,0:0:0:0:
453,188,62103,5,2,0:0:0:0:
453,188,62195,1,0,0:0:0:0:
453,188,62287,1,0,3:0:0:0:
302,128,62471,1,2,0:0:0:0:
444,67,62655,1,8,0:0:0:0:
453,188,62839,5,2,0:0:0:0:
224,211,63023,1,0,3:0:0:0:
365,249,63207,1,2,3:2:0:0:
136,272,63391,1,8,0:0:0:0:
110,229,63483,1,8,0:0:0:0:
100,180,63575,1,8,3:0:0:0:
75,223,63667,1,0,3:0:0:0:
64,271,63759,1,4,3:1:0:0:
233,355,63943,6,0,P|292:339|325:315,1,99.0000030212403,2|8,0:0|0:0,0:0:0:0:
364,83,64312,1,0,0:0:0:0:
279,29,64496,2,0,P|220:45|187:69,1,99.0000030212403,2|0,3:2|0:0,0:0:0:0:
339,213,64864,1,8,0:0:0:0:
64,153,65048,1,2,0:0:0:0:
221,269,65232,5,0,3:0:0:0:
53,233,65416,1,2,0:0:0:0:
53,233,65508,1,0,3:0:0:0:
53,233,65600,1,8,0:0:0:0:
291,115,65784,1,2,0:0:0:0:
459,151,65968,1,0,3:0:0:0:
291,115,66152,1,2,3:2:0:0:
123,342,66336,2,0,P|137:247|154:144,1,198.000006042481,12|4,0:0|3:1,0:0:0:0:
362,47,66888,6,0,P|385:93|384:148,1,99.0000030212403,2|8,0:0|0:0,0:0:0:0:
365,232,67256,1,0,0:0:0:0:
189,339,67440,2,0,P|137:335|90:307,1,99.0000030212403,2|0,3:2|0:0,0:0:0:0:
138,109,67808,5,8,0:0:0:0:
256,192,67993,1,2,0:0:0:0:
256,192,68085,1,0,0:0:0:0:
256,192,68177,1,4,3:0:0:0:
374,275,68361,1,8,3:0:0:0:
138,109,68545,1,8,0:0:0:0:
256,48,68729,5,4,3:2:0:0:
256,336,68913,1,2,3:0:0:0:
112,192,69097,1,8,3:0:0:0:
400,192,69281,1,8,0:0:0:0:
126,303,69465,5,4,3:0:0:0:
40,254,69649,2,0,P|21:206|28:146,2,99.0000030212403,4|0|0,3:2|0:0|3:0,0:0:0:0:
59,62,70201,1,2,0:0:0:0:
265,158,70385,5,0,3:0:0:0:
112,192,70569,1,2,0:0:0:0:
247,276,70753,1,0,3:0:0:0:
313,151,70937,1,2,0:0:0:0:
290,299,71121,1,0,3:0:0:0:
437,301,71305,6,0,P|460:248|449:188,1,99.0000030212403,2|0,0:0|3:0,0:0:0:0:
446,105,71673,1,2,0:0:0:0:
360,47,71858,1,0,3:0:0:0:
272,220,72042,5,8,3:0:0:0:
451,157,72226,1,4,3:0:0:0:
280,118,72410,5,0,3:0:0:0:
280,118,72502,1,0,3:0:0:0:
280,118,72594,2,0,P|232:120|179:119,2,99.0000030212403,4|0|0,3:2|0:0|3:0,0:0:0:0:
359,181,73146,1,2,0:0:0:0:
320,336,73330,1,0,3:0:0:0:
174,257,73514,1,2,0:0:0:0:
320,336,73698,1,0,3:0:0:0:
240,200,73882,5,2,0:0:0:0:
240,200,73974,1,0,0:0:0:0:
240,200,74066,1,0,3:0:0:0:
226,353,74250,1,8,0:0:0:0:
402,274,74434,1,8,0:0:0:0:
240,200,74618,1,0,3:0:0:0:
240,200,74710,1,8,0:0:0:0:
240,200,74802,1,8,0:0:0:0:
316,37,74986,1,8,3:0:0:0:
340,231,75170,5,8,0:0:0:0:
318,275,75262,1,8,0:0:0:0:
275,300,75354,1,4,3:0:0:0:
225,301,75446,1,0,3:0:0:0:
177,286,75539,1,4,3:1:0:0:
426,128,75723,5,0,3:0:0:0:
411,346,75907,1,8,0:0:0:0:
240,200,76091,2,0,P|235:143|241:84,1,99.0000030212403,4|0,3:2|0:0,0:0:0:0:
333,148,76459,1,0,3:0:0:0:
102,315,76643,2,0,P|95:241|103:164,1,148.50000453186,8|0,0:0|0:0,0:0:0:0:
110,121,77011,5,8,0:0:0:0:
115,111,77195,1,8,0:0:0:0:
421,67,77563,5,8,0:0:0:0:
414,77,77747,1,8,0:0:0:0:
234,315,78115,5,8,0:0:0:0:
304,353,78299,2,0,P|326:294|274:176,1,198.000006042481,12|8,0:0|0:0,0:0:0:0:
387,190,78851,2,0,P|439:173|473:129,1,99.0000030212403,8|0,0:0|3:0,0:0:0:0:
208,234,79220,5,8,0:0:0:0:
108,206,79404,1,0,3:0:0:0:
8,178,79588,1,10,3:0:0:0:
155,350,79956,5,8,0:0:0:0:
149,338,80140,1,8,0:0:0:0:
378,214,80508,5,8,0:0:0:0:
383,202,80692,1,8,0:0:0:0:
132,111,81060,5,8,0:0:0:0:
90,47,81244,2,0,P|171:27|254:107,1,198.000006042481,12|8,0:0|0:0,0:0:0:0:
409,293,81796,2,0,P|342:285|297:256,1,99.0000030212403,8|0,0:0|0:0,0:0:0:0:
91,211,82164,2,0,L|201:190,1,99.0000030212403,8|0,0:0|3:0,0:0:0:0:
237,184,82440,1,8,0:0:0:0:
285,175,82532,1,8,0:0:0:0:
42,342,82900,5,4,3:1:0:0:
147,356,83085,1,2,0:0:0:0:
213,272,83269,1,8,0:0:0:0:
33,332,83453,5,2,0:0:0:0:
190,353,83637,1,0,3:0:0:0:
289,226,83821,1,2,0:0:0:0:
24,322,84005,5,8,0:0:0:0:
427,155,84189,2,0,B|401:201|401:201|334:196|261:249,1,180,2|2,0:0|0:0,0:0:0:0:
427,155,84741,5,8,0:0:0:0:
270,355,84925,1,2,0:0:0:0:
24,322,85109,1,0,3:0:0:0:
289,226,85293,6,0,P|266:242|253:262,1,45,2|0,3:2|0:0,0:0:0:0:
190,353,85477,2,0,P|165:346|135:348,1,45,8|4,0:0|3:0,0:0:0:0:
42,342,85661,1,4,3:0:0:0:
33,332,85753,1,4,3:0:0:0:
24,322,85845,1,4,3:1:0:0:
49,93,86029,5,0,3:0:0:0:
197,182,86213,1,8,0:0:0:0:
345,271,86397,2,0,P|411:272|448:269,1,90,4|0,3:2|0:0,0:0:0:0:
128,272,86766,1,8,3:0:0:0:
167,113,86950,2,0,P|101:112|64:115,1,90,8|0,0:0|0:0,0:0:0:0:
345,271,87318,5,8,0:0:0:0:
167,113,87502,1,8,0:0:0:0:
199,207,87686,2,0,P|241:181|262:135,1,90,2|0,0:0|0:0,0:0:0:0:
265,129,87962,1,2,0:0:0:0:
267,111,88054,1,2,0:0:0:0:
167,113,88238,2,0,L|158:67,1,45,0|0,3:0|0:0,0:0:0:0:
153,42,88422,1,2,3:2:0:0:
256,352,88790,5,4,3:1:0:0:
400,224,88974,1,8,3:0:0:0:
112,224,89158,1,8,0:0:0:0:
256,352,89342,6,0,P|304:344|348:339,1,90,4|0,3:2|0:0,0:0:0:0:
480,224,89710,1,4,3:0:0:0:
344,114,89894,1,8,0:0:0:0:
299,104,89986,1,0,3:0:0:0:
254,94,90078,1,0,3:0:0:0:
209,84,90170,1,0,3:0:0:0:
164,75,90262,1,8,0:0:0:0:
256,352,90446,5,8,0:0:0:0:
288,263,90631,2,0,P|239:271|196:276,1,90,2|8,0:0|3:0,0:0:0:0:
180,276,90907,1,0,3:0:0:0:
162,277,90999,1,8,0:0:0:0:
229,190,91183,5,8,3:0:0:0:
202,191,91275,1,0,3:0:0:0:
175,194,91367,1,8,0:0:0:0:
192,172,91459,1,0,3:0:0:0:
211,153,91551,1,0,3:0:0:0:
184,154,91643,1,0,3:0:0:0:
157,157,91735,1,4,3:1:0:0:
425,289,91919,5,0,3:0:0:0:
307,213,92103,1,8,0:0:0:0:
502,340,92287,2,0,P|510:272|497:147,1,180,4|0,3:2|3:0,0:0:0:0:
323,61,92839,1,8,0:0:0:0:
232,31,93023,5,2,0:0:0:0:
307,213,93207,1,0,3:0:0:0:
167,105,93391,1,2,3:2:0:0:
364,140,93575,1,8,0:0:0:0:
177,208,93759,5,2,0:0:0:0:
257,135,93943,1,0,3:0:0:0:
217,325,94127,1,2,3:2:0:0:
257,135,94312,1,8,0:0:0:0:
81,199,94496,1,2,0:0:0:0:
124,350,94680,5,0,3:0:0:0:
310,302,94864,1,0,3:0:0:0:
204,194,95048,1,8,0:0:0:0:
345,65,95232,2,0,P|419:128|409:218,1,180,4|0,3:2|3:0,0:0:0:0:
379,337,95784,1,8,0:0:0:0:
229,289,95968,5,2,0:0:0:0:
329,162,96152,1,0,3:0:0:0:
110,78,96336,1,2,3:2:0:0:
141,197,96520,1,8,0:0:0:0:
65,153,96704,5,2,0:0:0:0:
184,122,96888,1,0,3:0:0:0:
396,270,97072,1,2,3:2:0:0:
425,151,97256,1,8,0:0:0:0:
383,360,97440,5,2,0:0:0:0:
383,360,97532,1,0,0:0:0:0:
383,360,97624,2,0,P|309:365|186:362,1,180,4|0,3:2|0:0,0:0:0:0:
300,285,98177,2,0,P|226:280|103:283,1,180,2|0,0:0|0:0,0:0:0:0:
116,363,98729,1,2,0:0:0:0:
34,317,98913,1,2,0:0:0:0:
272,192,99097,6,0,P|241:129|132:112,1,180,4|0,3:1|0:0,0:0:0:0:
364,212,99833,1,0,0:0:0:0:
272,192,100017,1,2,0:0:0:0:
189,233,100201,1,0,0:0:0:0:
139,314,100385,2,0,P|110:348|57:362,1,90,2|0,0:0|0:0,0:0:0:0:
267,329,100753,5,0,0:0:0:0:
200,235,100937,1,0,0:0:0:0:
149,318,101121,1,2,0:0:0:0:
276,332,101305,1,0,0:0:0:0:
293,155,101489,5,0,0:0:0:0:
293,155,101673,1,2,0:0:0:0:
460,174,101858,2,0,P|416:170|352:164,1,90,2|0,0:0|0:0,0:0:0:0:
257,87,102226,5,0,0:0:0:0:
243,209,102410,1,0,0:0:0:0:
117,136,102594,2,0,P|160:139|225:146,1,90,2|0,0:0|0:0,0:0:0:0:
381,275,102962,1,0,0:0:0:0:
381,275,103146,2,0,P|337:271|273:265,1,90,2|0,0:0|0:0,0:0:0:0:
419,171,103514,5,2,0:0:0:0:
404,317,103698,1,0,3:0:0:0:
369,107,103882,5,12,0:0:0:0:
427,359,104066,1,0,3:0:0:0:
319,43,104250,5,8,0:0:0:0:
117,136,104434,1,8,3:0:0:0:
117,136,104526,1,4,3:0:0:0:
117,136,104618,1,8,0:0:0:0:
244,344,104802,2,0,P|333:310|358:210,1,180,4|0,3:2|3:0,0:0:0:0:
253,89,105354,5,8,0:0:0:0:
463,212,105539,1,0,3:0:0:0:
183,285,105723,1,8,0:0:0:0:
295,201,105907,1,0,3:0:0:0:
183,285,106091,1,8,0:0:0:0:
398,63,106275,6,0,P|405:131|397:177,1,90,0|8,3:0|0:0,0:0:0:0:
402,313,106643,1,0,3:0:0:0:
110,313,106827,1,8,0:0:0:0:
110,204,107011,5,2,3:2:0:0:
142,204,107103,1,2,3:2:0:0:
174,204,107195,1,8,0:0:0:0:
17,204,107379,1,8,3:0:0:0:
256,32,107563,1,4,3:0:0:0:
256,352,107747,1,12,0:0:0:0:
63,204,108115,6,0,L|85:225,1,22.5,2|0,0:0|0:0,0:0:0:0:
129,154,108299,2,0,L|146:186,1,22.5,2|0,0:0|0:0,0:0:0:0:
208,131,108483,6,0,P|179:129|149:113,1,45,0|0,0:0|0:0,0:0:0:0:
66,98,108667,1,2,0:0:0:0:
439,157,109035,1,4,0:0:0:0:
352,294,109220,6,0,P|309:242|259:184,1,135,2|0,0:0|0:0,0:0:0:0:
217,135,109588,2,0,P|242:141|265:149,1,45,0|0,0:0|0:0,0:0:0:0:
142,98,109772,2,0,P|186:94|233:89,1,90,2|0,0:0|0:0,0:0:0:0:
447,60,110140,5,4,3:0:0:0:
459,103,110232,1,8,0:0:0:0:
451,147,110324,1,8,3:0:0:0:
419,179,110416,1,4,3:0:0:0:
374,187,110508,1,4,3:0:0:0:
332,204,110600,1,8,0:0:0:0:
298,233,110692,1,8,0:0:0:0:
282,275,110784,1,8,0:0:0:0:
286,324,110876,1,4,3:1:0:0:
36,79,111060,5,2,0:0:0:0:
56,326,111244,1,8,0:0:0:0:
237,184,111428,1,0,0:0:0:0:
19,199,111612,2,0,P|77:196|120:193,1,99.0000030212403,2|0,3:2|0:0,0:0:0:0:
394,175,111980,1,8,0:0:0:0:
230,68,112164,5,2,0:0:0:0:
230,68,112256,1,0,0:0:0:0:
230,68,112348,1,0,3:0:0:0:
242,318,112532,1,2,0:0:0:0:
321,120,112716,1,8,0:0:0:0:
176,252,112900,1,2,0:0:0:0:
394,175,113085,5,0,3:0:0:0:
120,134,113269,1,2,3:2:0:0:
474,128,113453,2,0,P|479:186|467:241,1,99.0000030212403,12|0,0:0|0:0,0:0:0:0:
247,292,113821,5,4,3:1:0:0:
438,308,114005,1,2,0:0:0:0:
142,207,114189,1,8,0:0:0:0:
331,331,114373,1,0,0:0:0:0:
400,96,114557,2,0,P|351:91|291:88,1,99.0000030212403,2|0,3:2|0:0,0:0:0:0:
166,77,114925,1,8,0:0:0:0:
163,352,115109,5,2,0:0:0:0:
163,352,115201,1,0,0:0:0:0:
163,352,115293,1,0,3:0:0:0:
281,245,115477,2,0,P|315:207|364:158,1,99.0000030212403,2|8,0:0|0:0,0:0:0:0:
166,77,115845,1,2,0:0:0:0:
256,336,116029,5,0,3:0:0:0:
256,48,116213,1,2,3:2:0:0:
256,336,116397,2,0,P|215:299|169:258,1,99.0000030212403,12|0,0:0|0:0,0:0:0:0:
468,121,116766,5,4,3:1:0:0:
278,126,116950,1,2,0:0:0:0:
88,131,117134,1,8,0:0:0:0:
308,151,117318,1,0,0:0:0:0:
58,99,117502,2,0,P|114:97|163:93,1,99.0000030212403,2|0,3:2|0:0,0:0:0:0:
441,89,117870,1,8,0:0:0:0:
436,318,118054,5,2,0:0:0:0:
436,318,118146,1,0,0:0:0:0:
436,318,118238,1,0,3:0:0:0:
323,235,118422,1,2,0:0:0:0:
450,340,118606,1,8,0:0:0:0:
158,236,118790,1,2,0:0:0:0:
421,135,118974,5,0,3:0:0:0:
256,352,119158,1,2,3:2:0:0:
91,135,119342,2,0,P|188:134|300:132,1,198.000006042481,12|4,0:0|3:1,0:0:0:0:
40,342,119894,6,0,P|88:341|144:340,1,99.0000030212403,2|8,0:0|0:0,0:0:0:0:
267,307,120262,1,0,0:0:0:0:
354,178,120446,1,2,3:2:0:0:
348,312,120631,1,0,0:0:0:0:
221,237,120815,1,8,0:0:0:0:
286,56,120999,5,2,3:2:0:0:
286,56,121091,1,0,3:0:0:0:
286,56,121183,1,4,3:0:0:0:
450,111,121367,1,8,3:0:0:0:
135,165,121551,1,8,0:0:0:0:
344,116,121735,1,4,3:2:0:0:
173,331,121919,5,2,3:0:0:0:
66,85,122103,1,8,3:0:0:0:
347,192,122287,1,8,0:0:0:0:
173,331,122471,1,4,3:0:0:0:
419,76,122655,6,0,P|435:155|426:273,1,180,4|0,3:2|0:0,0:0:0:0:
252,123,123207,1,0,3:0:0:0:
257,215,123391,2,0,P|258:260|260:322,1,90,8|0,0:0|0:0,0:0:0:0:
347,192,123759,1,0,3:2:0:0:
158,259,123943,2,0,P|142:180|151:62,1,180,0|0,3:0|0:0,0:0:0:0:
232,32,124496,2,0,P|285:43|333:55,1,90,0|0,3:0|0:0,0:0:0:0:
439,152,124864,5,8,0:0:0:0:
359,311,125048,1,8,3:0:0:0:
188,263,125232,1,8,0:0:0:0:
156,230,125324,1,8,0:0:0:0:
149,180,125416,2,0,P|145:121|150:61,1,99.0000030212403,4|0,3:2|0:0,0:0:0:0:
353,168,125784,1,0,3:0:0:0:
238,346,125968,2,0,P|179:350|119:345,1,99.0000030212403,8|0,0:0|3:0,0:0:0:0:
37,186,126336,5,8,0:0:0:0:
265,170,126520,1,0,3:0:0:0:
117,54,126704,1,8,0:0:0:0:
132,264,126888,1,0,3:0:0:0:
353,168,127072,5,8,0:0:0:0:
217,308,127256,1,0,3:0:0:0:
202,95,127440,1,8,0:0:0:0:
441,166,127624,1,0,3:0:0:0:
441,166,127716,1,0,3:0:0:0:
441,166,127808,1,8,0:0:0:0:
125,184,127993,5,8,3:0:0:0:
353,168,128177,1,8,0:0:0:0:
148,286,128361,2,0,P|71:278|25:177,1,180,4|0,3:2|0:0,0:0:0:0:
25,168,128821,1,0,0:0:0:0:
25,168,128913,2,0,P|59:121|79:87,1,90,0|0,0:0|3:0,0:0:0:0:
266,216,129281,5,8,0:0:0:0:
151,146,129465,1,0,3:0:0:0:
148,286,129649,1,0,0:0:0:0:
376,109,129833,2,0,P|309:146|268:222,1,135,4|0,3:2|0:0,0:0:0:0:
266,216,130201,6,0,P|251:235|230:257,1,45,8|0,0:0|0:0,0:0:0:0:
310,329,130385,2,0,P|337:339|360:341,1,45,8|0,3:0|0:0,0:0:0:0:
435,230,130569,5,2,3:2:0:0:
435,230,130661,1,0,0:0:0:0:
435,230,130753,2,0,L|366:257,1,45,8|0,0:0|0:0,0:0:0:0:
77,230,130937,1,2,3:2:0:0:
77,230,131029,1,0,0:0:0:0:
77,230,131121,2,0,L|146:257,1,45,8|8,0:0|0:0,0:0:0:0:
256,336,131305,1,4,3:2:0:0:
256,48,131673,5,0,0:0:0:0:
326,98,131858,1,2,0:0:0:0:
256,48,132042,1,0,0:0:0:0:
160,123,132226,2,0,P|100:137|12:42,1,180,2|0,0:0|0:0,0:0:0:0:
170,222,132778,2,0,B|222:209|243:174|243:174|290:179|338:223,1,180,2|0,0:0|0:0,0:0:0:0:
399,265,133330,2,0,P|451:253|482:221,1,90,2|0,0:0|3:0,0:0:0:0:
372,35,133698,5,8,0:0:0:0:
350,125,133882,1,8,3:0:0:0:
439,100,134066,1,4,3:0:0:0:
155,32,134250,1,4,3:2:0:0:
159,206,134618,5,0,0:0:0:0:
155,32,134802,2,0,P|162:88|160:133,1,90,0|0,3:0|0:0,0:0:0:0:
71,128,135170,2,0,P|174:121|289:123,1,180,2|0,0:0|3:0,0:0:0:0:
434,195,135723,6,0,P|377:183|343:153,1,90,2|0,0:0|3:0,0:0:0:0:
424,96,136091,1,8,0:0:0:0:
493,273,136275,1,8,0:0:0:0:
305,244,136459,1,0,3:0:0:0:
305,244,136551,1,8,0:0:0:0:
305,244,136643,1,8,0:0:0:0:
99,107,136827,5,4,3:0:0:0:
209,77,137011,1,8,0:0:0:0:
210,324,137195,6,0,P|118:310|26:296,1,180,4|0,3:2|0:0,0:0:0:0:
23,281,137655,1,0,0:0:0:0:
14,264,137747,1,0,3:0:0:0:
83,200,137931,1,0,0:0:0:0:
251,246,138115,5,2,3:2:0:0:
297,342,138299,1,0,0:0:0:0:
297,342,138391,1,0,0:0:0:0:
297,342,138483,1,0,3:0:0:0:
383,219,138667,1,0,0:0:0:0:
169,77,138851,5,2,3:2:0:0:
298,40,139035,1,0,0:0:0:0:
298,40,139127,1,0,0:0:0:0:
298,40,139220,2,0,L|288:116,1,45,0|0,3:0|0:0,0:0:0:0:
383,219,139404,2,0,L|393:143,1,45,2|0,0:0|0:0,0:0:0:0:
453,296,139588,5,8,0:0:0:0:
409,306,139680,1,8,0:0:0:0:
364,301,139772,1,8,3:0:0:0:
324,281,139864,1,4,3:0:0:0:
298,244,139956,1,4,3:0:0:0:
338,224,140048,1,8,0:0:0:0:
383,219,140140,1,4,3:2:0:0:
146,235,140508,5,2,0:0:0:0:
231,210,140692,1,2,0:0:0:0:
32,226,140876,5,0,0:0:0:0:
202,176,141060,1,2,0:0:0:0:
43,319,141428,5,2,0:0:0:0:
383,219,141612,2,0,L|401:79,1,135,4|0,3:2|0:0,0:0:0:0:
408,77,141980,5,4,3:0:0:0:
476,351,142164,1,8,0:0:0:0:
254,181,142348,5,0,3:0:0:0:
254,181,142440,1,8,0:0:0:0:
254,181,142532,1,8,0:0:0:0:
278,285,142716,1,8,3:0:0:0:
76,45,142900,5,8,0:0:0:0:
38,205,143085,1,0,3:0:0:0:
38,205,143177,1,0,3:0:0:0:
38,205,143269,2,0,P|21:171|29:128,1,72,4|2,3:2|0:0,0:0:0:0:
41,215,143821,2,0,P|61:183|103:168,1,72,0|2,0:0|0:0,0:0:0:0:
33,222,144373,2,0,P|70:224|104:252,1,72,0|2,0:0|0:0,0:0:0:0:
300,349,144925,5,0,0:0:0:0:
250,283,145109,1,2,0:0:0:0:
269,203,145293,1,0,0:0:0:0:
293,282,145477,1,2,0:0:0:0:
235,340,145661,1,2,0:0:0:0:
155,327,145845,1,2,0:0:0:0:
38,205,146213,6,0,B|21:171|21:171|29:128,1,72,0|2,0:0|0:0,0:0:0:0:
93,171,146766,2,0,B|61:183|61:183|41:215,1,72,0|2,0:0|0:0,0:0:0:0:
33,222,147318,2,0,B|70:224|70:224|104:252,1,72,0|2,0:0|0:0,0:0:0:0:
38,205,147870,5,2,0:0:0:0:
40,215,148054,1,2,0:0:0:0:
33,222,148238,1,2,0:0:0:0:
149,176,148422,1,8,0:0:0:0:
284,239,148606,1,8,3:0:0:0:
465,179,148790,1,4,3:0:0:0:
465,179,149158,6,0,P|420:184|339:194,1,90,4|0,3:1|0:0,0:0:0:0:
352,59,149526,5,8,0:0:0:0:
382,96,149649,5,8,0:0:0:0:
388,143,149772,5,8,0:0:0:0:
375,189,149894,6,0,P|330:194|249:204,1,107.999996704102,4|0,3:1|0:0,0:0:0:0:
293,345,150262,5,8,0:0:0:0:
321,295,150385,5,8,0:0:0:0:
313,237,150508,5,8,0:0:0:0:
267,201,150631,6,0,P|222:206|141:216,1,125.999996154785,4|0,3:1|0:0,0:0:0:0:
35,77,150999,5,8,0:0:0:0:
14,140,151121,5,8,0:0:0:0:
20,207,151244,5,8,0:0:0:0:
47,257,151367,5,8,0:0:0:0:
89,295,151489,5,8,3:0:0:0:
143,314,151612,5,8,3:0:0:0:
190,320,151735,5,4,3:0:0:0:
237,315,151858,5,4,3:0:0:0:
282,299,151980,5,4,3:0:0:0:
313,277,152103,6,0,P|354:268|385:267,1,72,4|2,3:1|0:0,0:0:0:0:
293,187,152471,2,0,P|252:196|221:197,1,72,0|2,3:0|0:0,0:0:0:0:
131,117,152839,2,0,P|172:108|203:107,1,72,0|0,3:0|0:0,0:0:0:0:
371,170,153207,5,0,3:0:0:0:
140,213,153391,1,6,0:0:0:0:
451,246,153759,5,8,0:0:0:0:
61,138,153943,1,8,0:0:0:0:
256,192,154127,5,0,3:0:0:0:
256,192,154220,1,8,0:0:0:0:
256,192,154312,2,0,P|283:205|305:223,1,45,8|0,0:0|0:0,0:0:0:0:
415,319,154496,2,0,P|431:338|442:367,1,45,4|0,3:0|0:0,0:0:0:0:
150,114,154680,2,0,L|183:265,1,125.999996154785,12|0,3:0|0:0,0:0:0:0:
451,246,155048,5,12,0:1:0:0:
205,33,155232,2,0,P|290:44|338:46,1,107.999996704102,2|8,3:2|0:0,0:0:0:0:
337,329,155600,1,0,3:0:0:0:
411,36,155784,5,10,0:0:0:0:
282,259,155968,1,0,3:0:0:0:
448,130,156152,6,0,P|469:151|506:162,1,53.9999983520508,8|0,0:0|0:0,0:0:0:0:
218,211,156336,2,0,P|236:189|268:181,1,53.9999983520508,2|0,3:2|0:0,0:0:0:0:
35,102,156520,1,8,0:0:0:0:
142,260,156704,5,2,3:2:0:0:
128,218,156796,1,0,3:0:0:0:
114,176,156888,1,8,0:0:0:0:
70,317,157072,1,2,3:2:0:0:
408,344,157256,1,8,0:0:0:0:
442,67,157440,1,6,3:2:0:0:
104,40,157624,1,12,0:0:0:0:
256,192,157808,5,0,3:0:0:0:
185,55,157993,1,12,0:1:0:0:
353,272,158177,2,0,P|348:200|318:142,1,107.999996704102,2|8,3:2|0:0,0:0:0:0:
119,124,158545,5,0,3:0:0:0:
408,344,158729,1,10,0:0:0:0:
207,130,158913,1,0,3:0:0:0:
441,262,159097,5,8,0:0:0:0:
168,322,159281,1,2,3:2:0:0:
210,328,159373,1,0,3:0:0:0:
252,334,159465,1,8,0:0:0:0:
52,69,159649,1,2,3:2:0:0:
40,153,159833,1,8,0:0:0:0:
133,78,160017,5,2,3:2:0:0:
102,292,160201,1,8,0:0:0:0:
379,306,160385,1,2,3:2:0:0:
410,92,160569,1,12,0:0:0:0:
252,334,160753,5,8,0:0:0:0:
262,262,160845,1,8,0:0:0:0:
272,191,160937,1,12,0:1:0:0:
40,153,161121,6,0,P|99:142|140:108,1,107.999996704102,2|8,3:2|0:0,0:0:0:0:
361,219,161489,1,0,3:0:0:0:
57,56,161673,1,10,0:0:0:0:
182,267,161858,1,0,3:0:0:0:
438,115,162042,6,0,P|443:82|459:53,1,53.9999983520508,8|0,0:0|0:0,0:0:0:0:
222,108,162226,2,0,P|236:134|270:159,1,53.9999983520508,2|0,3:2|0:0,0:0:0:0:
103,286,162410,1,8,0:0:0:0:
402,285,162594,5,2,3:2:0:0:
173,188,162778,1,8,0:0:0:0:
260,69,162962,5,2,3:2:0:0:
218,51,163054,1,8,3:0:0:0:
176,33,163146,1,4,3:0:0:0:
489,166,163330,1,12,0:0:0:0:
180,311,163514,2,0,P|230:290|286:270,1,107.999996704102,12|0,0:0|0:0,0:0:0:0:
62,111,163882,5,12,0:1:0:0:
352,226,164066,2,0,P|401:248|458:273,1,107.999996704102,2|8,3:2|0:0,0:0:0:0:
245,172,164434,5,0,3:0:0:0:
378,52,164618,1,10,0:0:0:0:
132,69,164802,1,0,3:0:0:0:
134,332,164986,1,8,0:0:0:0:
380,315,165170,1,2,3:2:0:0:
180,261,165354,1,8,0:0:0:0:
411,203,165539,5,4,3:0:0:0:
368,191,165631,1,4,3:0:0:0:
324,178,165723,2,0,L|259:160,1,53.9999983520508,12|0,0:0|0:0,0:0:0:0:
124,124,165907,2,0,L|80:70,1,53.9999983520508,8|0,0:0|0:0,0:0:0:0:
256,32,166091,5,2,3:0:0:0:
256,352,166275,1,8,0:0:0:0:
256,32,166459,1,8,0:0:0:0:
455,283,166643,5,8,0:0:0:0:
433,244,166735,1,8,0:0:0:0:
411,203,166827,5,12,0:1:0:0:
399,221,166919,1,0,0:0:0:0:
387,239,167011,1,0,3:0:0:0:
375,257,167103,1,0,3:0:0:0:
384,279,167195,5,8,0:0:0:0:
365,288,167287,1,0,0:0:0:0:
345,298,167379,1,2,3:2:0:0:
326,307,167471,1,0,3:0:0:0:
323,331,167563,5,10,0:0:0:0:
302,330,167655,1,0,0:0:0:0:
280,328,167747,1,2,3:2:0:0:
259,327,167839,1,0,3:0:0:0:
245,347,167931,5,10,0:0:0:0:
227,335,168023,1,0,0:0:0:0:
209,323,168115,1,2,3:2:0:0:
191,311,168207,1,0,3:0:0:0:
168,320,168299,5,8,0:0:0:0:
159,301,168391,1,0,0:0:0:0:
149,281,168483,1,2,3:2:0:0:
140,262,168575,1,0,3:0:0:0:
116,259,168667,5,10,0:0:0:0:
117,238,168759,1,0,0:0:0:0:
119,216,168851,1,2,3:2:0:0:
120,195,168943,1,0,3:0:0:0:
101,181,169035,5,8,0:0:0:0:
113,162,169127,1,0,0:0:0:0:
125,145,169220,2,0,L|159:93,1,53.9999983520508,2|0,3:2|3:0,0:0:0:0:
266,211,169404,2,0,L|203:207,1,53.9999983520508,10|0,0:0|0:0,0:0:0:0:
253,56,169588,2,0,L|281:111,1,53.9999983520508,2|0,3:2|3:0,0:0:0:0:
367,64,169772,5,12,0:1:0:0:
384,76,169864,1,0,0:0:0:0:
394,94,169956,1,0,3:0:0:0:
393,115,170048,1,0,3:0:0:0:
416,136,170140,5,8,0:0:0:0:
424,155,170232,1,0,0:0:0:0:
424,176,170324,1,2,3:2:0:0:
413,193,170416,1,2,3:2:0:0:
422,224,170508,5,10,0:0:0:0:
420,244,170600,1,0,0:0:0:0:
409,262,170692,1,2,3:2:0:0:
391,272,170784,1,0,3:0:0:0:
384,303,170876,5,10,0:0:0:0:
371,320,170968,1,0,0:0:0:0:
354,330,171060,1,2,3:2:0:0:
333,328,171152,1,0,3:0:0:0:
311,352,171244,5,8,0:0:0:0:
292,360,171336,1,0,0:0:0:0:
271,360,171428,1,2,3:2:0:0:
254,349,171520,1,0,3:0:0:0:
223,358,171612,5,10,0:0:0:0:
203,356,171704,1,0,0:0:0:0:
185,345,171796,1,2,3:2:0:0:
175,327,171888,1,0,3:0:0:0:
145,320,171980,5,8,0:0:0:0:
128,307,172072,1,0,0:0:0:0:
118,290,172164,1,0,3:0:0:0:
118,269,172256,1,0,3:0:0:0:
88,238,172348,5,8,0:0:0:0:
108,200,172440,1,8,3:0:0:0:
147,182,172532,1,4,3:0:0:0:
190,180,172624,1,8,0:0:0:0:
229,196,172716,1,4,3:1:0:0:
336,75,172900,5,8,3:0:0:0:
346,329,173085,1,4,3:0:0:0:
491,190,173269,2,0,P|399:188|273:182,1,215.999993408203,12|0,0:0|3:0,0:0:0:0:
153,133,173821,2,0,P|135:81|117:29,1,107.999996704102,8|0,0:0|0:0,0:0:0:0:
30,228,174189,5,8,0:0:0:0:
119,290,174373,1,8,0:0:0:0:
309,202,174741,5,8,0:0:0:0:
203,182,174925,1,8,0:0:0:0:
393,94,175293,5,8,0:0:0:0:
482,156,175477,2,0,P|469:238|453:327,1,161.999995056153,12|0,0:0|0:0,0:0:0:0:
455,315,175845,1,8,0:0:0:0:
302,294,176029,6,0,P|250:275|198:258,1,107.999996704102,8|0,0:0|3:0,0:0:0:0:
185,242,176305,1,0,3:0:0:0:
170,225,176397,2,0,P|147:203|124:174,1,53.9999983520508,4|0,3:0|0:0,0:0:0:0:
274,115,176581,2,0,P|271:141|272:168,1,53.9999983520508,4|0,3:0|0:0,0:0:0:0:
392,172,176766,2,0,P|410:152|430:134,1,53.9999983520508,10|0,3:0|0:0,0:0:0:0:
455,315,176950,5,0,3:0:0:0:
455,315,177042,1,0,3:0:0:0:
455,315,177134,1,8,0:0:0:0:
334,269,177318,1,8,0:0:0:0:
476,260,177686,5,8,0:0:0:0:
250,228,177870,1,8,0:0:0:0:
497,205,178238,5,8,0:0:0:0:
166,187,178422,2,0,P|146:111|124:24,1,161.999995056153,12|0,0:0|0:0,0:0:0:0:
125,30,178790,1,8,0:0:0:0:
60,250,178974,6,0,P|45:194|29:130,1,107.999996704102,8|0,0:0|3:0,0:0:0:0:
42,125,179250,1,0,3:0:0:0:
51,105,179342,1,8,3:0:0:0:
96,132,179434,1,0,3:0:0:0:
150,133,179526,1,4,3:0:0:0:
197,108,179618,1,0,3:0:0:0:
225,63,179710,1,8,0:0:0:0:
248,353,180078,5,4,3:1:0:0:
156,252,180262,1,2,0:0:0:0:
299,231,180446,1,8,0:0:0:0:
259,358,180631,5,2,0:0:0:0:
348,144,180815,1,0,3:0:0:0:
97,181,180999,1,2,0:0:0:0:
270,363,181183,5,8,0:0:0:0:
38,110,181367,2,0,P|128:95|221:80,1,180,2|2,0:0|0:0,0:0:0:0:
397,57,181919,1,8,0:0:0:0:
259,358,182103,5,2,0:0:0:0:
97,181,182287,1,0,3:0:0:0:
348,144,182471,1,2,3:2:0:0:
248,353,182655,5,8,0:0:0:0:
299,231,182839,1,2,0:0:0:0:
156,252,183023,1,4,3:1:0:0:
417,327,183207,5,4,3:0:0:0:
417,57,183391,1,8,0:0:0:0:
156,252,183575,2,0,P|148:205|138:152,1,90,4|0,3:2|0:0,0:0:0:0:
23,308,183943,1,8,3:0:0:0:
156,252,184127,2,0,P|202:260|249:268,1,90,8|0,0:0|0:0,0:0:0:0:
448,189,184496,5,8,0:0:0:0:
64,195,184680,1,8,0:0:0:0:
319,291,185048,5,0,0:0:0:0:
199,297,185232,1,2,0:0:0:0:
193,93,185416,1,0,0:0:0:0:
313,87,185600,1,2,0:0:0:0:
256,192,185784,5,2,0:0:0:0:
