osu file format v14

[General]
AudioFilename: audio.mp3
AudioLeadIn: 0
PreviewTime: 75777
Countdown: 0
SampleSet: Soft
StackLeniency: 0.7
Mode: 0
LetterboxInBreaks: 0
EpilepsyWarning: 1
WidescreenStoryboard: 1

[Editor]
Bookmarks: 20750,20911,20991,21071,21151,21312,21392,21472,21552,21633,21793,21873,21953,22034
DistanceSpacing: 1.3
BeatDivisor: 4
GridSize: 32
TimelineZoom: 1.7

[Metadata]
Title:Innocence
TitleUnicode:イノセンス
Artist:Aoba Ringo
ArtistUnicode:青葉りんご
Creator:tomatas95
Version:Normal
Source:幻創のイデア~Oratorio Phantasm Historia~
Tags:Gensou no Idea 3rdeye yaleufeu bossandy まもも mamomo visual novel japanese video game eroge kyuukai jeezyh Kokusei misure Eimi Fukada opening short ver vn op galgame j-pop pop jpop
BeatmapID:2545740
BeatmapSetID:1178466

[Difficulty]
HPDrainRate:3
CircleSize:3
OverallDifficulty:4
ApproachRate:6
SliderMultiplier:1
SliderTickRate:1

[Events]
//Background and Video events
Video,642,"bossandyIloveyou.avi"
0,0,"Mitsuki.jpg",0,0
//Break Periods
//Storyboard Layer 0 (Background)
//Storyboard Layer 1 (Fail)
//Storyboard Layer 2 (Pass)
//Storyboard Layer 3 (Foreground)
//Storyboard Layer 4 (Overlay)
//Storyboard Sound Samples

[TimingPoints]
12890,320.855614973262,4,2,1,60,1,0
14173,-100,4,2,3,70,0,0
14493,-100,4,2,1,70,0,0
19226,-100,4,2,1,5,0,0
19307,-100,4,2,2,70,0,0
19627,-100,4,2,1,70,0,0
24440,-100,4,2,1,75,0,0
24601,-100,4,2,1,70,0,0
29493,-100,4,2,1,5,0,0
29574,-100,4,2,2,70,0,0
29894,-100,4,2,1,70,0,0
34708,-100,4,2,1,55,0,0
37194,-100,4,2,1,5,0,0
37275,-100,4,2,1,55,0,0
39761,-100,4,2,1,5,0,0
39841,-100,4,2,1,55,0,0
44894,-100,4,2,1,5,0,0
44975,-100,4,2,1,45,0,0
45295,-100,4,2,1,55,0,0
47461,-100,4,2,1,5,0,0
47542,-100,4,2,1,55,0,0
50028,-100,4,2,1,5,0,0
50109,-100,4,2,1,55,0,0
54280,-100,4,2,2,55,0,0
55242,-100,4,2,2,65,0,0
55562,-100,4,2,1,65,0,0
55883,-100,4,2,1,65,0,0
69680,-100,4,2,2,55,0,0
69681,-100,4,2,2,55,0,0
70644,-100,4,2,1,65,0,0
72247,-100,4,2,2,55,0,0
72568,-100,4,2,2,55,0,0
73129,-100,4,2,2,5,0,0
73210,-100,4,2,1,65,0,0
73691,-100,4,2,1,65,0,0
73852,-100,4,2,2,55,0,0
74012,-100,4,2,1,65,0,0
74333,-100,4,2,2,55,0,0
74493,-100,4,2,1,65,0,0
74494,-100,4,2,1,65,0,0
75135,-100,4,2,2,55,0,0
75455,-100,4,2,1,55,0,0
75456,-100,4,2,1,55,0,0
75777,-90.9090909090909,4,2,3,80,0,1
76097,-90.9090909090909,4,2,1,80,0,1
76418,-90.9090909090909,4,2,1,80,0,1
76660,-90.9090909090909,4,2,3,80,0,1
76740,-90.9090909090909,4,2,1,80,0,1
77622,-90.9090909090909,4,2,3,80,0,1
77702,-90.9090909090909,4,2,1,80,0,1
79708,-90.9090909090909,4,2,3,80,0,1
79788,-90.9090909090909,4,2,1,80,0,1
80269,-90.9090909090909,4,2,1,80,0,1
80830,-90.9090909090909,4,2,1,5,0,1
80911,-90.9090909090909,4,2,3,80,0,1
81231,-90.9090909090909,4,2,1,80,0,1
81392,-90.9090909090909,4,2,3,80,0,1
81553,-90.9090909090909,4,2,1,80,0,1
82756,-90.9090909090909,4,2,3,80,0,1
82836,-90.9090909090909,4,2,1,80,0,1
83478,-90.9090909090909,4,2,2,80,0,1
83798,-90.9090909090909,4,2,1,80,0,1
86045,-90.9090909090909,4,2,2,80,0,1
86365,-90.9090909090909,4,2,1,80,0,1
86606,-90.9090909090909,4,2,3,80,0,1
86686,-90.9090909090909,4,2,1,80,0,1
90376,-90.9090909090909,4,2,3,80,0,1
90537,-90.9090909090909,4,2,1,80,0,1
91178,-90.9090909090909,4,2,2,80,0,1
91498,-90.9090909090909,4,2,1,80,0,1
91660,-90.9090909090909,4,2,3,80,0,1
91819,-90.9090909090909,4,2,3,80,0,1
91820,-90.9090909090909,4,2,1,80,0,1
92943,-90.9090909090909,4,2,3,80,0,1
93103,-90.9090909090909,4,2,1,80,0,1
93745,-90.9090909090909,4,2,3,80,0,1
94065,-90.9090909090909,4,2,1,80,0,1
95269,-90.9090909090909,4,2,3,80,0,1
95349,-90.9090909090909,4,2,1,80,0,1
95670,-90.9090909090909,4,2,1,80,0,0
95710,-90.9090909090909,4,2,1,45,0,0
95750,-90.9090909090909,4,2,3,80,0,0
95791,-90.9090909090909,4,2,1,45,0,0
95831,-90.9090909090909,4,2,1,80,0,0
95871,-90.9090909090909,4,2,1,45,0,0
95911,-90.9090909090909,4,2,1,80,0,0
95951,-90.9090909090909,4,2,1,45,0,0
95991,-90.9090909090909,4,2,1,80,0,0
96031,-90.9090909090909,4,2,1,45,0,0
96071,-90.9090909090909,4,2,3,80,0,0
96111,-90.9090909090909,4,2,1,45,0,0
96152,-90.9090909090909,4,2,3,80,0,0
96192,-90.9090909090909,4,2,1,45,0,0
96232,-86.9565217391304,4,2,3,80,0,0
96272,-86.9565217391304,4,2,3,45,0,0
96312,-90.9090909090909,4,2,3,80,0,1
96632,-90.9090909090909,4,2,1,80,0,1
96793,-90.9090909090909,4,2,3,80,0,1
96953,-90.9090909090909,4,2,3,80,0,1
96954,-90.9090909090909,4,2,1,80,0,1
98878,-90.9090909090909,4,2,1,80,0,1
98879,-90.9090909090909,4,2,2,80,0,1
99199,-90.9090909090909,4,2,1,80,0,1
99200,-90.9090909090909,4,2,1,80,0,1
100082,-90.9090909090909,4,2,3,80,0,1
100162,-90.9090909090909,4,2,1,80,0,1
100804,-90.9090909090909,4,2,1,80,0,1
101446,-90.9090909090909,4,2,2,80,0,1
101766,-90.9090909090909,4,2,1,80,0,1
104012,-90.9090909090909,4,2,2,80,0,1
104332,-90.9090909090909,4,2,1,80,0,1
104654,-90.9090909090909,4,2,1,80,0,1
105376,-90.9090909090909,4,2,3,80,0,1
105456,-90.9090909090909,4,2,1,80,0,1
108424,-90.9090909090909,4,2,3,80,0,1
108504,-90.9090909090909,4,2,1,80,0,1
110510,-90.9090909090909,4,2,3,80,0,1
110590,-90.9090909090909,4,2,1,80,0,1
110991,-90.9090909090909,4,2,3,80,0,1
111071,-90.9090909090909,4,2,1,80,0,1
111713,-90.9090909090909,4,2,3,80,0,1
112033,-90.9090909090909,4,2,1,80,0,1
112194,-90.9090909090909,4,2,3,80,0,1
112354,-90.9090909090909,4,2,3,80,0,1
112355,-90.9090909090909,4,2,1,80,0,1
113558,-90.9090909090909,4,2,3,80,0,1
113638,-90.9090909090909,4,2,1,80,0,1
113879,-90.9090909090909,4,2,3,80,0,1
113959,-90.9090909090909,4,2,1,80,0,1
114280,-90.9090909090909,4,2,3,80,0,1
114600,-90.9090909090909,4,2,1,80,0,1
116365,-86.9565217391304,4,2,1,70,0,0

[Colours]
Combo1 : 252,150,252
Combo2 : 51,194,249
Combo3 : 71,250,80
Combo4 : 235,247,87

[HitObjects]
71,61,14173,6,0,B|116:51|116:51|179:70,1,100,4|2,3:2|1:2,0:0:0:0:
245,130,14815,2,0,L|301:127,2,50,2|2|2,3:2|3:2|1:2,0:0:0:0:
180,206,15456,2,0,L|173:320,1,100,2|2,2:0|1:2,0:0:0:0:
79,338,16098,2,0,L|76:282,1,50,2|2,3:2|3:2,0:0:0:0:
73,238,16419,1,2,1:2:0:0:
7,160,16740,6,0,P|43:136|115:145,1,100,2|2,3:2|1:2,0:0:0:0:
144,156,17221,1,0,1:0:0:0:
191,169,17381,2,0,L|308:172,1,100,2|2,3:2|1:2,0:0:0:0:
358,245,18023,2,0,L|457:242,1,100,2|2,2:0|1:2,0:0:0:0:
511,157,18665,2,0,L|509:98,1,50,2|0,3:2|3:0,0:0:0:0:
503,57,18986,1,2,1:2:0:0:
415,7,19307,6,0,B|401:32|401:32|402:112,1,100,4|2,3:2|1:2,0:0:0:0:
355,195,19948,2,0,L|358:251,2,50,2|2|2,3:2|3:2|1:2,0:0:0:0:
325,153,20430,1,0,3:0:0:0:
291,116,20590,2,0,P|248:123|209:180,1,100,2|2,2:0|1:2,0:0:0:0:
206,264,21232,2,0,L|208:313,1,50,2|2,3:2|3:2,0:0:0:0:
212,363,21553,1,2,1:2:0:0:
305,327,21873,6,0,B|349:318|349:318|413:333,1,100,2|2,3:2|1:2,0:0:0:0:
452,345,22355,1,0,1:0:0:0:
501,344,22515,2,0,L|511:223,1,100,2|2,3:2|1:2,0:0:0:0:
508,143,23157,2,0,P|462:129|392:152,1,100,2|2,2:0|1:2,0:0:0:0:
324,188,23799,2,0,L|266:186,1,50,2|0,3:2|1:0,0:0:0:0:
229,209,24119,2,0,L|171:207,1,50,2|0,1:2|1:0,0:0:0:0:
128,204,24440,6,0,B|106:185|106:185|102:112,1,100,4|2,3:2|1:2,0:0:0:0:
102,13,25082,2,0,L|160:11,1,50,2|2,3:2|3:2,0:0:0:0:
201,16,25403,1,2,1:2:0:0:
268,88,25724,2,0,P|277:115|267:203,1,100,2|2,2:0|1:2,0:0:0:0:
212,264,26365,2,0,L|213:313,1,50,2|2,3:2|3:2,0:0:0:0:
219,363,26686,1,2,1:2:0:0:
304,311,27007,6,0,P|352:301|403:312,1,100,2|2,3:2|1:2,0:0:0:0:
441,340,27488,1,0,1:0:0:0:
487,358,27649,2,0,P|499:330|490:252,1,100,2|2,3:2|1:2,0:0:0:0:
413,202,28291,2,0,P|401:174|410:96,1,100,2|2,3:2|1:2,0:0:0:0:
455,19,28932,2,0,L|504:17,2,50,2|0|2,3:2|3:0|1:2,0:0:0:0:
355,33,29574,6,0,L|234:37,1,100,4|2,3:2|1:2,0:0:0:0:
156,55,30216,2,0,L|154:104,1,50,2|2,3:2|3:2,0:0:0:0:
153,155,30537,1,2,1:2:0:0:
195,245,30857,2,0,P|146:254|99:239,1,100,2|2,2:0|1:2,0:0:0:0:
34,162,31499,2,0,L|32:113,1,50,2|2,3:2|3:2,0:0:0:0:
32,61,31820,1,2,1:2:0:0:
124,22,32141,6,0,B|166:15|166:15|239:33,1,100,2|2,3:2|1:2,0:0:0:0:
262,58,32622,1,0,1:0:0:0:
296,94,32783,2,0,L|293:212,1,100,2|2,3:2|1:2,0:0:0:0:
253,285,33424,2,0,P|297:277|366:298,1,100,2|2,2:0|1:2,0:0:0:0:
435,342,34066,2,0,L|444:285,1,50,0|0,1:0|1:0,0:0:0:0:
458,245,34387,2,0,L|449:188,1,50,0|0,1:0|1:0,0:0:0:0:
423,153,34708,6,0,L|446:4,2,150,6|2|2,3:2|2:0|3:2,0:0:0:0:
358,229,35991,1,2,3:2:0:0:
316,257,36152,2,0,P|246:282|175:247,1,150,2|2,2:0|3:2,0:0:0:0:
114,177,36954,1,2,3:2:0:0:
46,250,37275,6,0,P|16:182|40:113,2,150,2|2|2,3:2|2:0|3:2,0:0:0:0:
157,350,38718,2,0,L|268:359,1,100,2|2,2:0|2:0,0:0:0:0:
306,351,39200,2,0,L|371:343,1,50,2|0,3:2|2:0,0:0:0:0:
405,337,39521,1,2,3:2:0:0:
450,242,39841,6,0,P|501:294|504:368,2,150,2|2|2,3:2|2:0|3:2,0:0:0:0:
317,92,41446,2,0,L|267:87,1,50,2|0,3:2|2:0,0:0:0:0:
217,78,41767,1,2,3:2:0:0:
168,67,41927,2,0,L|18:82,1,150,2|0,2:0|3:2,0:0:0:0:
61,172,42729,2,0,L|167:190,1,100,0|0,3:2|3:0,0:0:0:0:
207,203,43210,1,2,2:0:0:0:
252,225,43371,6,0,L|241:343,2,100,2|2|0,3:2|3:2|3:0,0:0:0:0:
262,125,44333,2,0,L|267:66,1,50,2|2,3:2|2:0,0:0:0:0:
272,25,44654,1,2,3:2:0:0:
357,76,44975,6,0,B|395:91|395:91|470:77,1,100,6|0,3:2|3:0,0:0:0:0:
502,69,45456,2,0,L|497:185,1,100,2|0,2:0|2:0,0:0:0:0:
489,218,45938,1,2,3:2:0:0:
445,307,46258,1,0,3:0:0:0:
396,319,46419,2,0,L|296:323,1,100,2|0,2:0|2:0,0:0:0:0:
246,328,46900,1,0,3:2:0:0:
151,294,47221,2,0,L|148:230,1,50,2|0,3:2|0:0,0:0:0:0:
148,193,47542,6,0,L|153:33,2,150,2|2|2,3:2|2:0|3:2,0:0:0:0:
145,343,48986,2,0,P|178:356|246:339,1,100,2|0,2:0|2:0,0:0:0:0:
279,312,49467,2,0,L|342:309,1,50,2|0,3:2|2:0,0:0:0:0:
379,306,49788,1,2,3:2:0:0:
439,226,50109,6,0,P|467:265|456:369,2,150,2|2|2,3:2|2:0|3:2,0:0:0:0:
300,183,51553,1,2,2:0:0:0:
300,183,51713,1,2,3:2:0:0:
296,89,52034,2,0,L|395:93,1,100,2|2,3:2|3:2,0:0:0:0:
479,153,52676,6,0,P|497:106|459:11,2,150,2|2|2,3:2|2:0|3:2,0:0:0:0:
384,185,53959,1,0,3:2:0:0:
285,165,54280,2,0,L|216:161,1,50,2|2,3:2|2:0,0:0:0:0:
187,145,54601,2,0,L|137:147,1,50,2|2,3:2|2:0,0:0:0:0:
88,160,54922,1,2,3:2:0:0:
28,239,55242,6,0,B|80:266|80:266|229:255,1,200,6|0,3:2|3:0,0:0:0:0:
318,231,56205,2,0,L|427:236,1,100,0|0,3:0|3:0,0:0:0:0:
466,246,56686,1,2,2:0:0:0:
500,209,56847,2,0,P|511:176|494:111,1,100,2|2,3:2|3:2,0:0:0:0:
433,36,57488,1,2,3:2:0:0:
384,22,57649,6,0,P|336:13|269:32,1,100,2|2,2:0|2:0,0:0:0:0:
266,69,58130,2,0,L|256:274,1,200,2|0,3:2|3:0,0:0:0:0:
183,335,59093,2,0,L|180:384,2,50,0|0|0,3:0|2:0|3:0,0:0:0:0:
166,236,59734,1,0,3:0:0:0:
70,266,60055,2,0,L|67:216,1,50,2|2,3:2|2:0,0:0:0:0:
65,165,60376,6,0,P|98:73|188:42,1,200,2|0,3:2|3:0,0:0:0:0:
225,140,61339,1,0,3:0:0:0:
225,140,61499,1,0,2:0:0:0:
216,239,61820,1,2,2:0:0:0:
249,275,61980,2,0,L|298:279,1,50,2|0,3:2|2:0,0:0:0:0:
348,286,62301,2,0,L|447:276,1,100,2|2,3:2|3:2,0:0:0:0:
497,268,62783,1,2,2:0:0:0:
463,174,63103,5,2,2:0:0:0:
436,131,63264,2,0,P|414:108|255:115,1,200,0|0,3:1|3:0,0:0:0:0:
221,144,64066,1,0,2:0:0:0:
157,221,64387,2,0,L|147:320,1,100,2|0,2:0|2:0,0:0:0:0:
130,367,64868,1,0,3:0:0:0:
32,342,65189,2,0,L|27:292,1,50,2|2,3:2|2:0,0:0:0:0:
16,243,65510,6,0,P|17:202|143:126,1,200,2|0,3:2|3:0,0:0:0:0:
223,183,66472,1,0,3:0:0:0:
223,183,66633,1,0,2:0:0:0:
289,107,66954,1,2,2:0:0:0:
323,70,67114,2,0,L|425:66,1,100,2|2,3:2|3:2,0:0:0:0:
503,126,67756,1,2,3:2:0:0:
501,175,67916,6,0,L|505:277,1,100,2|2,2:0|2:0,0:0:0:0:
488,325,68398,2,0,P|399:364|293:322,1,200,2|0,3:2|3:0,0:0:0:0:
273,294,69200,2,0,L|262:236,1,50,2|0,2:0|3:0,0:0:0:0:
197,170,69681,2,0,L|206:120,2,50,2|2|2,3:2|2:0|3:2,0:0:0:0:
173,267,70323,1,2,3:2:0:0:
155,313,70483,1,2,2:0:0:0:
118,349,70644,6,0,P|67:354|5:270,1,150,2|2,3:2|3:2,0:0:0:0:
8,185,71446,1,2,2:0:0:0:
45,151,71606,2,0,L|147:147,1,100,2|2,3:2|3:2,0:0:0:0:
221,81,72248,2,0,L|218:13,2,50,2|2|2,3:2|2:0|3:2,0:0:0:0:
255,174,72889,1,2,3:2:0:0:
320,98,73210,6,0,B|384:84|384:84|468:113,1,150,6|2,2:0|3:2,0:0:0:0:
495,206,74012,1,0,1:0:0:0:
492,256,74173,2,0,L|489:324,1,50,2|2,2:0|3:2,0:0:0:0:
465,349,74494,2,0,P|395:341|351:225,1,200,2|2,2:0|3:2,0:0:0:0:
205,65,75777,6,0,L|197:188,1,110.000003356934,4|0,3:2|1:0,0:0:0:0:
183,284,76419,2,0,L|249:288,2,55.0000016784668,0|0|0,3:0|3:0|1:0,0:0:0:0:
127,286,76900,1,0,3:0:0:0:
32,231,77221,1,2,3:2:0:0:
6,185,77381,2,0,P|-2:138|34:69,1,110.000003356934,2|2,1:2|3:2,0:0:0:0:
55,41,77863,1,0,3:0:0:0:
106,21,78023,1,0,1:0:0:0:
181,101,78344,6,0,B|220:113|220:113|300:95,1,110.000003356934,4|0,3:2|1:0,0:0:0:0:
330,63,78825,2,0,P|376:52|454:71,1,110.000003356934,0|0,1:0|3:0,0:0:0:0:
474,103,79307,2,0,L|481:163,1,55.0000016784668,2|0,1:2|3:0,0:0:0:0:
448,262,79788,2,0,P|402:273|325:248,1,110.000003356934,2|0,3:2|0:0,0:0:0:0:
288,246,80269,2,0,L|233:239,1,55.0000016784668,2|0,3:2|3:0,0:0:0:0:
178,240,80590,1,2,1:2:0:0:
90,175,80911,6,0,P|69:210|76:285,1,110.000003356934,4|0,3:2|1:0,0:0:0:0:
156,348,81553,2,0,L|210:354,1,55.0000016784668,0|0,3:0|3:0,0:0:0:0:
267,361,81873,2,0,L|376:348,1,110.000003356934,2|0,1:2|3:0,0:0:0:0:
484,325,82515,2,0,L|490:270,1,55.0000016784668,2|0,1:2|3:0,0:0:0:0:
467,220,82836,2,0,L|460:165,1,55.0000016784668,2|0,3:2|3:0,0:0:0:0:
482,114,83157,1,2,1:2:0:0:
398,42,83478,6,0,P|363:27|276:49,1,110.000003356934,4|0,3:2|1:0,0:0:0:0:
276,89,83959,2,0,P|223:101|171:83,1,110.000003356934,0|0,1:0|3:0,0:0:0:0:
139,39,84440,2,0,P|102:20|62:147,1,220.000006713867,6|0,1:2|1:0,0:0:0:0:
112,230,85403,2,0,L|105:299,2,55.0000016784668,0|0|2,3:0|1:0|1:2,0:0:0:0:
144,185,85884,1,2,1:2:0:0:
188,152,86045,6,0,B|227:139|227:139|308:161,1,110.000003356934,4|0,3:2|1:0,0:0:0:0:
395,198,86686,1,0,3:0:0:0:
412,250,86847,2,0,L|417:304,1,55.0000016784668,2|2,3:2|1:2,0:0:0:0:
427,363,87168,1,0,3:0:0:0:
427,363,87328,1,2,2:0:0:0:
318,344,87649,2,0,L|255:338,1,55.0000016784668,0|0,1:0|2:0,0:0:0:0:
216,309,87970,2,0,L|222:246,2,55.0000016784668,2|0|2,3:2|3:0|1:2,0:0:0:0:
118,359,88611,6,0,P|103:314|113:251,1,110.000003356934,2|0,3:2|1:0,0:0:0:0:
149,212,89093,2,0,P|158:158|143:106,1,110.000003356934,0|0,1:0|3:0,0:0:0:0:
100,70,89574,1,2,1:2:0:0:
199,23,89895,2,0,L|253:17,1,55.0000016784668,2|2,3:2|3:2,0:0:0:0:
308,14,90216,1,0,1:0:0:0:
395,81,90537,2,0,L|449:75,2,55.0000016784668,2|2|2,3:2|3:2|1:2,0:0:0:0:
342,98,91018,1,2,2:0:0:0:
292,121,91178,6,0,B|274:151|274:151|277:244,1,110.000003356934,4|0,3:2|1:0,0:0:0:0:
261,337,91820,2,0,L|206:331,2,55.0000016784668,0|0|0,3:0|3:0|1:0,0:0:0:0:
313,354,92301,1,2,3:2:0:0:
368,356,92462,6,0,P|413:346|445:282,1,110.000003356934,6|0,2:0|1:0,0:0:0:0:
460,185,93103,2,0,L|465:130,1,55.0000016784668,0|0,3:0|3:0,0:0:0:0:
470,75,93424,1,0,1:0:0:0:
374,20,93745,6,0,B|325:8|325:8|254:23,1,110.000003356934,4|0,3:2|1:0,0:0:0:0:
219,48,94226,1,0,3:0:0:0:
169,71,94387,2,0,L|55:62,1,110.000003356934,2|0,3:2|1:0,0:0:0:0:
101,164,95029,2,0,L|215:155,1,110.000003356934,2|0,1:2|1:0,0:0:0:0:
167,260,95670,2,0,L|53:251,1,110.000003356934,2|0,3:2|1:0,0:0:0:0:
110,348,96312,6,0,B|157:362|157:362|238:348,1,110.000003356934,4|0,3:2|1:0,0:0:0:0:
312,296,96954,2,0,L|316:233,2,55.0000016784668,0|0|0,3:0|3:0|1:0,0:0:0:0:
317,355,97435,1,0,3:0:0:0:
317,355,97595,1,2,3:2:0:0:
420,317,97916,2,0,L|416:254,1,55.0000016784668,2|0,1:2|3:0,0:0:0:0:
411,207,98237,2,0,L|416:144,1,55.0000016784668,2|0,3:2|3:0,0:0:0:0:
432,99,98558,1,2,1:2:0:0:
330,142,98879,6,0,B|285:153|285:153|199:127,1,110.000003356934,4|0,3:2|1:0,0:0:0:0:
169,125,99360,2,0,L|42:114,1,110.000003356934,0|0,1:0|3:0,0:0:0:0:
8,114,99841,1,2,1:2:0:0:
8,114,100002,1,0,3:0:0:0:
74,26,100323,2,0,P|117:16|188:35,1,110.000003356934,2|0,3:2|0:0,0:0:0:0:
231,50,100804,2,0,L|285:53,1,55.0000016784668,2|2,3:2|3:2,0:0:0:0:
340,61,101125,1,2,1:2:0:0:
314,168,101446,6,0,L|311:298,1,110.000003356934,4|0,3:2|1:0,0:0:0:0:
253,371,102087,2,0,L|198:374,1,55.0000016784668,0|0,3:0|3:0,0:0:0:0:
143,364,102408,2,0,L|33:357,1,110.000003356934,2|0,1:2|3:0,0:0:0:0:
89,262,103050,2,0,L|143:258,1,55.0000016784668,2|0,1:2|3:0,0:0:0:0:
194,235,103371,2,0,L|248:231,1,55.0000016784668,2|0,3:2|3:0,0:0:0:0:
296,203,103692,1,2,1:2:0:0:
383,268,104012,6,0,P|404:236|388:153,1,110.000003356934,4|0,3:2|1:0,0:0:0:0:
371,118,104494,2,0,L|251:109,1,110.000003356934,2|0,0:2|3:0,0:0:0:0:
206,110,104975,2,0,P|106:137|21:59,1,220.000006713867,6|0,1:2|1:0,0:0:0:0:
129,26,105938,2,0,L|193:21,1,55.0000016784668,0|0,3:0|3:0,0:0:0:0:
236,7,106258,1,2,1:2:0:0:
292,15,106419,1,2,1:2:0:0:
337,46,106579,6,0,P|355:91|344:172,1,110.000003356934,4|0,3:2|1:0,0:0:0:0:
304,251,107221,2,0,L|299:305,1,55.0000016784668,0|0,3:0|3:0,0:0:0:0:
273,355,107542,2,0,P|245:365|165:344,1,110.000003356934,2|0,1:2|2:0,0:0:0:0:
116,250,108184,2,0,L|61:254,1,55.0000016784668,2|0,1:2|2:0,0:0:0:0:
14,283,108504,2,0,L|18:337,2,55.0000016784668,2|0|2,3:2|3:0|1:2,0:0:0:0:
18,172,109146,6,0,B|55:154|55:154|131:163,1,110.000003356934,2|0,3:2|1:0,0:0:0:0:
171,188,109627,2,0,L|302:194,1,110.000003356934,0|0,1:0|3:0,0:0:0:0:
335,203,110109,1,2,1:2:0:0:
442,179,110430,1,0,2:0:0:0:
466,130,110590,2,0,L|470:75,1,55.0000016784668,0|0,3:2|1:0,0:0:0:0:
384,5,111071,2,0,L|329:9,1,55.0000016784668,2|2,3:2|3:2,0:0:0:0:
276,19,111392,2,0,L|221:14,1,55.0000016784668,2|2,1:2|3:2,0:0:0:0:
166,11,111713,6,0,B|142:43|142:43|145:135,1,110.000003356934,4|0,3:2|1:0,0:0:0:0:
138,223,112355,2,0,L|83:227,1,55.0000016784668,0|0,3:0|3:0,0:0:0:0:
28,230,112676,1,0,1:0:0:0:
39,119,112996,2,0,P|75:104|159:121,1,110.000003356934,4|0,3:2|1:0,0:0:0:0:
190,142,113478,1,0,3:0:0:0:
237,168,113638,2,0,P|290:178|342:161,1,110.000003356934,0|0,3:0|1:0,0:0:0:0:
420,83,114280,6,0,B|445:117|445:117|446:203,1,110.000003356934,4|0,3:2|1:0,0:0:0:0:
434,238,114761,1,2,1:2:0:0:
391,272,114922,2,0,L|281:277,1,110.000003356934,2|2,3:2|1:2,0:0:0:0:
176,311,115563,2,0,L|180:365,2,55.0000016784668,2|0|2,1:2|1:0|3:2,0:0:0:0:
176,204,116205,1,2,3:2:0:0:
176,204,116365,1,2,3:2:0:0:
