osu file format v14

[General]
AudioFilename: audio.mp3
AudioLeadIn: 0
PreviewTime: 75777
Countdown: 0
SampleSet: Soft
StackLeniency: 0.2
Mode: 0
LetterboxInBreaks: 0
EpilepsyWarning: 1
WidescreenStoryboard: 1

[Editor]
Bookmarks: 13525,54594,95664
DistanceSpacing: 1.3
BeatDivisor: 4
GridSize: 4
TimelineZoom: 3.599998

[Metadata]
Title:Innocence
TitleUnicode:イノセンス
Artist:Aoba Ringo
ArtistUnicode:青葉りんご
Creator:tomatas95
Version:Kyuukai x Jeezyh's Destruction
Source:幻創のイデア~Oratorio Phantasm Historia~
Tags:Gensou no Idea 3rdeye yaleufeu bossandy まもも mamomo visual novel japanese video game eroge kyuukai jeezyh Kokusei misure Eimi Fukada opening short ver vn op galgame j-pop pop jpop
BeatmapID:2579548
BeatmapSetID:1178466

[Difficulty]
HPDrainRate:6
CircleSize:4
OverallDifficulty:9
ApproachRate:9.3
SliderMultiplier:1.8
SliderTickRate:1

[Events]
//Background and Video events
Video,642,"bossandyIloveyou.avi"
0,0,"Mitsukiwaifu.jpg",0,0
//Break Periods
//Storyboard Layer 0 (Background)
//Storyboard Layer 1 (Fail)
//Storyboard Layer 2 (Pass)
//Storyboard Layer 3 (Foreground)
//Storyboard Layer 4 (Overlay)
//Storyboard Sound Samples

[TimingPoints]
12890,320.855614973262,4,2,1,60,1,0
13050,-66.6666666666667,4,2,1,60,0,0
14173,-100,4,2,3,70,0,0
14493,-100,4,2,1,70,0,0
19226,-100,4,2,1,5,0,0
19307,-100,4,2,2,70,0,0
19627,-100,4,2,1,70,0,0
24440,-100,4,2,1,75,0,0
24601,-100,4,2,1,70,0,0
29574,-100,4,2,2,70,0,0
29894,-100,4,2,1,70,0,0
34066,-66.6666666666667,4,2,1,70,0,0
34708,-125,4,2,1,55,0,0
44975,-125,4,2,1,45,0,0
45295,-125,4,2,1,55,0,0
54280,-125,4,2,2,55,0,0
55242,-111.111111111111,4,2,2,65,0,0
55563,-111.111111111111,4,2,1,65,0,0
69681,-111.111111111111,4,2,2,55,0,0
70644,-111.111111111111,4,2,1,65,0,0
72247,-111.111111111111,4,2,2,55,0,0
73210,-100,4,2,1,65,0,0
73531,-100,4,2,2,55,0,0
74012,-99.9999999999999,4,2,1,65,0,0
74333,-99.9999999999999,4,2,2,55,0,0
74653,-99.9999999999999,4,2,1,65,0,0
75135,-99.9999999999999,4,2,2,55,0,0
75456,-99.9999999999999,4,2,1,55,0,0
75777,-83.3333333333333,4,2,3,80,0,1
76098,-83.3333333333333,4,2,1,80,0,1
77621,-83.3333333333333,4,2,3,5,0,1
77702,-83.3333333333333,4,2,1,80,0,1
80830,-83.3333333333333,4,2,1,5,0,1
80911,-83.3333333333333,4,2,3,80,0,1
81231,-83.3333333333333,4,2,1,80,0,1
83397,-83.3333333333333,4,2,1,5,0,1
83478,-83.3333333333333,4,2,2,80,0,1
83638,-83.3333333333333,4,2,1,80,0,1
86045,-83.3333333333333,4,2,2,80,0,1
86365,-83.3333333333333,4,2,1,80,0,1
87889,-83.3333333333333,4,2,3,5,0,1
87970,-83.3333333333333,4,2,1,80,0,1
91178,-83.3333333333333,4,2,2,80,0,1
91418,-83.3333333333333,4,2,2,5,0,1
91499,-83.3333333333333,4,2,1,80,0,1
93023,-83.3333333333333,4,2,3,5,0,1
93103,-83.3333333333333,4,2,1,80,0,1
93343,-83.3333333333333,4,2,1,5,0,1
93424,-83.3333333333333,4,2,1,80,0,1
93664,-83.3333333333333,4,2,1,5,0,1
93745,-83.3333333333333,4,2,3,80,0,1
94065,-83.3333333333333,4,2,1,80,0,1
95269,-83.3333333333333,4,2,3,80,0,1
95349,-83.3333333333333,4,2,1,80,0,1
95429,-83.3333333333333,4,2,3,80,0,1
95510,-83.3333333333333,4,2,1,80,0,1
95590,-83.3333333333333,4,2,3,80,0,1
95670,-83.3333333333333,4,2,1,80,0,0
95750,-83.3333333333333,4,2,3,80,0,0
95830,-83.3333333333333,4,2,1,80,0,0
96071,-83.3333333333333,4,2,3,80,0,0
96231,-83.3333333333333,4,2,3,70,0,0
96312,-83.3333333333333,4,2,3,80,0,1
96552,-83.3333333333333,4,2,3,5,0,1
96633,-83.3333333333333,4,2,1,80,0,1
98156,-83.3333333333333,4,2,3,5,0,1
98237,-83.3333333333333,4,2,1,80,0,1
98879,-83.3333333333333,4,2,2,80,0,1
99199,-83.3333333333333,4,2,1,80,0,1
101365,-83.3333333333333,4,2,3,5,0,1
101446,-83.3333333333333,4,2,2,80,0,1
101766,-83.3333333333333,4,2,1,80,0,1
103932,-83.3333333333333,4,2,3,5,0,1
104012,-83.3333333333333,4,2,2,80,0,1
104172,-83.3333333333333,4,2,1,80,0,1
104494,-83.3333333333333,4,2,3,80,0,1
104654,-83.3333333333333,4,2,1,80,0,1
106018,-83.3333333333333,4,2,3,80,0,1
106098,-83.3333333333333,4,2,1,80,0,1
106178,-83.3333333333333,4,2,3,80,0,1
106259,-83.3333333333333,4,2,1,80,0,1
106819,-83.3333333333333,4,2,1,5,0,1
106900,-83.3333333333333,4,2,1,80,0,1
108424,-83.3333333333333,4,2,3,5,0,1
108504,-83.3333333333333,4,2,1,80,0,1
111713,-83.3333333333333,4,2,3,80,0,1
111953,-83.3333333333333,4,2,3,5,0,1
112034,-83.3333333333333,4,2,1,80,0,1
113557,-83.3333333333333,4,2,3,5,0,1
113638,-83.3333333333333,4,2,1,80,0,1
113878,-83.3333333333333,4,2,3,5,0,1
113959,-83.3333333333333,4,2,1,80,0,1
114199,-83.3333333333333,4,2,3,5,0,1
114280,-83.3333333333333,4,2,3,80,0,1
114600,-83.3333333333333,4,2,1,80,0,1
115563,-66.6666666666667,4,2,1,80,0,1
116365,-66.6666666666667,4,2,1,70,0,0

[Colours]
Combo1 : 242,145,147
Combo2 : 64,221,234
Combo3 : 114,198,248
Combo4 : 225,234,57

[HitObjects]
71,384,13050,6,0,L|56:318,1,67.5000025749208,0|0,1:0|2:0,2:0:0:0:
128,256,13210,1,2,2:0:0:0:
128,256,13531,5,0,1:0:0:0:
128,256,13611,1,0,1:0:0:0:
128,256,13692,1,0,1:0:0:0:
32,192,13852,5,0,1:0:0:0:
32,192,13932,1,0,1:0:0:0:
32,192,14013,1,0,1:0:0:0:
128,96,14173,6,0,B|223:114|207:32|314:59,1,180,4|2,3:2|1:2,2:0:0:0:
433,143,14654,1,2,2:0:0:0:
318,229,14815,2,0,P|332:186|336:142,1,90,2|2,3:2|3:2,2:0:0:0:
494,0,15135,2,0,L|511:87,1,90,2|0,1:2|3:0,2:0:0:0:
465,283,15456,6,0,B|370:265|386:347|279:320,1,180,2|2,2:0|1:2,2:0:0:0:
64,288,15938,1,2,2:0:0:0:
168,384,16098,1,2,3:2:0:0:
192,192,16258,1,2,3:2:0:0:
61,271,16419,2,0,L|47:174,1,90,2|2,1:2|2:0,2:0:0:0:
217,13,16740,6,0,L|192:192,1,180,2|2,3:2|1:2,2:0:0:0:
352,96,17221,1,0,1:0:0:0:
350,103,17301,1,0,1:0:0:0:
348,110,17381,1,2,3:2:0:0:
306,260,17542,1,2,3:2:0:0:
500,199,17702,2,0,B|463:181|463:181|416:192,1,90,2|2,1:2|3:2,2:0:0:0:
360,381,18023,6,0,P|256:352|179:348,1,180,2|2,2:0|1:2,2:0:0:0:
32,224,18504,1,0,2:0:0:0:
150,159,18665,2,0,L|139:249,1,90,2|0,3:2|3:0,2:0:0:0:
41,100,18986,2,0,P|71:43|135:48,1,135,2|0,1:2|2:0,2:0:0:0:
218,92,19307,6,0,B|273:97|298:52|298:52|341:30|397:64,1,180,4|2,3:2|1:2,2:0:0:0:
451,247,19788,1,2,2:0:0:0:
414,150,19948,2,0,P|458:162|503:162,1,90,2|2,3:2|3:2,2:0:0:0:
414,346,20269,2,0,P|458:333|503:334,1,90,2|0,1:2|3:0,2:0:0:0:
316,247,20590,6,0,B|221:265|237:183|130:210,1,180,2|2,2:0|1:2,2:0:0:0:
32,96,21071,1,2,2:0:0:0:
64,288,21232,1,2,3:2:0:0:
0,201,21392,1,2,3:2:0:0:
125,69,21553,2,0,P|106:34|62:5,1,90,2|2,1:2|2:0,2:0:0:0:
221,124,21873,6,0,L|399:62,1,180,2|2,3:2|1:2,2:0:0:0:
480,192,22355,1,0,1:0:0:0:
478,185,22435,1,0,1:0:0:0:
476,178,22515,1,2,3:2:0:0:
357,322,22676,1,2,3:2:0:0:
448,382,22836,2,0,P|450:338|461:294,1,90,2|2,1:2|3:2,2:0:0:0:
265,383,23157,6,0,P|254:293|230:207,1,180,2|2,2:0|1:2,2:0:0:0:
160,32,23638,1,2,2:0:0:0:
96,224,23799,1,2,3:2:0:0:
256,96,23959,1,0,1:0:0:0:
64,128,24119,1,2,1:2:0:0:
55,124,24200,1,0,1:0:0:0:
46,119,24280,1,0,1:0:0:0:
230,207,24440,6,0,B|325:225|309:143|416:170,1,180,4|2,3:2|1:2,2:0:0:0:
352,32,24922,1,2,2:0:0:0:
474,112,25082,2,0,P|491:153|486:197,1,90,2|2,3:2|3:2,2:0:0:0:
391,349,25403,2,0,L|377:261,1,90,2|0,1:2|3:0,2:0:0:0:
224,131,25724,6,0,P|161:111|160:213,1,180,2|2,2:0|1:2,2:0:0:0:
0,128,26205,1,2,2:0:0:0:
96,288,26365,1,2,3:2:0:0:
0,384,26526,1,2,3:2:0:0:
192,320,26686,2,0,P|235:337|289:334,1,90,2|2,1:2|2:0,2:0:0:0:
448,352,27007,6,0,B|408:383|408:383|425:235,1,180,2|2,3:2|1:2,2:0:0:0:
439,84,27488,1,0,1:0:0:0:
447,81,27569,1,0,1:0:0:0:
455,78,27649,1,2,3:2:0:0:
512,224,27809,1,2,3:2:0:0:
320,192,27970,2,0,P|278:197|233:251,1,90,2|2,1:2|3:2,2:0:0:0:
128,384,28291,6,0,P|145:302|64:224,1,180,2|2,3:2|1:2,0:0:0:0:
192,96,28772,1,0,2:0:0:0:
13,153,28932,2,0,P|57:141|100:127,1,90,2|0,3:2|3:0,2:0:0:0:
241,16,29253,2,0,B|202:-2|202:-2|155:8,1,90,2|2,1:2|2:0,2:0:0:0:
256,192,29574,6,0,L|433:155,1,180,4|2,3:2|1:2,2:0:0:0:
352,352,30055,1,2,2:0:0:0:
512,288,30216,2,0,L|423:269,1,90,2|2,3:2|3:2,2:0:0:0:
244,382,30537,2,0,P|237:338|217:298,1,90,2|0,1:2|3:0,2:0:0:0:
123,110,30857,6,0,P|109:199|96:288,1,180,2|2,2:0|1:2,2:0:0:0:
4,142,31339,1,2,2:0:0:0:
205,203,31499,1,2,3:2:0:0:
91,318,31660,1,2,3:2:0:0:
220,188,31820,2,0,L|330:171,1,90,2|2,1:2|2:0,2:0:0:0:
487,251,32141,6,0,P|417:206|445:128,1,180,2|2,3:2|1:2,2:0:0:0:
352,0,32622,1,0,1:0:0:0:
350,10,32702,1,0,1:0:0:0:
348,20,32783,1,2,3:2:0:0:
308,174,32943,1,2,3:2:0:0:
157,99,33103,2,0,P|191:71|236:74,1,90,2|2,1:2|3:2,2:0:0:0:
384,224,33424,5,2,2:0:0:0:
192,333,33585,1,0,3:0:0:0:
96,192,33745,5,2,1:2:0:0:
301,271,33906,1,2,2:0:0:0:
114,367,34066,6,0,B|103:336|103:336|112:302,1,67.5000025749208,0|0,1:0|1:0,2:0:0:0:
211,198,34226,1,0,1:0:0:0:
31,189,34387,6,0,B|62:200|62:200|96:191,1,67.5000025749208,0|0,1:0|1:0,2:0:0:0:
155,36,34547,2,0,B|146:68|146:68|158:101,1,67.5000025749208,0|0,1:0|1:0,2:0:0:0:
304,175,34708,6,0,P|355:128|419:147,1,144,6|0,3:2|3:0,2:0:0:0:
381,273,35189,2,0,B|301:258|319:328|242:313,1,144,2|0,2:0|2:0,2:0:0:0:
170,366,35670,2,0,P|165:327|153:277,1,72,2|0,3:2|2:0,2:0:0:0:
111,145,35991,1,2,3:2:0:0:
30,303,36152,2,0,P|34:267|41:232,1,72,2|0,2:0|3:0,2:0:0:0:
111,145,36472,5,2,2:0:0:0:
288,96,36633,1,2,3:2:0:0:
384,256,36793,5,2,2:0:0:0:
256,224,36954,1,2,3:2:0:0:
256,224,37275,6,0,L|277:381,1,144,2|0,3:2|3:0,2:0:0:0:
478,291,37756,2,0,P|415:313|383:255,1,144,2|0,2:0|2:0,2:0:0:0:
375,135,38237,2,0,B|431:131|466:168|466:168|485:143|532:136,1,144,2|0,3:2|3:0,2:0:0:0:
299,76,38718,2,0,P|282:107|280:143,1,72,2|0,2:0|3:0,2:0:0:0:
398,27,39039,1,2,2:0:0:0:
280,143,39200,2,0,P|248:125|212:123,1,72,2|0,3:2|2:0,2:0:0:0:
95,0,39521,2,0,L|105:71,1,72,2|0,3:2|2:0,2:0:0:0:
0,212,39841,6,0,P|48:181|96:244,1,144,2|0,3:2|3:0,2:0:0:0:
176,358,40323,2,0,P|96:348|33:343,1,144,2|0,2:0|2:0,2:0:0:0:
221,241,40804,2,0,B|296:233|288:288|352:288,1,144,2|0,3:2|3:2,2:0:0:0:
512,224,41285,1,0,2:0:0:0:
468,384,41446,2,0,P|468:348|456:315,1,72,2|0,3:2|2:0,2:0:0:0:
311,200,41767,1,2,3:2:0:0:
411,120,41927,6,0,L|406:191,2,72,0|0|0,0:0|3:0|0:0,0:0:0:0:
320,64,42408,1,0,3:2:0:0:
320,64,42729,2,0,B|238:58|261:112|163:96,1,144,0|0,3:2|3:0,2:0:0:0:
64,64,43210,1,2,2:0:0:0:
128,224,43371,1,2,3:2:0:0:
128,224,43692,5,2,3:2:0:0:
224,192,43852,1,2,2:0:0:0:
320,160,44012,1,0,3:0:0:0:
448,288,44173,5,2,2:0:0:0:
352,256,44333,1,2,3:2:0:0:
352,256,44654,2,0,P|364:289|363:325,1,72,2|0,3:2|2:0,2:0:0:0:
288,384,44975,6,0,L|128:352,1,144,6|0,3:2|3:0,2:0:0:0:
23,210,45456,2,0,P|51:270|115:251,1,144,2|0,2:0|2:0,2:0:0:0:
167,170,45938,2,0,P|155:135|152:100,1,72,2|0,3:2|2:0,2:0:0:0:
253,214,46258,1,0,3:0:0:0:
391,127,46419,2,0,B|296:103|296:103|253:118,1,144,2|0,2:0|2:0,2:0:0:0:
334,316,46900,2,0,P|336:280|348:246,1,72,0|2,3:2|2:0,2:0:0:0:
443,214,47221,2,0,L|512:231,1,72,2|0,3:2|2:0,2:0:0:0:
390,98,47542,6,0,P|324:124|253:118,1,144,2|0,3:2|3:0,2:0:0:0:
137,158,48023,2,0,B|121:112|121:112|146:20,1,144,2|0,2:0|2:0,2:0:0:0:
218,207,48504,2,0,P|180:263|113:249,1,144,2|0,3:2|3:0,2:0:0:0:
0,384,48986,2,0,L|142:361,1,144,2|0,2:0|2:0,2:0:0:0:
237,372,49467,2,0,P|236:336|220:304,1,72,2|0,3:2|2:0,2:0:0:0:
105,178,49788,2,0,L|113:249,1,72,2|0,3:2|2:0,2:0:0:0:
233,107,50109,6,0,B|153:110|179:57|89:69,1,144,2|0,3:2|3:0,2:0:0:0:
6,233,50590,2,0,P|37:172|104:177,1,144,2|0,2:0|2:0,2:0:0:0:
181,275,51071,6,0,B|261:272|235:325|325:313,1,144,2|0,3:2|3:2,2:0:0:0:
407,148,51552,2,0,P|376:208|308:203,1,144,2|0,2:0|2:0,2:0:0:0:
403,38,52034,2,0,P|444:32|479:30,1,72,2|0,3:2|2:0,2:0:0:0:
310,95,52355,2,0,B|276:82|276:82|234:87,1,72,2|0,3:2|2:0,2:0:0:0:
436,269,52676,6,0,P|451:201|407:148,1,144,2|2,3:2|3:2,2:0:0:0:
224,384,53157,2,0,P|275:337|344:348,1,144,2|0,2:0|2:0,2:0:0:0:
224,192,53638,2,0,B|96:160|128:288|14:268,1,216,2|2,3:2|2:0,2:0:0:0:
160,64,54280,5,2,3:2:0:0:
288,96,54440,1,2,2:0:0:0:
352,288,54601,5,2,3:2:0:0:
512,224,54761,1,2,2:0:0:0:
480,384,54922,5,2,3:2:0:0:
416,128,55082,1,2,2:0:0:0:
288,224,55242,6,0,P|248:218|212:199,1,80.9999975280763,6|0,3:2|2:0,2:0:0:0:
130,55,55563,2,0,L|121:146,1,80.9999975280763,0|0,3:0|2:0,2:0:0:0:
148,286,55884,2,0,P|115:245|14:251,2,161.999995056153,0|0|0,3:0|3:0|3:0,2:0:0:0:
353,384,56686,5,2,2:0:0:0:
288,306,56847,2,0,P|277:252|282:224,1,80.9999975280763,2|0,3:2|2:0,2:0:0:0:
490,191,57168,2,0,P|415:213|357:161,1,161.999995056153,2|2,3:2|3:2,2:0:0:0:
256,48,57649,2,0,P|267:102|262:130,1,80.9999975280763,2|0,2:0|3:0,2:0:0:0:
185,191,57970,1,2,2:0:0:0:
114,48,58130,2,0,P|103:102|108:130,1,80.9999975280763,2|0,3:2|2:0,2:0:0:0:
318,240,58451,6,0,B|223:222|270:300|132:277,1,161.999995056153,0|0,3:0|3:0,2:0:0:0:
300,330,58932,1,0,2:0:0:0:
300,330,59093,2,0,P|344:324|393:323,1,80.9999975280763,0|0,3:0|2:0,2:0:0:0:
379,172,59414,2,0,P|423:177|472:179,1,80.9999975280763,0|0,3:0|2:0,2:0:0:0:
296,29,59734,2,0,P|336:26|377:21,1,80.9999975280763,0|0,3:0|2:0,2:0:0:0:
183,44,60055,1,2,3:2:0:0:
252,134,60216,1,2,2:0:0:0:
179,298,60376,6,0,L|165:195,1,80.9999975280763,2|0,3:2|2:0,2:0:0:0:
286,352,60697,2,0,L|300:249,1,80.9999975280763,0|0,3:0|2:0,2:0:0:0:
506,171,61018,2,0,B|463:204|463:204|357:191,2,161.999995056153,0|0|0,3:0|3:0|3:0,2:0:0:0:
339,83,61820,5,2,2:0:0:0:
264,151,61980,2,0,L|184:139,1,80.9999975280763,2|0,3:2|2:0,2:0:0:0:
80,30,62301,2,0,P|101:56|23:125,1,161.999995056153,2|2,3:2|3:2,2:0:0:0:
100,232,62783,2,0,P|143:249|195:240,1,80.9999975280763,2|0,2:0|3:0,2:0:0:0:
141,340,63103,1,2,2:0:0:0:
264,151,63264,6,0,L|281:340,2,161.999995056153,0|0|0,3:1|3:0|3:0,2:0:0:0:
235,57,64066,1,0,2:0:0:0:
360,173,64226,2,0,B|396:177|396:177|453:158,1,80.9999975280763,0|0,3:0|2:0,2:0:0:0:
408,18,64547,2,0,B|372:14|372:14|315:33,1,80.9999975280763,0|0,3:0|2:0,2:0:0:0:
168,129,64868,2,0,P|145:95|137:56,1,80.9999975280763,0|0,3:0|2:0,2:0:0:0:
50,10,65189,1,2,3:2:0:0:
8,118,65349,1,2,2:0:0:0:
130,234,65510,6,0,L|224:225,1,80.9999975280763,2|0,3:2|2:0,2:0:0:0:
344,163,65831,2,0,P|327:210|334:249,1,80.9999975280763,0|0,3:0|2:0,2:0:0:0:
460,316,66152,2,0,B|364:298|402:367|281:335,2,161.999995056153,0|0|0,3:0|3:0|3:0,2:0:0:0:
344,163,66954,5,2,2:0:0:0:
432,211,67114,2,0,L|443:119,1,80.9999975280763,2|0,3:2|2:0,2:0:0:0:
257,32,67435,2,0,P|309:-2|362:67,1,161.999995056153,2|2,3:2|3:2,2:0:0:0:
244,144,67916,2,0,P|206:127|135:136,1,80.9999975280763,2|0,2:0|3:0,2:0:0:0:
107,214,68237,1,2,2:0:0:0:
278,241,68398,2,0,P|237:242|201:259,1,80.9999975280763,2|0,3:2|2:0,2:0:0:0:
372,355,68718,6,0,P|381:253|394:171,1,161.999995056153,0|0,3:0|3:0,2:0:0:0:
460,116,69200,1,2,2:0:0:0:
460,116,69360,2,0,P|420:90|370:94,1,80.9999975280763,0|0,3:0|2:0,2:0:0:0:
247,26,69681,2,0,P|274:65|272:115,1,80.9999975280763,2|2,3:2|2:0,2:0:0:0:
155,220,70002,2,0,P|160:180|184:148,1,80.9999975280763,2|2,3:2|2:0,2:0:0:0:
230,314,70323,1,2,3:2:0:0:
112,332,70483,1,2,2:0:0:0:
274,201,70644,6,0,P|313:207|344:232,1,80.9999975280763,2|0,3:2|2:0,2:0:0:0:
512,238,70964,2,0,P|481:263|441:268,1,80.9999975280763,0|0,3:0|2:0,2:0:0:0:
361,334,71285,1,0,3:0:0:0:
424,166,71446,5,2,2:0:0:0:
274,201,71606,2,0,P|234:195|203:170,1,80.9999975280763,2|0,3:2|2:0,2:0:0:0:
379,79,71927,2,0,P|345:43|287:132,2,161.999995056153,2|2|2,3:2|3:2|3:2,2:0:0:0:
476,83,72729,1,2,2:0:0:0:
476,83,72890,2,0,P|462:111|458:177,1,80.9999975280763,2|2,3:2|2:0,2:0:0:0:
512,295,73210,6,0,P|473:278|429:273,1,90,6|0,2:0|2:0,2:0:0:0:
260,338,73531,1,0,3:0:0:0:
260,338,73611,1,0,3:1:0:0:
260,338,73692,2,0,P|269:307|270:279,1,45,2|0,3:2|2:0,2:0:0:0:
367,373,73852,2,0,P|357:342|356:314,1,45,2|0,3:2|2:0,2:0:0:0:
171,223,74012,6,0,P|210:206|256:201,1,90,0|2,1:0|2:0,2:0:0:0:
405,115,74333,2,0,B|368:75|368:75|357:217,1,180,2|0,3:2|3:0,2:0:0:0:
367,373,74815,1,0,1:0:0:0:
256,201,74975,1,0,3:0:0:0:
115,336,75135,5,2,3:2:0:0:
113,340,75215,1,0,3:0:0:0:
112,344,75295,1,0,3:0:0:0:
111,349,75375,1,0,3:0:0:0:
110,353,75456,5,0,1:0:0:0:
161,333,75537,1,0,1:0:0:0:
211,354,75617,1,0,1:0:0:0:
262,334,75697,1,0,1:0:0:0:
312,355,75777,6,0,B|289:319|316:273|330:292|356:246|325:185,1,161.999995056153,4|0,3:2|2:0,2:0:0:0:
399,139,76098,2,0,P|350:116|298:123,1,107.999996704102,0|0,1:0|2:0,2:0:0:0:
172,24,76419,1,0,3:0:0:0:
241,196,76579,1,0,3:0:0:0:
15,113,76740,2,0,P|67:119|115:96,1,107.999996704102,0|0,1:0|3:0,2:0:0:0:
263,36,77061,1,0,3:2:0:0:
148,180,77221,1,2,3:2:0:0:
314,384,77381,6,0,P|273:308|217:347,1,161.999995056153,2|0,1:2|3:0,2:0:0:0:
212,357,77702,2,0,L|218:249,1,107.999996704102,2|0,3:2|3:0,2:0:0:0:
405,124,78023,2,0,P|375:159|307:155,1,107.999996704102,0|0,1:0|2:0,2:0:0:0:
178,18,78344,2,0,B|199:50|199:50|187:138,1,107.999996704102,4|0,3:2|2:0,2:0:0:0:
20,35,78665,1,0,1:0:0:0:
65,136,78825,1,0,1:0:0:0:
65,146,78905,1,0,1:0:0:0:
66,157,78985,1,0,3:0:0:0:
21,258,79146,1,0,3:0:0:0:
190,120,79307,6,0,B|304:98|266:200|413:164,1,215.999993408203,2|0,1:2|3:0,2:0:0:0:
353,75,79788,1,2,3:2:0:0:
219,213,79948,2,0,P|198:260|195:325,1,107.999996704102,0|0,1:0|2:0,2:0:0:0:
190,120,80269,1,2,3:2:0:0:
292,328,80430,1,0,3:0:0:0:
391,168,80590,2,0,B|430:138|430:138|423:264,1,161.999995056153,2|0,1:2|2:0,2:0:0:0:
454,343,80911,6,0,B|340:365|378:263|231:299,2,215.999993408203,4|0|0,3:2|1:0|3:0,2:0:0:0:
423,250,81713,1,0,3:0:0:0:
149,315,81873,2,0,P|184:217|285:193,1,215.999993408203,2|0,1:2|3:0,2:0:0:0:
252,294,82355,1,0,3:0:0:0:
51,178,82515,6,0,B|32:230|32:230|52:293,1,107.999996704102,2|0,1:2|3:0,2:0:0:0:
169,29,82836,2,0,B|118:52|118:52|88:111,1,107.999996704102,2|0,3:2|3:0,2:0:0:0:
389,83,83157,2,0,B|333:79|298:116|298:116|279:91|232:84,1,161.999995056153,2|0,1:2|3:0,2:0:0:0:
169,29,83478,2,0,B|148:79|148:79|160:131,1,107.999996704102,4|0,3:2|3:0,2:0:0:0:
230,319,83799,1,0,1:0:0:0:
281,201,83959,1,0,1:0:0:0:
281,190,84039,1,0,1:0:0:0:
282,180,84119,1,0,3:0:0:0:
364,293,84280,1,0,3:0:0:0:
245,86,84440,5,6,1:2:0:0:
145,280,84601,1,0,3:0:0:0:
382,186,84761,1,0,2:0:0:0:
123,272,84922,1,0,3:0:0:0:
343,96,85082,1,0,1:0:0:0:
307,374,85242,1,0,2:0:0:0:
171,162,85403,5,0,3:0:0:0:
165,146,85483,1,0,1:0:0:0:
160,131,85563,1,0,1:0:0:0:
155,115,85643,1,0,1:0:0:0:
149,99,85724,2,0,P|142:128|143:176,1,53.9999983520508,2|0,1:2|1:0,2:0:0:0:
35,156,85884,2,0,P|42:185|41:233,1,53.9999983520508,2|0,1:2|1:0,2:0:0:0:
82,360,86045,6,0,B|124:383|170:351|150:337|194:312|252:337,1,161.999995056153,4|0,3:2|2:0,2:0:0:0:
307,374,86365,2,0,P|311:304|324:239,1,107.999996704102,0|0,1:0|3:0,2:0:0:0:
430,206,86686,1,0,3:0:0:0:
463,326,86847,1,2,3:2:0:0:
269,190,87007,1,2,1:2:0:0:
463,86,87168,2,0,L|231:60,1,215.999993408203,2|0,3:2|3:0,2:0:0:0:
45,270,87649,6,0,P|86:194|142:233,1,161.999995056153,0|0,1:0|3:0,2:0:0:0:
147,243,87970,2,0,L|155:124,1,107.999996704102,2|0,3:2|3:0,2:0:0:0:
270,309,88291,2,0,P|207:319|182:390,1,107.999996704102,2|0,1:2|3:0,2:0:0:0:
378,348,88611,2,0,L|370:229,1,107.999996704102,2|0,3:2|3:0,2:0:0:0:
419,24,88932,1,0,1:0:0:0:
354,112,89092,1,0,1:0:0:0:
351,122,89172,1,0,1:0:0:0:
347,133,89252,1,0,3:0:0:0:
371,241,89413,1,0,3:0:0:0:
241,99,89574,6,0,B|127:77|165:179|18:143,1,215.999993408203,2|2,1:2|3:2,2:0:0:0:
77,54,90055,1,2,3:2:0:0:
214,192,90216,2,0,P|297:176|341:132,1,107.999996704102,0|0,1:0|3:0,2:0:0:0:
187,285,90537,5,2,3:2:0:0:
120,216,90697,1,2,3:2:0:0:
161,378,90857,1,2,1:2:0:0:
26,239,91018,1,2,2:0:0:0:
255,355,91178,6,0,P|304:325|419:334,1,161.999995056153,4|0,3:2|2:0,2:0:0:0:
478,369,91499,2,0,L|490:229,1,107.999996704102,0|0,1:0|2:0,2:0:0:0:
373,119,91820,1,0,3:0:0:0:
389,223,91980,1,0,3:0:0:0:
478,15,92141,2,0,L|490:155,1,107.999996704102,0|2,1:0|3:2,2:0:0:0:
290,184,92462,2,0,P|232:176|167:171,1,107.999996704102,6|0,2:0|3:0,2:0:0:0:
47,32,92783,6,0,B|77:67|77:67|64:190,1,161.999995056153,0|0,1:0|3:0,2:0:0:0:
132,278,93103,2,0,P|65:268|15:345,1,161.999995056153,0|0,3:0|2:0,2:0:0:0:
212,373,93424,2,0,B|223:267|223:267|278:333,1,161.999995056153,0|0,1:0|2:0,2:0:0:0:
390,257,93745,2,0,B|271:269|329:153|158:192,1,215.999993408203,4|0,3:2|1:0,2:0:0:0:
375,162,94226,1,0,3:0:0:0:
375,162,94307,1,0,3:0:0:0:
375,162,94387,5,2,3:2:0:0:
166,84,94547,1,0,3:0:0:0:
390,257,94708,1,0,1:0:0:0:
132,278,94868,1,0,3:0:0:0:
391,170,95029,1,2,1:2:0:0:
197,185,95189,5,0,3:0:0:0:
197,185,95269,1,0,3:0:0:0:
197,185,95349,2,0,L|203:238,1,53.9999983520508,0|0,1:0|3:0,2:0:0:0:
310,267,95510,2,0,L|303:320,1,53.9999983520508,0|0,1:0|3:0,2:0:0:0:
98,357,95670,5,2,3:2:0:0:
64,334,95750,1,0,3:0:0:0:
46,297,95830,1,0,3:0:0:0:
46,257,95910,1,0,1:0:0:0:
66,222,95990,1,0,1:0:0:0:
86,187,96071,1,0,3:0:0:0:
86,147,96151,1,0,3:0:0:0:
68,110,96231,1,0,3:0:0:0:
46,72,96312,6,0,B|89:51|130:78|118:93|155:116|216:85,1,161.999995056153,4|0,3:2|2:0,2:0:0:0:
311,34,96633,2,0,P|299:87|291:141,1,107.999996704102,0|0,1:0|3:0,2:0:0:0:
384,352,96954,1,0,3:0:0:0:
192,256,97114,1,0,3:0:0:0:
384,192,97275,2,0,L|491:206,1,107.999996704102,0|0,1:0|3:0,2:0:0:0:
223,352,97595,2,0,P|172:364|128:336,1,107.999996704102,2|0,3:2|3:0,2:0:0:0:
32,160,97916,6,0,B|86:146|130:186|130:186|160:160|192:160,1,161.999995056153,2|0,1:2|3:0,2:0:0:0:
236,83,98237,2,0,P|187:60|136:73,1,107.999996704102,2|0,3:2|3:0,2:0:0:0:
216,250,98558,2,0,P|260:219|274:168,1,107.999996704102,2|0,1:2|3:0,2:0:0:0:
384,0,98879,6,0,B|372:119|488:61|449:232,1,215.999993408203,4|0,3:2|1:0,2:0:0:0:
509,362,99360,1,0,1:0:0:0:
510,374,99440,1,0,1:0:0:0:
512,384,99520,1,0,3:0:0:0:
421,296,99681,1,0,3:0:0:0:
288,384,99841,6,0,P|256:288|160:320,1,215.999993408203,2|0,1:2|2:0,2:0:0:0:
32,384,100323,1,2,3:2:0:0:
15,186,100483,2,0,P|53:224|59:276,1,107.999996704102,0|0,1:0|2:0,2:0:0:0:
160,32,100804,1,2,3:2:0:0:
0,96,100964,1,2,3:2:0:0:
160,160,101125,2,0,P|236:139|256:224,1,161.999995056153,2|0,1:2|3:0,2:0:0:0:
238,295,101446,6,0,B|352:317|314:215|461:251,2,215.999993408203,4|0|0,3:2|1:0|3:0,2:0:0:0:
265,202,102248,1,0,3:0:0:0:
96,384,102408,2,0,B|133:340|106:291|106:291|57:239|83:182,1,215.999993408203,2|0,1:2|3:0,2:0:0:0:
15,332,102889,1,0,3:0:0:0:
171,220,103050,6,0,P|175:164|140:110,1,107.999996704102,2|0,1:2|3:0,2:0:0:0:
320,256,103371,2,0,L|427:250,1,107.999996704102,2|0,3:2|3:0,2:0:0:0:
224,352,103692,2,0,P|141:338|64:384,1,161.999995056153,2|0,1:2|3:0,2:0:0:0:
7,304,104012,6,0,B|22:253|22:253|7:200,1,107.999996704102,4|0,3:2|3:0,2:0:0:0:
169,54,104333,1,0,1:0:0:0:
146,186,104494,1,2,0:0:0:0:
137,179,104574,1,2,0:0:0:0:
129,172,104654,1,0,3:0:0:0:
260,139,104815,1,0,3:0:0:0:
47,81,104975,5,6,1:2:0:0:
128,320,105135,1,0,3:0:0:0:
285,224,105296,1,2,2:0:0:0:
7,200,105456,1,0,3:2:0:0:
231,55,105617,1,0,1:0:0:0:
192,384,105777,1,0,2:0:0:0:
70,178,105938,5,0,3:0:0:0:
54,184,106018,1,0,3:0:0:0:
39,189,106098,1,0,3:0:0:0:
23,194,106178,1,0,3:0:0:0:
7,200,106259,2,0,P|36:207|84:206,1,53.9999983520508,2|0,1:2|1:0,2:0:0:0:
134,288,106419,2,0,P|162:279|203:254,1,53.9999983520508,2|0,1:2|1:0,2:0:0:0:
247,138,106579,6,0,B|154:152|181:74|85:89,1,161.999995056153,4|0,3:2|2:0,2:0:0:0:
40,8,106900,2,0,P|6:54|10:127,1,107.999996704102,0|2,1:0|2:0,2:0:0:0:
134,288,107221,1,0,3:0:0:0:
0,224,107381,1,0,3:0:0:0:
247,138,107542,1,2,1:2:0:0:
210,350,107702,2,0,P|114:386|38:317,1,215.999993408203,2|0,3:2|3:0,0:0:0:0:
233,245,108184,6,0,P|301:225|305:296,1,161.999995056153,2|0,1:2|3:0,2:0:0:0:
320,319,108504,2,0,B|376:337|376:337|459:311,1,107.999996704102,2|0,3:2|3:0,2:0:0:0:
480,240,108825,2,0,L|462:110,1,107.999996704102,2|0,1:2|3:0,2:0:0:0:
297,24,109146,2,0,P|336:60|347:113,1,107.999996704102,2|0,3:2|3:0,2:0:0:0:
256,288,109467,1,0,1:0:0:0:
175,202,109628,1,0,1:0:0:0:
171,213,109708,1,0,1:0:0:0:
168,223,109788,1,0,3:0:0:0:
59,232,109948,1,0,3:0:0:0:
155,377,110109,6,0,B|270:388|230:285|356:303,1,215.999993408203,2|0,1:2|2:0,2:0:0:0:
512,352,110590,1,0,3:2:0:0:
490,162,110750,2,0,P|456:203|450:255,1,107.999996704102,0|0,1:0|3:0,2:0:0:0:
384,64,111071,5,2,3:2:0:0:
480,32,111232,1,2,3:2:0:0:
352,192,111392,1,2,1:2:0:0:
168,126,111553,1,2,3:2:0:0:
288,288,111713,6,0,B|206:261|218:368|100:331,1,161.999995056153,4|0,3:2|2:0,2:0:0:0:
54,384,112034,2,0,P|42:323|0:256,1,107.999996704102,0|0,1:0|3:0,2:0:0:0:
32,79,112355,1,0,3:0:0:0:
64,175,112515,1,0,3:0:0:0:
200,24,112676,2,0,P|176:72|167:125,1,107.999996704102,0|0,1:0|3:0,2:0:0:0:
288,320,112996,2,0,L|271:200,1,107.999996704102,4|0,3:2|3:0,2:0:0:0:
416,32,113317,6,0,P|480:32|443:105,1,161.999995056153,0|0,1:0|3:0,2:0:0:0:
501,194,113638,2,0,P|433:128|370:155,1,161.999995056153,0|0,3:0|3:0,2:0:0:0:
308,283,113959,2,0,B|347:251|347:251|455:282,1,161.999995056153,0|0,1:0|3:0,2:0:0:0:
352,384,114280,6,0,L|116:360,1,215.999993408203,4|0,3:2|1:0,2:0:0:0:
0,224,114761,1,2,1:2:0:0:
2,235,114842,1,0,1:0:0:0:
4,245,114922,1,2,3:2:0:0:
192,128,115082,1,0,3:0:0:0:
137,362,115242,1,2,1:2:0:0:
61,110,115403,1,0,3:0:0:0:
224,288,115563,6,0,L|290:279,1,67.5000025749208,2|0,1:2|2:0,2:0:0:0:
442,161,115724,2,0,L|376:152,1,67.5000025749208,0|0,1:0|1:0,2:0:0:0:
192,128,115884,1,2,3:2:0:0:
440,280,116045,1,0,1:0:0:0:
256,56,116205,1,2,3:2:0:0:
256,384,116365,1,2,3:2:0:0:
