osu file format v14

[General]
AudioFilename: audio.mp3
AudioLeadIn: 0
PreviewTime: 75777
Countdown: 0
SampleSet: Soft
StackLeniency: 0.7
Mode: 0
LetterboxInBreaks: 0
EpilepsyWarning: 1
WidescreenStoryboard: 1

[Editor]
Bookmarks: 19300,19461,19541,54600,95670,96312
DistanceSpacing: 1.3
BeatDivisor: 4
GridSize: 32
TimelineZoom: 1.7

[Metadata]
Title:Innocence
TitleUnicode:イノセンス
Artist:Aoba Ringo
ArtistUnicode:青葉りんご
Creator:tomatas95
Version:Hard
Source:幻創のイデア~Oratorio Phantasm Historia~
Tags:Gensou no Idea 3rdeye yaleufeu bossandy まもも mamomo visual novel japanese video game eroge kyuukai jeezyh Kokusei misure Eimi Fukada opening short ver vn op galgame j-pop pop jpop
BeatmapID:2464755
BeatmapSetID:1178466

[Difficulty]
HPDrainRate:5
CircleSize:3.5
OverallDifficulty:6
ApproachRate:8
SliderMultiplier:1.4
SliderTickRate:1

[Events]
//Background and Video events
Video,642,"bossandyIloveyou.avi"
0,0,"Nanamiowo.jpg",0,0
//Break Periods
//Storyboard Layer 0 (Background)
//Storyboard Layer 1 (Fail)
//Storyboard Layer 2 (Pass)
//Storyboard Layer 3 (Foreground)
//Storyboard Layer 4 (Overlay)
//Storyboard Sound Samples

[TimingPoints]
12890,320.855614973262,4,2,1,60,1,0
14173,-100,4,2,3,70,0,0
14493,-100,4,2,1,70,0,0
19226,-100,4,2,1,5,0,0
19307,-100,4,2,2,70,0,0
19627,-100,4,2,1,70,0,0
24440,-100,4,2,1,75,0,0
24601,-100,4,2,1,70,0,0
29493,-100,4,2,1,5,0,0
29574,-100,4,2,2,70,0,0
29894,-100,4,2,1,70,0,0
34708,-111.111111111111,4,2,1,55,0,0
37194,-111.111111111111,4,2,1,5,0,0
37275,-111.111111111111,4,2,1,55,0,0
39761,-111.111111111111,4,2,1,5,0,0
39841,-111.111111111111,4,2,1,55,0,0
44894,-111.111111111111,4,2,1,5,0,0
44975,-111.111111111111,4,2,1,45,0,0
45295,-111.111111111111,4,2,1,55,0,0
47461,-111.111111111111,4,2,1,5,0,0
47542,-111.111111111111,4,2,1,55,0,0
50028,-111.111111111111,4,2,1,5,0,0
50109,-111.111111111111,4,2,1,55,0,0
54279,-111.111111111111,4,2,1,55,0,0
54280,-111.111111111111,4,2,2,55,0,0
55242,-100,4,2,2,65,0,0
55562,-100,4,2,1,65,0,0
69680,-100,4,2,2,55,0,0
69681,-100,4,2,2,55,0,0
70644,-100,4,2,1,65,0,0
72247,-100,4,2,2,55,0,0
73129,-100,4,2,2,5,0,0
73210,-100,4,2,1,65,0,0
73530,-100,4,2,1,65,0,0
73852,-100,4,2,2,55,0,0
74012,-100,4,2,1,65,0,0
74333,-100,4,2,2,55,0,0
74493,-100,4,2,1,65,0,0
74494,-100,4,2,1,65,0,0
74975,-100,4,2,1,65,0,0
75135,-100,4,2,2,55,0,0
75296,-100,4,2,2,55,0,0
75455,-100,4,2,1,55,0,0
75456,-100,4,2,1,55,0,0
75777,-90.9090909090909,4,2,3,80,0,1
76097,-90.9090909090909,4,2,1,80,0,1
76660,-90.9090909090909,4,2,3,80,0,1
76740,-90.9090909090909,4,2,1,80,0,1
77622,-90.9090909090909,4,2,3,80,0,1
77702,-90.9090909090909,4,2,1,80,0,1
79708,-90.9090909090909,4,2,3,80,0,1
79788,-90.9090909090909,4,2,1,80,0,1
80269,-90.9090909090909,4,2,1,80,0,1
80830,-90.9090909090909,4,2,1,5,0,1
80911,-90.9090909090909,4,2,3,80,0,1
81231,-90.9090909090909,4,2,1,80,0,1
81553,-90.9090909090909,4,2,1,80,0,1
82756,-90.9090909090909,4,2,3,80,0,1
82836,-90.9090909090909,4,2,1,80,0,1
83478,-90.9090909090909,4,2,2,80,0,1
83798,-90.9090909090909,4,2,1,80,0,1
86045,-90.9090909090909,4,2,2,80,0,1
86365,-90.9090909090909,4,2,1,80,0,1
86606,-90.9090909090909,4,2,3,80,0,1
86686,-90.9090909090909,4,2,1,80,0,1
88531,-90.9090909090909,4,2,1,5,0,1
88611,-90.9090909090909,4,2,1,80,0,1
90537,-90.9090909090909,4,2,1,80,0,1
91178,-90.9090909090909,4,2,2,80,0,1
91498,-90.9090909090909,4,2,1,80,0,1
91660,-90.9090909090909,4,2,3,80,0,1
91820,-90.9090909090909,4,2,1,80,0,1
91980,-90.9090909090909,4,2,1,80,0,1
93103,-90.9090909090909,4,2,1,80,0,1
93745,-90.9090909090909,4,2,3,80,0,1
94065,-90.9090909090909,4,2,1,80,0,1
95269,-90.9090909090909,4,2,3,80,0,1
95349,-90.9090909090909,4,2,1,80,0,0
95710,-90.9090909090909,4,2,1,45,0,0
95750,-90.9090909090909,4,2,3,80,0,0
95791,-90.9090909090909,4,2,1,45,0,0
95831,-90.9090909090909,4,2,1,80,0,0
95871,-90.9090909090909,4,2,1,45,0,0
95911,-90.9090909090909,4,2,1,80,0,0
95951,-90.9090909090909,4,2,1,45,0,0
95991,-90.9090909090909,4,2,1,80,0,0
96031,-90.9090909090909,4,2,1,45,0,0
96071,-90.9090909090909,4,2,3,80,0,0
96111,-90.9090909090909,4,2,1,45,0,0
96152,-90.9090909090909,4,2,3,80,0,0
96192,-90.9090909090909,4,2,1,45,0,0
96232,-90.9090909090909,4,2,3,80,0,0
96272,-90.9090909090909,4,2,3,45,0,0
96312,-90.9090909090909,4,2,3,80,0,1
96632,-90.9090909090909,4,2,1,80,0,1
96793,-90.9090909090909,4,2,3,80,0,1
96953,-90.9090909090909,4,2,3,80,0,1
96954,-90.9090909090909,4,2,1,80,0,1
98798,-90.9090909090909,4,2,1,5,0,1
98879,-90.9090909090909,4,2,2,80,0,1
99199,-90.9090909090909,4,2,1,80,0,1
100082,-90.9090909090909,4,2,3,80,0,1
100162,-90.9090909090909,4,2,1,80,0,1
100804,-90.9090909090909,4,2,1,80,0,1
101365,-90.9090909090909,4,2,1,5,0,1
101446,-90.9090909090909,4,2,2,80,0,1
101766,-90.9090909090909,4,2,1,80,0,1
104012,-90.9090909090909,4,2,2,80,0,1
104332,-90.9090909090909,4,2,1,80,0,1
104494,-90.9090909090909,4,2,3,80,0,1
104654,-90.9090909090909,4,2,1,80,0,1
105376,-90.9090909090909,4,2,3,80,0,1
105456,-90.9090909090909,4,2,1,80,0,1
108424,-90.9090909090909,4,2,3,80,0,1
108504,-90.9090909090909,4,2,1,80,0,1
109065,-90.9090909090909,4,2,1,5,0,1
109146,-90.9090909090909,4,2,1,80,0,1
110510,-90.9090909090909,4,2,3,80,0,1
110590,-90.9090909090909,4,2,1,80,0,1
110991,-90.9090909090909,4,2,3,80,0,1
111071,-90.9090909090909,4,2,1,80,0,1
111713,-90.9090909090909,4,2,3,80,0,1
112033,-90.9090909090909,4,2,1,80,0,1
112194,-90.9090909090909,4,2,3,80,0,1
112354,-90.9090909090909,4,2,3,80,0,1
112355,-90.9090909090909,4,2,1,80,0,1
113558,-90.9090909090909,4,2,3,80,0,1
113638,-90.9090909090909,4,2,1,80,0,1
113879,-90.9090909090909,4,2,3,80,0,1
113959,-90.9090909090909,4,2,1,80,0,1
114280,-90.9090909090909,4,2,3,80,0,1
114600,-90.9090909090909,4,2,1,80,0,1
116365,-90.9090909090909,4,2,1,70,0,0

[Colours]
Combo1 : 147,237,247
Combo2 : 230,138,227
Combo3 : 136,238,205
Combo4 : 215,81,154

[HitObjects]
109,79,14173,6,0,L|254:67,1,140,4|2,3:2|1:2,2:0:0:0:
328,24,14654,1,2,2:0:0:0:
335,114,14815,2,0,L|338:201,1,70,2|2,3:2|3:2,2:0:0:0:
252,216,15135,2,0,L|249:129,1,70,2|0,1:2|3:0,2:0:0:0:
342,269,15456,6,0,P|305:307|207:310,1,140,2|2,2:0|1:2,2:0:0:0:
162,245,15938,1,2,2:0:0:0:
98,310,16098,2,0,L|92:389,1,70,2|2,3:2|3:2,2:0:0:0:
10,304,16419,1,2,1:2:0:0:
61,229,16579,1,2,2:0:0:0:
4,157,16740,6,0,B|3:118|3:118|20:81|20:81|20:3,1,140,2|2,3:2|1:2,2:0:0:0:
116,75,17221,1,0,1:0:0:0:
116,75,17301,1,0,1:0:0:0:
116,75,17381,1,2,3:2:0:0:
167,1,17542,1,2,3:2:0:0:
242,57,17702,2,0,L|328:64,1,70,2|2,1:2|3:2,2:0:0:0:
387,129,18023,6,0,P|410:64|387:-1,1,140,2|2,2:0|1:2,2:0:0:0:
312,63,18504,1,0,2:0:0:0:
387,129,18665,2,0,P|395:165|385:212,1,70,2|0,3:2|3:0,2:0:0:0:
326,262,18986,2,0,P|321:296|329:330,1,70,2|0,1:2|3:0,2:0:0:0:
443,349,19307,6,0,B|474:311|474:311|485:196,1,140,4|2,3:2|1:2,2:0:0:0:
481,124,19788,1,2,2:0:0:0:
387,129,19948,2,0,L|312:135,1,70,2|2,3:2|3:2,2:0:0:0:
210,68,20269,2,0,L|285:62,1,70,2|0,1:2|3:0,2:0:0:0:
203,153,20590,6,0,L|50:168,1,140,2|2,2:0|1:2,2:0:0:0:
18,245,21071,1,2,2:0:0:0:
70,319,21232,1,2,3:2:0:0:
119,242,21392,1,2,3:2:0:0:
173,315,21553,2,0,L|263:319,1,70,2|2,1:2|2:0,2:0:0:0:
317,236,21873,6,0,B|311:271|311:271|327:309|327:309|308:379,1,140,2|2,3:2|1:2,2:0:0:0:
401,357,22355,2,0,L|451:367,2,35,0|0|2,1:0|1:0|3:2,2:0:0:0:
399,265,22676,1,2,3:2:0:0:
480,224,22836,2,0,L|490:300,1,70,2|2,1:2|3:2,2:0:0:0:
394,178,23157,6,0,L|374:27,1,140,2|2,2:0|1:2,2:0:0:0:
293,13,23638,1,2,2:0:0:0:
212,62,23799,1,2,3:2:0:0:
286,113,23959,1,0,1:0:0:0:
218,174,24119,1,2,1:2:0:0:
218,174,24200,1,0,1:0:0:0:
218,174,24280,1,0,1:0:0:0:
212,62,24440,6,0,B|172:49|172:49|139:72|139:72|69:53,1,140,4|2,3:2|1:2,2:0:0:0:
6,6,24922,1,2,2:0:0:0:
11,96,25082,2,0,P|8:129|16:175,1,70,2|2,3:2|3:2,2:0:0:0:
104,234,25403,2,0,P|108:197|99:155,1,70,2|0,1:2|3:0,2:0:0:0:
24,300,25724,6,0,P|51:326|170:309,1,140,2|2,2:0|1:2,2:0:0:0:
192,243,26205,1,2,2:0:0:0:
277,273,26365,2,0,P|314:282|360:270,1,70,2|2,3:2|3:2,2:0:0:0:
443,291,26686,2,0,P|416:318|404:364,1,70,2|2,1:2|2:0,2:0:0:0:
401,216,27007,6,0,P|390:179|307:132,1,140,2|2,3:2|1:2,2:0:0:0:
215,136,27488,1,0,1:0:0:0:
215,136,27569,1,0,1:0:0:0:
215,136,27649,1,2,3:2:0:0:
259,56,27809,1,2,3:2:0:0:
307,132,27970,2,0,P|351:137|382:125,1,70,2|2,1:2|3:2,2:0:0:0:
443,68,28291,6,0,P|419:100|434:206,1,140,2|2,3:2|1:2,2:0:0:0:
488,262,28772,1,0,2:0:0:0:
406,301,28932,2,0,L|401:370,1,70,2|0,3:2|3:0,2:0:0:0:
325,291,29253,2,0,L|320:209,1,70,2|2,1:2|2:0,2:0:0:0:
263,120,29574,6,0,B|229:153|229:153|224:254,1,140,4|2,3:2|1:2,2:0:0:0:
218,336,30055,1,2,2:0:0:0:
137,379,30216,1,2,3:2:0:0:
75,312,30376,1,2,3:2:0:0:
131,239,30537,2,0,L|133:155,1,70,2|0,1:2|3:0,2:0:0:0:
51,108,30857,6,0,P|84:75|180:79,1,140,2|2,2:0|1:2,2:0:0:0:
263,86,31339,2,0,L|270:163,1,70,2|2,2:0|3:2,2:0:0:0:
314,232,31660,1,2,3:2:0:0:
379,168,31820,2,0,L|385:98,1,70,2|2,1:2|2:0,2:0:0:0:
474,171,32141,6,0,P|500:202|498:301,1,140,2|2,3:2|1:2,2:0:0:0:
423,346,32622,2,0,L|422:384,2,35,0|0|2,1:0|1:0|3:2,2:0:0:0:
419,249,32943,1,2,3:2:0:0:
345,302,33103,1,2,1:2:0:0:
304,220,33264,1,2,3:2:0:0:
248,291,33424,6,0,B|204:291|204:291|189:282|189:282|95:281,1,140,2|2,2:0|1:2,2:0:0:0:
32,233,33906,1,2,2:0:0:0:
31,323,34066,2,0,L|0:347,2,35,0|0|0,1:0|1:0|1:0,2:0:0:0:
109,369,34387,1,0,1:0:0:0:
109,369,34467,1,0,1:0:0:0:
109,369,34547,1,0,1:0:0:0:
110,281,34708,6,0,B|149:279|149:279|178:296|178:296|249:293,1,125.999996154785,6|0,3:2|3:0,2:0:0:0:
319,297,35189,2,0,L|326:162,1,125.999996154785,2|0,2:0|2:0,2:0:0:0:
244,123,35670,2,0,L|240:185,1,62.9999980773926,2|0,3:2|2:0,2:0:0:0:
326,89,35991,5,2,3:2:0:0:
399,131,36152,2,0,P|423:104|407:8,1,125.999996154785,2|2,2:0|2:0,2:0:0:0:
340,5,36633,1,2,3:2:0:0:
340,5,36793,1,2,2:0:0:0:
262,32,36954,2,0,P|222:48|168:34,1,94.499997116089,2|0,3:2|2:0,2:0:0:0:
132,32,37275,6,0,L|128:173,1,125.999996154785,2|0,3:2|3:0,2:0:0:0:
75,216,37756,2,0,P|134:197|216:232,1,125.999996154785,2|0,2:0|2:0,2:0:0:0:
258,264,38237,2,0,P|318:280|377:262,1,125.999996154785,2|0,3:2|3:0,2:0:0:0:
392,183,38718,2,0,L|398:113,1,62.9999980773926,2|0,2:0|3:0,2:0:0:0:
446,55,39039,1,2,2:0:0:0:
486,126,39200,2,0,L|479:218,1,62.9999980773926,2|0,3:2|2:0,2:0:0:0:
467,271,39521,2,0,P|428:256|362:272,1,94.499997116089,2|0,3:2|2:0,2:0:0:0:
346,290,39841,6,0,L|211:300,1,125.999996154785,2|0,3:2|3:0,2:0:0:0:
137,296,40323,2,0,L|146:170,1,125.999996154785,2|0,2:0|2:0,2:0:0:0:
211,121,40804,2,0,P|186:100|93:107,1,125.999996154785,2|0,3:2|3:2,2:0:0:0:
54,175,41285,1,0,2:0:0:0:
54,175,41446,2,0,L|50:254,1,62.9999980773926,2|0,3:2|2:0,2:0:0:0:
9,310,41767,1,2,3:2:0:0:
9,310,41927,2,0,P|55:294|133:323,1,125.999996154785,2|0,2:0|2:0,2:0:0:0:
196,369,42408,5,0,3:2:0:0:
196,369,42569,1,0,2:0:0:0:
208,288,42729,2,0,L|212:149,1,125.999996154785,0|0,3:2|3:0,2:0:0:0:
232,82,43210,1,2,2:0:0:0:
299,34,43371,2,0,P|338:30|374:40,1,62.9999980773926,2|0,3:2|2:0,2:0:0:0:
426,85,43692,6,0,L|429:210,1,125.999996154785,2|0,3:2|3:0,2:0:0:0:
394,288,44173,1,2,2:0:0:0:
425,363,44333,1,2,3:2:0:0:
477,300,44494,1,2,2:0:0:0:
394,288,44654,2,0,P|360:298|289:280,1,94.499997116089,2|0,3:2|2:0,2:0:0:0:
261,288,44975,6,0,B|255:254|255:254|272:226|272:226|267:158,1,125.999996154785,6|0,3:2|3:0,2:0:0:0:
317,102,45456,2,0,P|267:86|196:126,1,125.999996154785,2|0,2:0|2:0,2:0:0:0:
166,189,45938,2,0,L|162:262,1,62.9999980773926,2|0,3:2|2:0,2:0:0:0:
113,317,46258,1,0,3:0:0:0:
40,277,46419,2,0,P|24:236|56:137,1,125.999996154785,2|0,2:0|2:0,2:0:0:0:
76,83,46900,2,0,L|163:77,1,62.9999980773926,0|2,3:2|2:0,2:0:0:0:
197,26,47221,2,0,P|187:60|211:125,1,94.499997116089,2|0,3:2|2:0,2:0:0:0:
220,152,47542,6,0,L|347:164,1,125.999996154785,2|0,3:2|3:0,2:0:0:0:
416,114,48023,2,0,P|431:148|395:233,1,125.999996154785,2|0,2:0|2:0,2:0:0:0:
331,277,48504,2,0,P|316:243|352:158,1,125.999996154785,2|0,3:2|3:0,2:0:0:0:
416,114,48986,2,0,P|436:56|411:-1,1,125.999996154785,2|0,2:0|2:0,2:0:0:0:
355,59,49467,2,0,L|292:56,1,62.9999980773926,2|0,3:2|2:0,2:0:0:0:
230,110,49788,2,0,P|243:66|228:22,1,94.499997116089,2|0,3:2|2:0,2:0:0:0:
186,21,50109,6,0,L|42:30,1,125.999996154785,2|0,3:2|3:0,2:0:0:0:
24,103,50590,2,0,L|168:112,1,125.999996154785,2|0,2:0|2:0,2:0:0:0:
181,186,51071,2,0,L|37:195,1,125.999996154785,2|0,3:2|3:2,2:0:0:0:
22,269,51553,2,0,L|166:278,1,125.999996154785,2|0,2:0|2:0,2:0:0:0:
226,252,52034,2,0,P|229:292|222:320,1,62.9999980773926,2|0,3:2|2:0,2:0:0:0:
314,364,52355,2,0,P|309:332|314:301,1,62.9999980773926,2|0,3:2|2:0,2:0:0:0:
340,221,52676,6,0,L|465:233,1,125.999996154785,2|2,3:2|3:2,2:0:0:0:
470,151,53157,2,0,L|344:138,1,125.999996154785,2|0,2:0|2:0,2:0:0:0:
353,56,53638,2,0,L|505:71,2,125.999996154785,2|0|2,3:2|3:2|3:2,2:0:0:0:
275,83,54440,1,2,2:0:0:0:
217,24,54601,2,0,L|155:33,1,62.9999980773926,2|2,3:2|2:0,2:0:0:0:
121,108,54922,2,0,L|183:117,1,62.9999980773926,2|2,3:2|2:0,2:0:0:0:
235,191,55242,6,0,B|249:239|249:239|225:336,1,140,6|0,3:2|3:0,2:0:0:0:
140,347,55724,1,0,2:0:0:0:
140,347,55884,2,0,P|101:347|67:325,1,70,0|0,3:0|2:0,2:0:0:0:
20,258,56205,6,0,L|28:118,1,140,0|0,3:0|3:0,2:0:0:0:
84,45,56686,1,2,2:0:0:0:
149,108,56847,2,0,P|183:113|217:106,1,70,2|0,3:2|2:0,2:0:0:0:
302,72,57168,2,0,L|301:167,1,70,2|0,3:2|2:0,2:0:0:0:
285,234,57488,1,2,3:2:0:0:
285,234,57649,6,0,P|343:214|434:243,1,140,2|2,2:0|2:0,2:0:0:0:
423,322,58130,2,0,P|365:342|274:313,1,140,2|0,3:2|3:0,2:0:0:0:
214,283,58611,1,0,2:0:0:0:
214,283,58772,2,0,L|136:276,1,70,0|0,3:0|2:0,2:0:0:0:
53,267,59093,6,0,L|93:209,1,70,0|0,3:0|2:0,2:0:0:0:
147,135,59414,2,0,L|176:198,1,70,0|0,3:0|2:0,2:0:0:0:
214,283,59734,1,0,3:0:0:0:
286,118,60055,1,2,3:2:0:0:
286,118,60216,1,2,2:0:0:0:
360,43,60376,6,0,P|386:95|366:186,1,140,2|0,3:2|3:0,2:0:0:0:
364,267,60857,1,0,2:0:0:0:
364,267,61018,2,0,L|358:346,1,70,0|0,3:0|2:0,0:0:0:0:
268,348,61339,2,0,L|258:208,1,140,0|0,3:0|3:0,0:0:0:0:
251,117,61820,1,2,2:0:0:0:
171,162,61980,2,0,P|135:168|101:160,1,70,2|0,3:2|2:0,0:0:0:0:
65,77,62301,2,0,P|99:71|133:79,1,70,2|0,3:2|2:0,0:0:0:0:
17,156,62622,1,2,3:2:0:0:
17,156,62783,6,0,L|14:231,1,70,2|0,2:0|3:0,2:0:0:0:
27,315,63103,1,2,2:0:0:0:
106,270,63264,2,0,P|167:250|244:282,1,140,0|0,3:1|3:0,2:0:0:0:
326,306,63745,1,0,2:0:0:0:
326,306,63906,2,0,P|331:269|315:222,1,70,0|0,3:0|2:0,2:0:0:0:
259,173,64226,6,0,P|251:139|256:104,1,70,0|0,3:0|2:0,2:0:0:0:
319,38,64547,2,0,L|396:34,1,70,0|0,3:0|0:0,0:0:0:0:
479,21,64868,1,0,3:0:0:0:
499,206,65189,1,2,3:2:0:0:
499,206,65349,1,2,2:0:0:0:
447,281,65510,6,0,B|401:274|401:274|366:289|366:289|302:277,1,140,2|0,3:2|3:0,2:0:0:0:
247,213,65991,2,0,L|251:138,1,70,0|0,2:0|3:0,2:0:0:0:
255,54,66312,1,0,2:0:0:0:
255,54,66472,6,0,L|115:49,1,140,0|0,3:0|3:0,2:0:0:0:
24,35,66954,1,2,2:0:0:0:
52,121,67114,2,0,P|60:159|50:208,1,70,2|0,3:2|2:0,2:0:0:0:
15,271,67435,2,0,P|11:305|19:339,1,70,2|0,3:2|2:0,2:0:0:0:
107,376,67756,1,2,3:2:0:0:
107,376,67916,6,0,L|246:368,1,140,2|2,2:0|2:0,2:0:0:0:
337,355,68398,2,0,P|348:312|303:225,1,140,2|0,3:2|3:0,2:0:0:0:
233,187,68879,1,0,0:0:0:0:
233,187,69039,2,0,L|223:113,1,70,0|0,3:2|2:0,2:0:0:0:
211,27,69360,5,0,3:0:0:0:
390,57,69681,2,0,L|464:47,1,70,2|2,3:2|2:0,2:0:0:0:
502,128,70002,2,0,L|428:138,1,70,2|2,3:2|2:0,2:0:0:0:
346,158,70323,1,2,3:2:0:0:
346,158,70483,1,2,2:0:0:0:
291,76,70644,6,0,P|260:109|273:215,1,140,2|0,3:2|3:0,0:0:0:0:
331,257,71125,2,0,P|339:290|334:325,1,70,0|0,2:0|3:0,0:0:0:0:
254,365,71446,1,2,2:0:0:0:
254,365,71606,2,0,L|184:371,1,70,2|0,3:2|2:0,2:0:0:0:
103,328,71927,6,0,L|115:188,1,140,2|2,3:2|3:2,2:0:0:0:
140,100,72408,1,2,2:0:0:0:
214,152,72569,2,0,P|248:156|282:150,1,70,2|2,3:2|2:0,2:0:0:0:
334,75,72889,2,0,P|368:68|402:73,1,70,2|2,3:2|2:0,2:0:0:0:
476,126,73210,6,0,B|471:167|471:167|487:191|487:191|467:273,1,140,6|0,2:0|3:0,2:0:0:0:
422,337,73692,2,0,L|352:331,1,70,2|2,3:2|3:2,2:0:0:0:
310,250,74012,1,0,1:0:0:0:
245,314,74173,2,0,L|239:384,1,70,2|2,0:2|3:2,2:0:0:0:
153,350,74494,6,0,L|166:205,1,140,2|0,2:0|1:0,2:0:0:0:
167,123,74975,1,0,0:0:0:0:
167,123,75135,2,0,P|198:117|248:132,1,70
324,146,75456,2,0,L|318:181,3,35,0|0|0|0,1:0|1:0|1:0|1:0,2:0:0:0:
332,224,75777,6,0,B|373:223|373:223|410:248|410:248|482:246,1,154.000004699707,4|0,3:2|1:0,2:0:0:0:
494,147,76258,1,0,2:0:0:0:
494,147,76419,2,0,P|491:101|469:58,1,77.0000023498536,0|0,3:0|3:0,2:0:0:0:
401,9,76740,2,0,L|240:25,1,154.000004699707,0|0,1:0|3:2,2:0:0:0:
147,13,77221,5,2,3:2:0:0:
185,105,77381,2,0,L|174:213,1,77.0000023498536,2|0,1:2|3:0,2:0:0:0:
147,277,77702,2,0,L|58:213,1,77.0000023498536,2|0,3:2|3:0,2:0:0:0:
5,163,78023,2,0,L|104:117,1,77.0000023498536,0|0,1:0|2:0,2:0:0:0:
185,105,78344,6,0,B|224:95|224:95|265:117|265:117|341:92,1,154.000004699707,4|0,3:2|1:0,2:0:0:0:
416,46,78825,1,0,1:0:0:0:
416,46,78906,1,0,1:0:0:0:
416,46,78986,1,0,3:0:0:0:
475,127,79146,1,0,3:0:0:0:
393,185,79307,2,0,L|411:344,1,154.000004699707,2|0,1:2|3:0,2:0:0:0:
313,363,79788,6,0,L|305:280,1,77.0000023498536,2|0,3:2|1:0,2:0:0:0:
250,202,80109,1,0,0:0:0:0:
174,267,80269,2,0,P|136:276|82:265,1,77.0000023498536,2|0,3:2|3:0,2:0:0:0:
32,196,80590,2,0,L|30:73,1,115.50000352478,2|0,1:2|2:0,2:0:0:0:
31,30,80911,6,0,P|69:45|178:17,1,154.000004699707,4|0,3:2|1:0,2:0:0:0:
274,3,81392,1,0,0:0:0:0:
221,89,81553,2,0,L|227:169,1,77.0000023498536,0|0,3:0|3:0,2:0:0:0:
172,248,81873,2,0,P|246:261|309:221,1,154.000004699707,2|0,1:2|3:0,2:0:0:0:
367,137,82355,5,0,3:0:0:0:
412,217,82515,2,0,L|406:312,1,77.0000023498536,2|0,1:2|3:0,2:0:0:0:
361,383,82836,2,0,L|281:330,1,77.0000023498536,2|0,3:2|3:0,2:0:0:0:
241,255,83157,2,0,L|326:212,1,77.0000023498536,2|0,1:2|2:0,2:0:0:0:
200,338,83478,6,0,P|134:364|52:315,1,154.000004699707,4|0,3:2|1:0,2:0:0:0:
47,231,83959,1,0,1:0:0:0:
47,231,84039,1,0,1:0:0:0:
47,231,84119,1,0,3:0:0:0:
135,270,84280,1,0,3:0:0:0:
130,154,84440,2,0,B|172:143|172:143|227:157|227:157|291:131,1,154.000004699707,6|0,1:2|2:0,2:0:0:0:
372,103,84922,5,0,3:0:0:0:
441,182,85082,2,0,L|432:258,1,77.0000023498536,0|0,1:0|2:0,2:0:0:0:
336,288,85403,2,0,L|344:211,1,77.0000023498536,0|0,3:0|1:0,2:0:0:0:
372,103,85724,2,0,L|336:90,3,38.5000011749268,2|0|2|0,1:2|1:0|1:2|1:0,2:0:0:0:
295,104,86045,6,0,B|245:125|245:125|142:100,1,154.000004699707,4|0,3:2|1:0,2:0:0:0:
59,53,86526,1,0,3:0:0:0:
11,142,86686,1,0,3:0:0:0:
100,190,86847,2,0,L|104:268,1,77.0000023498536,2|2,3:2|1:2,2:0:0:0:
148,356,87168,1,0,3:0:0:0:
221,288,87328,6,0,L|299:284,1,77.0000023498536,2|0,2:0|3:0,2:0:0:0:
398,308,87649,2,0,P|402:266|384:229,1,77.0000023498536,0|0,1:0|2:0,2:0:0:0:
396,141,87970,2,0,P|430:165|471:168,1,77.0000023498536,2|0,3:2|3:0,2:0:0:0:
314,168,88291,2,0,P|277:185|241:250,1,115.50000352478,2|0,1:2|2:0,2:0:0:0:
221,288,88611,6,0,L|68:271,1,154.000004699707,2|0,3:2|1:0,2:0:0:0:
36,175,89093,1,0,1:0:0:0:
36,175,89173,1,0,1:0:0:0:
36,175,89253,1,0,3:0:0:0:
111,108,89414,1,0,3:0:0:0:
169,188,89574,2,0,P|244:199|319:162,1,154.000004699707,2|2,1:2|3:2,2:0:0:0:
379,91,90055,6,0,P|421:85|468:97,1,77.0000023498536,2|0,3:2|1:0,2:0:0:0:
498,187,90376,1,0,0:0:0:0:
498,187,90537,2,0,L|495:275,1,77.0000023498536,2|2,3:2|3:2,2:0:0:0:
457,356,90857,1,2,1:2:0:0:
391,280,91018,1,2,2:0:0:0:
325,374,91178,6,0,P|292:342|283:234,1,154.000004699707,4|0,3:2|1:0,2:0:0:0:
358,173,91660,2,0,L|400:175,2,38.5000011749268,0|0|0,3:0|3:0|3:0,3:0:0:0:
291,107,91980,1,0,3:0:0:0:
291,107,92141,2,0,L|211:125,1,77.0000023498536,0|2,1:0|3:2,2:0:0:0:
141,208,92462,6,0,B|140:163|140:163|125:141|125:141|126:46,1,154.000004699707,6|0,2:0|1:0,2:0:0:0:
42,2,92943,1,0,0:0:0:0:
9,96,93103,2,0,P|-1:133|4:177,1,77.0000023498536,0|0,3:0|3:0,2:0:0:0:
3,271,93424,2,0,L|105:281,1,77.0000023498536,0|0,1:0|2:0,2:0:0:0:
191,262,93745,6,0,P|177:225|218:121,1,154.000004699707,4|0,3:2|1:0,2:0:0:0:
313,102,94226,1,0,3:0:0:0:
313,102,94307,1,0,3:0:0:0:
313,102,94387,1,2,3:2:0:0:
317,201,94547,1,0,3:0:0:0:
400,133,94708,2,0,L|483:143,1,77.0000023498536,0|0,1:0|3:0,2:0:0:0:
487,241,95029,6,0,L|404:231,1,77.0000023498536,2|0,1:2|3:0,2:0:0:0:
317,201,95349,1,0,1:0:0:0:
319,302,95510,1,0,1:0:0:0:
237,249,95670,1,2,3:2:0:0:
219,241,95750,1,0,3:0:0:0:
200,239,95830,1,0,3:0:0:0:
181,240,95910,1,0,1:0:0:0:
162,246,95991,2,0,L|156:208,3,38.5000011749268,0|0|0|0,1:0|3:0|3:0|3:0,2:0:0:0:
156,300,96312,6,0,P|111:304|51:222,1,154.000004699707,4|0,3:2|1:0,0:0:0:0:
41,124,96793,2,0,L|3:130,2,38.5000011749268,0|0|0,3:0|3:0|3:0,2:0:0:0:
107,48,97114,1,0,3:0:0:0:
191,96,97275,2,0,L|195:186,1,77.0000023498536,0|0,1:0|3:0,2:0:0:0:
287,210,97595,6,0,L|283:120,1,77.0000023498536,2|0,3:2|3:0,2:0:0:0:
311,33,97916,2,0,P|355:27|395:35,1,77.0000023498536,2|0,1:2|3:0,2:0:0:0:
441,116,98237,2,0,P|397:122|357:114,1,77.0000023498536,2|0,3:2|3:0,2:0:0:0:
507,62,98558,2,0,P|525:107|493:195,1,115.50000352478,2|0,1:2|0:0,2:0:0:0:
474,208,98879,6,0,B|429:210|429:210|392:227|392:227|318:227,1,154.000004699707,4|0,3:2|1:0,2:0:0:0:
242,169,99360,1,0,1:0:0:0:
242,169,99440,1,0,1:0:0:0:
242,169,99521,1,0,3:0:0:0:
208,266,99681,1,0,3:0:0:0:
208,266,99841,2,0,P|138:244|63:279,1,154.000004699707,2|0,1:2|2:0,2:0:0:0:
142,350,100323,6,0,L|234:358,1,77.0000023498536,2|0,3:2|1:0,2:0:0:0:
316,361,100644,1,0,0:0:0:0:
316,361,100804,2,0,P|318:318|306:282,1,77.0000023498536,2|2,3:2|3:2,2:0:0:0:
208,266,101125,2,0,P|198:220|234:141,1,115.50000352478,2|0,1:2|0:0,2:0:0:0:
269,146,101446,6,0,B|271:82|271:82|208:8,1,154.000004699707,4|0,3:2|1:0,2:0:0:0:
112,11,101927,1,0,2:0:0:0:
94,100,102087,2,0,L|91:179,1,77.0000023498536,0|0,3:0|3:0,2:0:0:0:
32,258,102408,2,0,P|72:233|176:245,1,154.000004699707,2|0,1:2|3:0,2:0:0:0:
258,298,102889,5,0,3:0:0:0:
251,197,103050,2,0,L|264:114,1,77.0000023498536,2|0,1:2|3:0,2:0:0:0:
283,22,103371,2,0,L|348:74,1,77.0000023498536,2|0,3:2|3:0,2:0:0:0:
411,143,103692,2,0,L|332:173,1,77.0000023498536,2|0,1:2|3:0,2:0:0:0:
434,52,104012,6,0,P|487:87|494:183,1,154.000004699707,4|0,3:2|1:0,2:0:0:0:
479,270,104494,2,0,L|492:313,2,38.5000011749268,2|2|0,0:0|0:2|3:0,3:0:0:0:
383,239,104815,1,0,3:0:0:0:
372,353,104975,2,0,B|330:345|330:345|299:364|299:364|202:344,1,154.000004699707,6|0,1:2|2:0,2:0:0:0:
131,314,105456,5,0,3:2:0:0:
168,221,105617,2,0,L|176:133,1,77.0000023498536,0|0,1:0|2:0,2:0:0:0:
205,48,105938,1,0,3:0:0:0:
262,129,106098,1,0,3:0:0:0:
327,33,106258,2,0,L|338:71,3,38.5000011749268,2|0|2|0,1:2|1:0|1:2|1:0,2:0:0:0:
353,114,106579,6,0,P|369:180|391:271,1,154.000004699707,4|0,3:2|1:0,2:0:0:0:
421,359,107061,1,2,2:0:0:0:
493,290,107221,2,0,L|495:205,1,77.0000023498536,0|0,3:0|3:0,2:0:0:0:
499,114,107542,2,0,P|459:97|351:115,1,154.000004699707,2|0,1:2|2:0,2:0:0:0:
271,171,108023,5,0,3:0:0:0:
271,171,108184,2,0,L|187:166,1,77.0000023498536,2|0,1:2|2:0,2:0:0:0:
140,250,108504,2,0,L|224:255,1,77.0000023498536,2|0,3:2|3:0,2:0:0:0:
67,311,108825,2,0,P|48:268|69:188,1,115.50000352478,2|0,1:2|2:0,2:0:0:0:
86,159,109146,6,0,L|95:4,1,154.000004699707,2|0,3:2|1:0,2:0:0:0:
186,86,109627,1,0,1:0:0:0:
186,86,109708,1,0,1:0:0:0:
186,86,109788,1,0,3:0:0:0:
254,7,109948,1,0,3:0:0:0:
271,104,110109,2,0,L|262:259,1,154.000004699707,2|0,1:2|2:0,2:0:0:0:
267,358,110590,5,0,3:2:0:0:
267,358,110750,2,0,P|310:364|351:353,1,77.0000023498536,0|0,1:0|3:0,2:0:0:0:
414,287,111071,1,2,3:2:0:0:
366,198,111232,1,2,3:2:0:0:
419,122,111392,1,2,1:2:0:0:
343,69,111553,1,2,3:2:0:0:
290,145,111713,6,0,B|251:132|251:132|210:155|210:155|133:135,1,154.000004699707,4|0,3:2|1:0,2:0:0:0:
67,76,112194,2,0,L|73:22,2,38.5000011749268,0|0|0,3:0|3:0|3:0,3:0:0:0:
10,150,112515,1,0,3:0:0:0:
83,202,112676,2,0,L|80:280,1,77.0000023498536,0|0,1:0|3:0,2:0:0:0:
12,352,112996,6,0,P|57:329|158:363,1,154.000004699707,4|0,3:2|1:0,2:0:0:0:
236,299,113478,1,0,3:0:0:0:
236,299,113638,2,0,L|239:221,1,77.0000023498536,0|0,3:0|3:0,2:0:0:0:
238,121,113959,1,0,1:0:0:0:
318,180,114119,1,0,3:0:0:0:
313,55,114280,6,0,B|374:37|374:37|468:66,1,154.000004699707,4|0,3:2|1:0,2:0:0:0:
504,165,114761,1,2,1:2:0:0:
504,165,114841,1,0,1:0:0:0:
504,165,114922,1,2,3:2:0:0:
407,140,115082,1,0,3:0:0:0:
410,239,115242,2,0,L|418:320,1,77.0000023498536,2|0,1:2|3:0,2:0:0:0:
331,363,115563,6,0,L|293:366,3,38.5000011749268,2|0|0|0,1:2|1:0|1:0|1:0,2:0:0:0:
243,352,115884,2,0,L|235:275,1,77.0000023498536,2|0,3:2|1:0,2:0:0:0:
222,161,116205,1,2,3:2:0:0:
126,243,116365,1,2,3:2:0:0:
