osu file format v14

[General]
AudioFilename: audio.mp3
AudioLeadIn: 0
PreviewTime: 75777
Countdown: 0
SampleSet: Soft
StackLeniency: 0.5
Mode: 0
LetterboxInBreaks: 0
EpilepsyWarning: 1
WidescreenStoryboard: 1

[Editor]
Bookmarks: 23792,34060
DistanceSpacing: 1.3
BeatDivisor: 4
GridSize: 32
TimelineZoom: 1.7

[Metadata]
Title:Innocence
TitleUnicode:イノセンス
Artist:Aoba Ringo
ArtistUnicode:青葉りんご
Creator:tomatas95
Version:Extra
Source:幻創のイデア~Oratorio Phantasm Historia~
Tags:Gensou no Idea 3rdeye yaleufeu bossandy まもも mamomo visual novel japanese video game eroge kyuukai jeezyh Kokusei misure Eimi Fukada opening short ver vn op galgame j-pop pop jpop
BeatmapID:2457663
BeatmapSetID:1178466

[Difficulty]
HPDrainRate:5.5
CircleSize:4
OverallDifficulty:8.3
ApproachRate:9
SliderMultiplier:1.8
SliderTickRate:1

[Events]
//Background and Video events
Video,642,"bossandyIloveyou.avi"
0,0,"Ishipthis.jpg",0,0
//Break Periods
//Storyboard Layer 0 (Background)
//Storyboard Layer 1 (Fail)
//Storyboard Layer 2 (Pass)
//Storyboard Layer 3 (Foreground)
//Storyboard Layer 4 (Overlay)
//Storyboard Sound Samples

[TimingPoints]
12890,320.855614973262,4,2,1,60,1,0
13210,-125,4,2,1,60,0,0
14173,-100,4,2,3,70,0,0
14493,-100,4,2,1,70,0,0
19226,-100,4,2,1,5,0,0
19307,-100,4,2,2,70,0,0
19627,-100,4,2,1,70,0,0
24440,-100,4,2,1,75,0,0
24601,-100,4,2,1,70,0,0
29493,-100,4,2,1,5,0,0
29574,-100,4,2,2,70,0,0
29894,-100,4,2,1,70,0,0
34708,-133.333333333333,4,2,1,55,0,0
37194,-133.333333333333,4,2,1,5,0,0
37275,-133.333333333333,4,2,1,55,0,0
39761,-133.333333333333,4,2,1,5,0,0
39841,-133.333333333333,4,2,1,55,0,0
44894,-133.333333333333,4,2,1,5,0,0
44975,-117.647058823529,4,2,1,45,0,0
45295,-117.647058823529,4,2,1,55,0,0
45456,-133.333333333333,4,2,1,55,0,0
47221,-117.647058823529,4,2,1,55,0,0
47461,-117.647058823529,4,2,1,5,0,0
47542,-133.333333333333,4,2,1,55,0,0
50028,-133.333333333333,4,2,1,5,0,0
50109,-133.333333333333,4,2,1,55,0,0
54280,-133.333333333333,4,2,2,55,0,0
55242,-105.263157894737,4,2,2,65,0,0
55562,-105.263157894737,4,2,1,65,0,0
69680,-105.263157894737,4,2,2,55,0,0
70644,-105.263157894737,4,2,1,65,0,0
72247,-105.263157894737,4,2,2,55,0,0
73129,-105.263157894737,4,2,2,5,0,0
73210,-105.263157894737,4,2,1,65,0,0
73531,-105.263157894737,4,2,2,55,0,0
74012,-105.263157894737,4,2,1,65,0,0
74333,-105.263157894737,4,2,2,55,0,0
74654,-105.263157894737,4,2,1,65,0,0
75135,-105.263157894737,4,2,2,55,0,0
75455,-105.263157894737,4,2,1,55,0,0
75777,-90.9090909090909,4,2,3,80,0,1
76097,-90.9090909090909,4,2,1,80,0,1
80911,-90.9090909090909,4,2,3,80,0,1
81231,-90.9090909090909,4,2,1,80,0,1
83397,-90.9090909090909,4,2,1,5,0,1
83478,-90.9090909090909,4,2,2,80,0,1
83638,-90.9090909090909,4,2,1,80,0,1
86045,-90.9090909090909,4,2,2,80,0,1
86365,-90.9090909090909,4,2,1,80,0,1
88531,-90.9090909090909,4,2,1,5,0,1
88611,-90.9090909090909,4,2,1,80,0,1
91178,-90.9090909090909,4,2,2,80,0,1
91498,-90.9090909090909,4,2,1,80,0,1
93103,-90.9090909090909,4,2,1,80,0,1
93664,-90.9090909090909,4,2,1,5,0,1
93745,-90.9090909090909,4,2,3,80,0,1
94065,-90.9090909090909,4,2,1,80,0,1
95670,-90.9090909090909,4,2,1,80,0,0
95750,-90.9090909090909,4,2,3,80,0,0
95830,-90.9090909090909,4,2,1,80,0,0
96071,-90.9090909090909,4,2,3,80,0,0
96231,-90.9090909090909,4,2,3,70,0,0
96272,-90.9090909090909,4,2,3,70,0,0
96312,-90.9090909090909,4,2,3,80,0,1
96552,-90.9090909090909,4,2,3,5,0,1
96632,-90.9090909090909,4,2,1,80,0,1
98879,-90.9090909090909,4,2,2,80,0,1
99199,-90.9090909090909,4,2,1,80,0,1
101446,-90.9090909090909,4,2,2,80,0,1
101766,-90.9090909090909,4,2,1,80,0,1
103932,-90.9090909090909,4,2,3,5,0,1
104012,-90.9090909090909,4,2,2,80,0,1
104172,-90.9090909090909,4,2,1,80,0,1
104494,-90.9090909090909,4,2,3,80,0,1
104654,-90.9090909090909,4,2,1,80,0,1
106018,-90.9090909090909,4,2,3,80,0,1
106098,-90.9090909090909,4,2,1,80,0,1
106178,-90.9090909090909,4,2,3,80,0,1
106258,-90.9090909090909,4,2,1,80,0,1
106819,-90.9090909090909,4,2,1,5,0,1
106899,-90.9090909090909,4,2,1,80,0,1
109066,-90.9090909090909,4,2,1,5,0,1
109146,-90.9090909090909,4,2,1,80,0,1
111713,-90.9090909090909,4,2,3,80,0,1
111953,-90.9090909090909,4,2,3,5,0,1
112033,-90.9090909090909,4,2,1,80,0,1
114199,-90.9090909090909,4,2,3,5,0,1
114280,-90.9090909090909,4,2,3,80,0,1
114600,-90.9090909090909,4,2,1,80,0,1
116365,-90.9090909090909,4,2,1,70,0,0

[Colours]
Combo1 : 239,148,180
Combo2 : 71,217,228
Combo3 : 112,183,241
Combo4 : 220,80,250

[HitObjects]
151,27,13050,5,0,1:0:0:0:
79,114,13210,2,0,L|72:257,1,144,2|0,2:0|1:0,2:0:0:0:
74,304,13611,1,0,1:0:0:0:
74,304,13692,1,0,1:0:0:0:
186,382,13852,1,0,1:0:0:0:
216,363,13932,1,0,1:0:0:0:
238,335,14012,1,0,1:0:0:0:
249,301,14092,1,0,1:0:0:0:
247,265,14173,6,0,L|258:68,1,180,4|2,3:2|1:2,2:0:0:0:
363,202,14654,1,2,2:0:0:0:
257,85,14815,1,2,3:2:0:0:
389,58,14975,1,2,3:2:0:0:
253,180,15135,2,0,L|150:172,1,90,2|0,1:2|3:0,2:0:0:0:
290,290,15456,6,0,L|403:300,1,90,2|0,2:0|3:0,2:0:0:0:
512,295,15777,1,2,1:2:0:0:
454,174,15938,1,2,2:0:0:0:
379,297,16098,1,2,3:2:0:0:
455,147,16258,1,2,3:2:0:0:
449,368,16419,2,0,L|359:375,1,90,2|2,1:2|2:0,2:0:0:0:
283,219,16740,6,0,L|275:124,1,90,2|0,3:2|2:0,2:0:0:0:
209,315,17061,1,2,1:2:0:0:
169,132,17221,1,0,1:0:0:0:
169,132,17301,1,0,1:0:0:0:
169,132,17381,1,2,3:2:0:0:
283,219,17542,1,2,3:2:0:0:
108,243,17702,2,0,L|-10:238,1,90,2|2,1:2|3:2,2:0:0:0:
169,132,18023,6,0,L|287:137,1,90,2|0,2:0|3:0,2:0:0:0:
118,14,18344,2,0,L|0:9,1,90,2|0,1:2|2:0,2:0:0:0:
169,132,18665,1,2,3:2:0:0:
255,32,18825,1,0,3:0:0:0:
279,225,18986,2,0,P|340:208|416:230,1,135,2|0,1:2|2:0,2:0:0:0:
485,269,19307,6,0,L|492:76,1,180,4|2,3:2|1:2,2:0:0:0:
341,22,19788,1,2,2:0:0:0:
345,172,19948,1,2,3:2:0:0:
418,51,20109,1,2,3:2:0:0:
264,99,20269,2,0,L|165:104,1,90,2|0,1:2|3:0,2:0:0:0:
127,230,20590,6,0,L|226:225,1,90,2|0,2:0|3:0,2:0:0:0:
36,362,20911,2,0,L|31:263,1,90,2|2,1:2|2:0,2:0:0:0:
18,125,21232,1,2,3:2:0:0:
127,230,21392,1,2,3:2:0:0:
108,72,21553,1,2,1:2:0:0:
131,252,21713,1,2,2:0:0:0:
210,93,21873,6,0,L|313:96,1,90,2|0,3:2|2:0,2:0:0:0:
457,87,22194,1,2,1:2:0:0:
364,207,22355,1,0,1:0:0:0:
364,207,22435,1,0,1:0:0:0:
364,207,22515,1,2,3:2:0:0:
457,64,22676,1,2,3:2:0:0:
498,224,22836,2,0,L|491:344,1,90,2|2,1:2|3:2,2:0:0:0:
364,207,23157,6,0,L|371:87,1,90,2|0,2:0|3:0,2:0:0:0:
270,268,23478,1,2,1:2:0:0:
187,93,23638,1,2,2:0:0:0:
164,269,23799,1,2,3:2:0:0:
266,164,23959,1,0,1:0:0:0:
109,28,24119,1,2,1:2:0:0:
69,48,24199,1,0,1:0:0:0:
37,80,24279,1,0,1:0:0:0:
18,120,24359,1,0,1:0:0:0:
13,166,24440,6,0,P|74:196|186:164,1,180,4|2,3:2|1:2,2:0:0:0:
313,25,24922,1,2,2:0:0:0:
348,180,25082,1,2,3:2:0:0:
241,96,25242,1,2,3:2:0:0:
411,46,25403,2,0,P|431:86|436:149,1,90,2|0,1:2|3:0,2:0:0:0:
374,264,25724,6,0,P|354:224|349:161,1,90,2|0,2:0|3:0,2:0:0:0:
496,297,26045,1,2,1:2:0:0:
437,130,26205,1,2,2:0:0:0:
374,264,26365,1,2,3:2:0:0:
437,109,26526,1,2,3:2:0:0:
269,227,26686,2,0,P|226:241|159:221,1,90,2|2,1:2|2:0,2:0:0:0:
80,48,27007,6,0,L|76:138,1,90,2|0,3:2|2:0,2:0:0:0:
182,234,27328,1,2,1:2:0:0:
225,90,27488,1,0,1:0:0:0:
225,90,27569,1,0,1:0:0:0:
225,90,27649,1,2,3:2:0:0:
175,254,27809,1,2,3:2:0:0:
230,68,27970,2,0,P|276:57|338:67,1,90,2|2,1:2|3:2,2:0:0:0:
357,219,28291,6,0,P|311:230|249:220,1,90,2|0,3:2|3:0,2:0:0:0:
413,128,28611,2,0,P|459:117|521:127,1,90,2|0,1:2|2:0,2:0:0:0:
399,298,28932,1,2,3:2:0:0:
305,146,29093,1,0,3:0:0:0:
251,312,29253,2,0,P|208:293|95:322,1,135,2|0,1:2|2:0,2:0:0:0:
70,374,29574,6,0,P|96:304|57:192,1,180,4|2,3:2|1:2,2:0:0:0:
10,58,30055,1,2,2:0:0:0:
68,205,30216,1,2,3:2:0:0:
112,56,30376,1,2,3:2:0:0:
65,221,30537,2,0,P|110:232|160:227,1,90,2|0,1:2|3:0,2:0:0:0:
298,85,30857,6,0,P|253:74|203:79,1,90,2|0,2:0|3:0,2:0:0:0:
294,241,31178,1,2,1:2:0:0:
408,118,31339,1,2,2:0:0:0:
405,281,31499,1,2,3:2:0:0:
333,165,31660,1,2,3:2:0:0:
496,89,31820,2,0,P|507:132|503:176,1,90,2|2,1:2|2:0,2:0:0:0:
416,23,32141,6,0,P|372:12|329:23,1,90,2|0,3:2|2:0,2:0:0:0:
225,165,32462,1,2,1:2:0:0:
329,23,32622,1,0,1:0:0:0:
329,23,32702,1,0,1:0:0:0:
329,23,32783,1,2,3:2:0:0:
406,165,32943,1,2,3:2:0:0:
325,8,33103,1,2,1:2:0:0:
318,223,33264,1,2,3:2:0:0:
227,65,33424,6,0,P|185:44|43:70,1,180,2|2,2:0|1:2,2:0:0:0:
6,214,33906,1,2,2:0:0:0:
57,59,34066,1,0,1:0:0:0:
57,59,34146,1,0,1:0:0:0:
57,59,34226,1,0,1:0:0:0:
147,239,34387,1,0,1:0:0:0:
147,239,34467,1,0,1:0:0:0:
147,239,34547,1,0,1:0:0:0:
238,72,34708,6,0,B|278:66|278:66|326:82|326:82|388:79,1,135.000005149842,6|0,3:2|3:0,2:0:0:0:
473,25,35189,2,0,L|459:175,1,135.000005149842,2|0,2:0|2:0,2:0:0:0:
360,246,35670,2,0,L|366:170,1,67.5000025749208,2|0,3:2|2:0,2:0:0:0:
445,274,35991,5,2,3:2:0:0:
366,335,36152,2,0,L|293:326,1,67.5000025749208,2|0,2:0|3:0,2:0:0:0:
191,293,36472,1,2,2:2:0:0:
274,207,36633,1,2,3:2:0:0:
300,327,36793,1,2,2:2:0:0:
184,203,36954,2,0,P|164:159|177:80,1,101.250003862381,2|0,3:2|2:0,2:0:0:0:
187,70,37275,6,0,L|341:59,1,135.000005149842,2|0,3:2|3:0,2:0:0:0:
422,54,37756,2,0,P|438:91|421:195,1,135.000005149842,2|0,2:0|2:0,2:0:0:0:
349,252,38237,2,0,P|295:235|202:259,1,135.000005149842,2|0,3:2|3:0,2:0:0:0:
128,294,38718,2,0,L|136:197,1,67.5000025749208,2|0,2:0|3:0,2:0:0:0:
115,123,39039,1,2,2:0:0:0:
37,195,39200,2,0,L|29:293,1,67.5000025749208,2|0,3:2|2:0,2:0:0:0:
82,357,39521,2,0,P|131:345|190:364,1,101.250003862381,2|0,3:2|2:0,2:0:0:0:
213,384,39841,6,0,L|221:227,1,135.000005149842,2|0,3:2|3:0,2:0:0:0:
307,169,40323,2,0,L|304:243,1,67.5000025749208,2|0,2:0|3:0,2:0:0:0:
244,107,40644,1,0,2:0:0:0:
353,83,40804,2,0,L|505:104,1,135.000005149842,2|0,3:2|3:2,2:0:0:0:
433,17,41285,5,0,2:0:0:0:
412,173,41446,2,0,P|407:215|416:251,1,67.5000025749208,2|0,3:2|2:0,2:0:0:0:
482,327,41767,1,2,3:2:0:0:
375,339,41927,2,0,L|218:343,1,135.000005149842,2|0,2:0|2:0,2:0:0:0:
112,349,42408,5,0,3:2:0:0:
106,235,42569,1,0,2:0:0:0:
220,229,42729,2,0,B|221:188|221:188|237:161|237:161|237:69,1,135.000005149842,0|0,3:2|3:0,2:0:0:0:
147,134,43210,1,2,2:0:0:0:
147,134,43371,2,0,L|61:138,1,67.5000025749208,2|0,3:2|2:0,2:0:0:0:
237,98,43692,6,0,L|396:90,1,135.000005149842,2|0,3:2|3:0,2:0:0:0:
481,133,44173,1,2,2:0:0:0:
467,247,44333,1,2,3:2:0:0:
354,271,44494,1,2,2:0:0:0:
291,176,44654,2,0,P|244:165|180:185,1,101.250003862381,2|0,3:2|2:0,2:0:0:0:
172,214,44975,6,0,L|163:372,1,153.000002918243,6|0,3:2|3:0,2:0:0:0:
74,252,45456,2,0,L|82:97,1,135.000005149842,2|0,2:0|2:0,2:0:0:0:
155,33,45938,2,0,P|191:29|234:38,1,67.5000025749208,2|0,3:2|2:0,2:0:0:0:
295,109,46258,5,0,3:0:0:0:
295,109,46419,2,0,P|371:123|435:80,1,135.000005149842,2|0,2:0|2:0,2:0:0:0:
509,15,46900,1,0,3:2:0:0:
419,97,47061,1,2,2:0:0:0:
419,97,47141,1,2,2:0:0:0:
419,97,47221,2,0,L|411:215,1,114.750002188683,2|0,3:2|2:0,2:0:0:0:
469,272,47542,6,0,P|422:246|327:263,1,135.000005149842,2|0,3:2|3:0,2:0:0:0:
269,323,48023,2,0,P|305:346|413:327,1,135.000005149842,2|0,2:0|2:0,2:0:0:0:
248,243,48504,2,0,L|89:240,1,135.000005149842,2|0,3:2|3:0,2:0:0:0:
30,149,48986,6,0,L|192:153,1,135.000005149842,2|0,2:0|2:0,2:0:0:0:
213,69,49467,2,0,L|136:65,1,67.5000025749208,2|0,3:2|2:0,2:0:0:0:
252,151,49788,2,0,P|297:140|374:166,1,101.250003862381,2|0,3:2|2:0,2:0:0:0:
391,224,50109,6,0,P|381:187|425:90,1,135.000005149842,2|0,3:2|3:0,2:0:0:0:
488,178,50590,2,0,P|498:215|452:308,1,135.000005149842,2|0,2:0|2:0,2:0:0:0:
272,263,51071,2,0,P|299:235|401:228,1,135.000005149842,2|0,3:2|3:2,2:0:0:0:
357,326,51553,6,0,P|329:353|224:358,1,135.000005149842,2|0,2:0|2:0,2:0:0:0:
121,324,52034,2,0,L|113:235,1,67.5000025749208,2|0,3:2|2:0,2:0:0:0:
96,152,52355,1,2,3:2:0:0:
141,38,52515,1,2,2:0:0:0:
141,38,52595,1,2,2:0:0:0:
141,38,52676,6,0,L|302:30,1,135.000005149842,2|2,3:2|3:2,2:0:0:0:
410,48,53157,2,0,B|410:92|410:92|425:121|425:121|426:200,1,135.000005149842,2|0,2:0|2:0,2:0:0:0:
336,309,53638,2,0,B|336:265|336:265|321:236|321:236|320:157,1,135.000005149842,2|0,3:2|3:2,2:0:0:0:
254,112,54119,5,2,2:0:0:0:
162,137,54280,1,2,3:2:0:0:
138,231,54440,1,2,2:0:0:0:
207,297,54601,1,2,3:2:0:0:
299,271,54761,1,2,2:0:0:0:
321,178,54922,5,2,3:2:0:0:
299,271,55082,1,2,2:0:0:0:
277,364,55242,6,0,B|329:365|329:365|358:342|358:342|441:344,1,170.999995433807,6|0,3:2|3:0,2:0:0:0:
508,252,55724,1,0,2:0:0:0:
415,203,55884,2,0,L|419:97,1,85.4999977169037,0|0,3:0|2:0,2:0:0:0:
389,3,56205,1,0,3:0:0:0:
318,96,56365,2,0,L|232:99,1,85.4999977169037,0|0,2:0|3:0,2:0:0:0:
133,151,56686,5,2,2:0:0:0:
96,25,56847,2,0,L|181:28,1,85.4999977169037,2|0,3:2|2:0,2:0:0:0:
131,237,57168,2,0,L|134:146,1,85.4999977169037,2|0,3:2|2:0,2:0:0:0:
181,28,57488,1,2,3:2:0:0:
235,180,57649,6,0,L|232:271,1,85.4999977169037,2|0,2:0|3:0,2:0:0:0:
153,337,57970,1,2,2:0:0:0:
153,337,58130,2,0,P|225:305|311:341,1,170.999995433807,2|0,3:2|3:0,2:0:0:0:
408,384,58611,1,0,2:0:0:0:
370,274,58772,2,0,L|373:180,1,85.4999977169037,0|0,3:0|2:0,2:0:0:0:
479,99,59093,6,0,L|476:193,1,85.4999977169037,0|0,3:0|2:0,2:0:0:0:
457,302,59414,1,0,3:0:0:0:
372,188,59574,1,0,2:0:0:0:
372,188,59734,2,0,L|374:102,1,85.4999977169037,0|0,3:0|2:0,2:0:0:0:
303,25,60055,5,2,3:2:0:0:
212,50,60216,1,2,2:0:0:0:
121,75,60376,6,0,B|121:122|121:122|145:159|145:159|143:248,1,170.999995433807,2|0,3:2|3:0,2:0:0:0:
56,365,60857,2,0,L|51:279,1,85.4999977169037,0|0,2:0|3:0,2:0:0:0:
47,156,61178,1,0,2:0:0:0:
143,238,61339,1,0,3:0:0:0:
232,142,61499,6,0,L|317:147,1,85.4999977169037,0|0,2:0|3:0,2:0:0:0:
439,144,61820,1,2,2:0:0:0:
357,253,61980,2,0,P|315:262|274:253,1,85.4999977169037,2|0,3:2|2:0,2:0:0:0:
149,139,62301,2,0,P|190:131|231:141,1,85.4999977169037,2|0,3:2|2:0,2:0:0:0:
274,253,62622,1,2,3:2:0:0:
231,141,62783,6,0,L|238:30,1,85.4999977169037,2|0,2:0|3:0,2:0:0:0:
340,0,63103,1,2,2:0:0:0:
381,132,63264,2,0,L|394:323,1,170.999995433807,0|0,3:1|3:0,2:0:0:0:
478,384,63745,1,0,2:0:0:0:
393,303,63906,1,0,3:0:0:0:
393,303,64066,6,0,L|308:308,1,85.4999977169037,0|0,2:0|3:0,2:0:0:0:
205,358,64387,1,0,2:0:0:0:
207,241,64547,2,0,L|212:156,1,85.4999977169037,0|0,3:0|2:0,2:0:0:0:
312,69,64868,2,0,L|307:154,1,85.4999977169037,0|0,3:0|2:0,2:0:0:0:
307,308,65189,5,2,3:2:0:0:
371,235,65349,1,2,2:0:0:0:
435,162,65510,6,0,P|439:80|375:19,1,170.999995433807,2|0,3:2|3:0,2:0:0:0:
234,63,65991,2,0,L|143:52,1,85.4999977169037,0|0,2:0|3:0,2:0:0:0:
41,20,66312,1,0,2:0:0:0:
54,135,66472,2,0,L|43:226,1,85.4999977169037,0|0,3:0|2:0,2:0:0:0:
40,356,66793,5,0,3:0:0:0:
116,264,66954,1,2,2:0:0:0:
192,352,67114,2,0,L|278:337,1,85.4999977169037,2|0,3:2|2:0,2:0:0:0:
202,181,67435,2,0,L|217:267,1,85.4999977169037,2|0,3:2|2:0,2:0:0:0:
259,114,67756,1,2,3:2:0:0:
368,194,67916,6,0,L|283:208,1,85.4999977169037,2|0,2:0|3:0,2:0:0:0:
422,271,68237,1,2,2:0:0:0:
503,181,68398,2,0,P|512:135|430:42,1,170.999995433807,2|0,3:2|3:0,2:0:0:0:
352,110,68879,1,0,2:0:0:0:
317,0,69039,1,0,3:0:0:0:
237,90,69200,1,2,2:0:0:0:
237,90,69280,1,2,2:0:0:0:
237,90,69360,6,0,L|233:263,1,170.999995433807,0|2,3:0|3:2,2:0:0:0:
379,193,69841,1,2,2:0:0:0:
367,343,70002,1,2,3:2:0:0:
233,260,70162,1,2,2:0:0:0:
323,264,70323,5,2,3:2:0:0:
379,193,70483,1,2,2:0:0:0:
435,122,70644,6,0,B|377:99|377:99|333:117|333:117|263:106,1,170.999995433807,2|0,3:2|3:0,2:0:0:0:
150,20,71125,2,0,L|248:28,1,85.4999977169037,0|0,2:0|3:0,2:0:0:0:
177,115,71446,1,2,2:0:0:0:
62,0,71606,2,0,L|54:98,1,85.4999977169037,2|0,3:2|2:0,2:0:0:0:
165,285,71927,6,0,L|177:111,1,170.999995433807,2|2,3:2|3:2,2:0:0:0:
264,216,72408,1,2,2:0:0:0:
299,63,72569,1,2,3:2:0:0:
176,114,72729,1,2,2:0:0:0:
264,216,72889,2,0,P|323:197|389:239,1,128.249996575356,2|0,3:2|2:0,2:0:0:0:
418,252,73210,6,0,L|424:133,1,85.4999977169037,6|0,2:0|2:0,2:0:0:0:
498,356,73531,2,0,L|504:237,1,85.4999977169037,0|0,3:0|3:0,2:0:0:0:
422,166,73852,1,0,3:0:0:0:
373,322,74012,1,0,1:0:0:0:
262,216,74173,2,0,P|218:206|169:219,1,85.4999977169037,2|0,0:0|3:0,0:0:0:0:
64,331,74494,6,0,P|108:341|157:328,1,85.4999977169037,2|0,0:0|3:0,0:0:0:0:
179,214,74815,2,0,L|189:111,1,85.4999977169037,0|0,1:0|3:0,2:0:0:0:
194,94,75055,1,0,3:0:0:0:
194,94,75135,1,2,3:2:0:0:
317,0,75296,1,0,3:0:0:0:
473,115,75455,1,0,1:0:0:0:
496,155,75536,1,0,1:0:0:0:
500,201,75616,1,0,1:0:0:0:
484,245,75696,1,0,1:0:0:0:
447,277,75777,6,0,B|397:279|397:279|346:250|346:250|242:255,1,198.000006042481,4|0,3:2|1:0,2:0:0:0:
256,45,76258,1,0,2:0:0:0:
133,214,76418,1,0,3:0:0:0:
331,149,76579,1,0,3:0:0:0:
130,82,76740,6,0,P|71:104|34:241,1,198.000006042481,0|0,1:0|3:2,2:0:0:0:
119,363,77221,1,2,3:2:0:0:
220,183,77381,2,0,L|225:71,1,99.0000030212403,2|0,1:2|2:0,2:0:0:0:
362,247,77702,2,0,L|357:359,1,99.0000030212403,2|0,3:2|3:0,2:0:0:0:
504,181,78023,2,0,L|509:69,1,99.0000030212403,0|0,1:0|2:0,2:0:0:0:
357,345,78344,6,0,P|264:308|175:360,1,198.000006042481,4|0,3:2|1:0,2:0:0:0:
53,179,78825,1,0,1:0:0:0:
53,179,78906,1,0,1:0:0:0:
53,179,78986,1,0,3:0:0:0:
51,384,79146,1,0,3:0:0:0:
201,90,79307,6,0,B|168:42|168:42|168:202,1,198.000006042481,2|0,1:2|3:0,2:0:0:0:
268,331,79788,2,0,P|315:344|361:330,1,99.0000030212403,2|0,3:2|1:0,2:0:0:0:
474,178,80109,1,0,2:0:0:0:
481,355,80269,1,2,3:2:0:0:
327,216,80430,1,0,3:0:0:0:
471,42,80590,2,0,P|420:29|361:49,1,99.0000030212403,2|0,1:2|2:0,2:0:0:0:
141,177,80911,6,0,P|223:145|315:197,1,198.000006042481,4|0,3:2|1:0,2:0:0:0:
124,28,81392,1,0,2:0:0:0:
28,165,81553,2,0,L|22:280,1,99.0000030212403,0|0,3:0|3:0,2:0:0:0:
234,28,81873,6,0,L|223:225,1,198.000006042481,2|0,1:2|3:0,2:0:0:0:
232,384,82355,1,0,3:0:0:0:
357,259,82515,2,0,P|369:210|350:150,1,99.0000030212403,2|0,1:2|3:0,2:0:0:0:
110,166,82836,2,0,P|98:215|117:275,1,99.0000030212403,2|0,3:2|3:0,2:0:0:0:
189,38,83157,2,0,P|247:21|332:57,1,148.50000453186,2|0,1:2|3:0,2:0:0:0:
351,86,83478,6,0,B|387:136|387:136|387:-4,1,198.000006042481,4|0,3:2|1:0,2:0:0:0:
441,260,83959,1,0,1:0:0:0:
441,260,84039,1,0,1:0:0:0:
441,260,84119,1,0,3:0:0:0:
326,51,84280,1,0,3:0:0:0:
281,326,84440,6,0,P|192:350|106:275,1,198.000006042481,6|0,1:2|2:0,2:0:0:0:
35,70,84922,1,0,3:0:0:0:
8,299,85082,1,0,1:0:0:0:
174,113,85242,1,0,2:0:0:0:
202,352,85403,1,0,3:0:0:0:
249,363,85483,1,0,1:0:0:0:
296,348,85563,1,0,1:0:0:0:
328,311,85643,1,0,1:0:0:0:
339,263,85724,2,0,L|271:255,1,49.5000015106202,2|0,1:2|1:0,2:0:0:0:
429,161,85884,2,0,L|497:169,1,49.5000015106202,2|0,1:2|1:0,2:0:0:0:
331,34,86045,6,0,B|277:28|277:28|223:55|223:55|128:31,1,198.000006042481,4|0,3:2|1:0,2:0:0:0:
3,10,86526,1,0,3:0:0:0:
55,189,86686,1,0,3:0:0:0:
143,35,86847,1,2,3:2:0:0:
53,217,87007,2,0,L|49:324,1,99.0000030212403,2|0,1:2|3:0,2:0:0:0:
228,155,87328,6,0,L|232:48,1,99.0000030212403,0|0,2:0|3:0,2:0:0:0:
160,301,87649,2,0,P|208:289|253:307,1,99.0000030212403,0|0,1:0|2:0,2:0:0:0:
418,122,87970,2,0,P|370:134|325:116,1,99.0000030212403,2|0,3:2|3:0,2:0:0:0:
509,351,88291,2,0,P|522:295|475:212,1,148.50000453186,2|0,1:2|2:0,2:0:0:0:
444,210,88611,6,0,B|419:275|419:275|419:134,1,198.000006042481,2|0,3:2|1:0,2:0:0:0:
510,12,89093,1,0,1:0:0:0:
510,12,89173,1,0,1:0:0:0:
510,12,89253,1,0,3:0:0:0:
419,146,89414,1,0,3:0:0:0:
239,0,89574,2,0,L|234:118,1,99.0000030212403,2|0,1:2|3:0,2:0:0:0:
224,261,89895,5,2,3:2:0:0:
234,98,90055,1,2,3:2:0:0:
72,88,90216,1,0,1:0:0:0:
61,250,90376,1,0,3:0:0:0:
148,174,90537,5,2,3:2:0:0:
142,305,90697,1,2,3:2:0:0:
22,164,90857,1,2,1:2:0:0:
234,98,91018,1,2,2:0:0:0:
271,302,91178,6,0,P|326:311|407:205,1,198.000006042481,4|0,3:2|1:0,2:0:0:0:
464,0,91660,1,2,2:0:0:0:
464,0,91740,1,2,2:0:0:0:
464,0,91820,1,0,3:0:0:0:
512,186,91980,1,0,3:0:0:0:
311,10,92141,2,0,L|306:125,1,99.0000030212403,0|2,1:0|3:2,2:0:0:0:
167,265,92462,6,0,L|157:55,1,198.000006042481,6|0,2:0|1:0,2:0:0:0:
59,260,92943,1,0,2:0:0:0:
59,260,93023,1,0,3:2:0:0:
59,260,93103,1,0,3:0:0:0:
43,83,93264,1,0,3:2:0:0:
243,164,93424,2,0,P|302:190|386:142,1,148.50000453186,0|0,1:0|2:0,2:0:0:0:
432,56,93745,6,0,B|475:82|475:82|471:252,1,198.000006042481,4|0,3:2|1:0,2:0:0:0:
374,384,94226,1,0,3:0:0:0:
374,384,94307,1,0,3:0:0:0:
373,384,94387,1,2,3:2:0:0:
312,189,94547,1,0,3:0:0:0:
182,384,94708,2,0,L|174:263,1,99.0000030212403,0|0,1:0|3:0,2:0:0:0:
165,45,95029,5,2,1:2:0:0:
56,271,95189,1,0,3:0:0:0:
35,47,95349,1,0,1:0:0:0:
220,213,95510,1,0,1:0:0:0:
379,28,95670,1,2,3:2:0:0:
416,43,95750,1,0,3:0:0:0:
447,69,95830,1,0,3:0:0:0:
468,103,95910,1,0,1:0:0:0:
478,142,95990,1,0,1:0:0:0:
476,182,96071,1,0,3:0:0:0:
462,220,96151,1,0,3:0:0:0:
436,251,96231,1,0,3:0:0:0:
403,275,96312,6,0,B|350:268|350:268|302:300|302:300|185:290,1,198.000006042481,4|0,3:2|1:0,2:0:0:0:
0,243,96793,1,0,3:0:0:0:
117,117,96954,1,0,3:0:0:0:
118,345,97114,1,0,3:0:0:0:
267,146,97275,2,0,L|273:38,1,99.0000030212403,0|0,1:0|3:0,2:0:0:0:
403,275,97595,6,0,L|409:383,1,99.0000030212403,2|0,3:2|3:0,2:0:0:0:
498,156,97916,2,0,P|453:143|401:155,1,99.0000030212403,2|0,1:2|2:0,2:0:0:0:
255,365,98237,2,0,P|268:320|256:268,1,99.0000030212403,2|0,3:2|3:0,2:0:0:0:
0,190,98558,2,0,P|45:203|97:191,1,99.0000030212403,2|0,1:2|3:0,2:0:0:0:
209,0,98879,6,0,L|204:243,1,198.000006042481,4|0,3:2|1:0,2:0:0:0:
76,29,99360,1,0,1:0:0:0:
76,29,99440,1,0,1:0:0:0:
76,29,99521,1,0,3:0:0:0:
206,126,99681,1,0,3:0:0:0:
42,330,99841,2,0,L|40:208,1,99.0000030212403,2|0,1:2|3:0,2:0:0:0:
34,103,100162,5,0,2:0:0:0:
154,268,100323,2,0,P|202:282|253:264,1,99.0000030212403,2|0,3:2|1:0,2:0:0:0:
400,155,100644,1,0,2:0:0:0:
404,361,100804,1,2,3:2:0:0:
247,267,100964,1,2,3:2:0:0:
324,51,101125,2,0,P|372:40|424:57,1,99.0000030212403,2|0,1:2|2:0,2:0:0:0:
498,314,101446,6,0,L|503:113,1,198.000006042481,4|0,3:2|1:0,2:0:0:0:
386,273,101927,1,0,2:0:0:0:
277,157,102087,2,0,L|168:156,1,99.0000030212403,0|0,3:0|3:0,2:0:0:0:
39,359,102408,6,0,P|66:272|24:179,1,198.000006042481,2|0,1:2|3:0,2:0:0:0:
27,21,102889,1,0,3:0:0:0:
178,156,103050,2,0,L|182:34,1,99.0000030212403,2|0,1:2|3:0,2:0:0:0:
270,262,103371,2,0,L|266:360,1,99.0000030212403,2|0,3:2|3:0,2:0:0:0:
363,167,103692,2,0,L|367:7,1,148.50000453186,2|0,1:2|3:0,2:0:0:0:
401,0,104012,6,0,P|457:7|490:140,1,198.000006042481,4|0,3:2|1:0,2:0:0:0:
454,307,104494,1,2,0:0:0:0:
454,307,104574,1,2,0:0:0:0:
454,307,104654,1,0,3:0:0:0:
366,91,104815,1,0,3:0:0:0:
302,345,104975,6,0,B|246:339|246:339|193:372|193:372|104:362,1,198.000006042481,6|2,1:2|2:0,2:0:0:0:
0,166,105456,1,0,3:2:0:0:
26,379,105617,1,0,1:0:0:0:
154,163,105777,1,0,2:0:0:0:
302,345,105938,1,0,3:0:0:0:
330,305,106018,1,0,3:0:0:0:
340,256,106098,1,0,3:0:0:0:
330,208,106178,1,0,3:0:0:0:
301,169,106258,2,0,L|244:165,1,49.5000015106202,2|0,1:2|1:0,2:0:0:0:
362,60,106419,2,0,L|419:55,1,49.5000015106202,2|0,1:2|1:0,2:0:0:0:
173,3,106579,6,0,P|92:16|51:120,1,198.000006042481,4|0,3:2|1:0,2:0:0:0:
95,289,107061,1,2,2:0:0:0:
171,120,107221,1,0,3:0:0:0:
248,303,107381,1,0,3:0:0:0:
314,111,107542,2,0,L|321:9,1,99.0000030212403,2|0,1:2|3:1,2:0:0:0:
449,229,107863,6,0,L|456:331,1,99.0000030212403,0|0,2:0|3:0,2:0:0:0:
495,121,108184,2,0,P|446:108|388:127,1,99.0000030212403,2|0,1:2|2:0,2:0:0:0:
268,307,108504,2,0,P|317:320|375:301,1,99.0000030212403,2|0,3:2|3:0,2:0:0:0:
241,167,108825,2,0,P|189:146|93:190,1,148.50000453186,2|0,1:2|2:0,2:0:0:0:
29,270,109146,6,0,L|35:54,1,198.000006042481,2|0,3:2|1:0,2:0:0:0:
128,356,109627,1,0,1:0:0:0:
128,356,109708,1,0,1:0:0:0:
128,356,109788,1,0,3:0:0:0:
242,180,109948,1,0,3:0:0:0:
311,374,110109,2,0,L|438:377,1,99.0000030212403,2|0,1:2|3:0,2:0:0:0:
494,244,110430,5,0,2:0:0:0:
409,376,110590,1,0,3:2:0:0:
277,290,110750,1,0,1:0:0:0:
363,159,110911,1,0,3:0:0:0:
386,268,111071,5,2,3:2:0:0:
319,367,111232,1,2,3:2:0:0:
481,325,111392,1,2,1:2:0:0:
275,197,111553,1,2,3:2:0:0:
95,301,111713,6,0,B|51:336|51:336|49:172,1,198.000006042481,4|0,3:2|1:0,2:0:0:0:
85,1,112194,1,0,3:0:0:0:
162,171,112355,1,0,3:0:0:0:
7,92,112515,1,0,3:0:0:0:
221,28,112676,2,0,L|357:24,1,99.0000030212403,0|0,1:0|3:0,2:0:0:0:
283,312,112996,6,0,L|275:67,1,198.000006042481,4|0,3:2|1:0,2:0:0:0:
391,235,113478,1,0,2:0:0:0:
185,241,113638,2,0,L|49:245,1,99.0000030212403,0|0,3:0|3:0,2:0:0:0:
227,349,113959,2,0,L|403:354,1,148.50000453186,0|0,1:0|3:0,2:0:0:0:
479,367,114280,6,0,B|453:324|453:324|460:169,1,198.000006042481,4|0,3:2|1:0,2:0:0:0:
504,9,114761,1,2,1:2:0:0:
504,9,114841,1,0,1:0:0:0:
504,9,114922,1,2,3:2:0:0:
459,176,115082,1,0,3:0:0:0:
287,0,115242,2,0,L|279:109,1,99.0000030212403,2|0,1:2|3:0,2:0:0:0:
254,320,115563,5,2,1:2:0:0:
133,61,115724,1,0,1:0:0:0:
133,61,115804,1,0,1:0:0:0:
133,61,115884,1,2,3:2:0:0:
105,322,116045,1,0,1:0:0:0:
279,98,116205,5,2,3:2:0:0:
79,342,116365,1,2,3:2:0:0:
