osu file format v14

[General]
AudioFilename: audio.mp3
AudioLeadIn: 0
PreviewTime: 75777
Countdown: 0
SampleSet: Soft
StackLeniency: 0.7
Mode: 0
LetterboxInBreaks: 0
EpilepsyWarning: 1
WidescreenStoryboard: 1

[Editor]
DistanceSpacing: 1.3
BeatDivisor: 4
GridSize: 32
TimelineZoom: 1.7

[Metadata]
Title:Innocence
TitleUnicode:イノセンス
Artist:Aoba Ringo
ArtistUnicode:青葉りんご
Creator:tomatas95
Version:Easy
Source:幻創のイデア~Oratorio Phantasm Historia~
Tags:Gensou no Idea 3rdeye yaleufeu bossandy まもも mamomo visual novel japanese video game eroge kyuukai jeezyh Kokusei misure Eimi Fukada opening short ver vn op galgame j-pop pop jpop
BeatmapID:2458021
BeatmapSetID:1178466

[Difficulty]
HPDrainRate:1
CircleSize:2
OverallDifficulty:2
ApproachRate:3
SliderMultiplier:0.9
SliderTickRate:1

[Events]
//Background and Video events
Video,642,"bossandyIloveyou.avi"
0,0,"MitsukiMaid.jpg",0,0
//Break Periods
//Storyboard Layer 0 (Background)
//Storyboard Layer 1 (Fail)
//Storyboard Layer 2 (Pass)
//Storyboard Layer 3 (Foreground)
//Storyboard Layer 4 (Overlay)
//Storyboard Sound Samples

[TimingPoints]
12890,320.855614973262,4,2,1,60,1,0
14173,-100,4,2,3,70,0,0
14814,-100,4,2,1,70,0,0
19307,-100,4,2,2,70,0,0
19948,-100,4,2,1,70,0,0
24440,-100,4,2,1,75,0,0
24601,-100,4,2,1,70,0,0
29574,-100,4,2,2,70,0,0
30215,-100,4,2,1,70,0,0
34708,-100,4,2,1,55,0,0
44975,-100,4,2,1,45,0,0
45456,-100,4,2,1,55,0,0
54279,-100,4,2,2,55,0,0
55242,-100,4,2,2,65,0,0
56204,-100,4,2,1,65,0,0
69681,-100,4,2,2,55,0,0
70644,-100,4,2,1,65,0,0
72568,-100,4,2,2,55,0,0
73210,-100,4,2,1,65,0,0
73851,-100,4,2,2,55,0,0
74173,-100,4,2,1,65,0,0
75135,-100,4,2,2,55,0,0
75777,-100,4,2,3,80,0,1
76418,-100,4,2,1,80,0,1
80911,-100,4,2,3,80,0,1
81231,-100,4,2,1,80,0,1
83478,-100,4,2,2,80,0,1
83959,-100,4,2,1,80,0,1
86045,-100,4,2,2,80,0,1
86686,-100,4,2,1,80,0,1
91178,-100,4,2,2,80,0,1
91819,-100,4,2,1,80,0,1
93745,-100,4,2,3,80,0,1
94066,-100,4,2,1,80,0,1
95670,-100,4,2,1,80,0,0
96232,-100,4,2,1,80,0,0
96312,-100,4,2,3,80,0,1
96953,-100,4,2,1,80,0,1
98879,-100,4,2,2,80,0,1
99360,-100,4,2,1,80,0,1
101446,-100,4,2,2,80,0,1
101766,-100,4,2,1,80,0,1
104012,-100,4,2,2,80,0,1
104974,-100,4,2,1,80,0,1
111713,-100,4,2,3,80,0,1
112354,-100,4,2,1,80,0,1
114280,-100,4,2,3,80,0,1
114921,-100,4,2,1,80,0,1
116365,-100,4,2,1,70,0,0

[Colours]
Combo1 : 241,105,129
Combo2 : 241,216,69
Combo3 : 69,167,248
Combo4 : 245,130,109

[HitObjects]
16,287,14173,6,0,B|104:273|104:273|210:301,1,180,4|2,3:2|3:2,2:0:0:0:
279,312,15135,1,2,1:2:0:0:
368,314,15456,2,0,L|375:220,1,90,2|2,2:0|1:2,2:0:0:0:
454,181,16098,2,0,L|461:87,1,90,2|2,3:2|1:2,2:0:0:0:
431,5,16740,5,2,3:2:0:0:
348,41,17061,1,2,1:2:0:0:
265,75,17381,2,0,P|221:81|166:68,1,90,2|2,3:2|1:2,2:0:0:0:
93,37,18023,2,0,L|71:130,1,90,2|2,2:0|1:2,2:0:0:0:
51,212,18665,1,2,3:2:0:0:
101,286,18986,1,2,1:2:0:0:
188,306,19307,6,0,B|234:306|234:306|287:289|287:289|377:293,1,180,4|2,3:2|3:2,2:0:0:0:
455,285,20269,1,2,1:2:0:0:
485,200,20590,1,2,2:0:0:0:
451,116,20911,2,0,P|370:81|287:111,1,180,2|2,1:2|1:2,2:0:0:0:
231,181,21873,6,0,L|128:189,1,90,2|2,3:2|1:2,2:0:0:0:
63,141,22515,2,0,P|50:179|68:238,1,90,2|2,3:2|1:2,2:0:0:0:
115,297,23157,2,0,L|218:305,1,90,2|2,2:0|1:2,2:0:0:0:
291,329,23798,1,2,3:2:0:0:
379,314,24119,1,2,1:2:0:0:
441,249,24440,6,0,B|443:192|443:192|471:145|471:145|471:68,1,180,4|2,3:2|3:2,2:0:0:0:
398,22,25403,1,2,1:2:0:0:
326,76,25724,2,0,L|220:86,1,90,2|2,2:0|1:2,2:0:0:0:
147,93,26365,1,2,3:2:0:0:
81,31,26686,1,2,1:2:0:0:
34,107,27007,6,0,L|23:289,1,180,2|2,3:2|3:2,2:0:0:0:
89,348,27970,1,2,1:2:0:0:
180,343,28291,2,0,P|195:313|195:244,1,90,2|2,3:2|1:2,2:0:0:0:
178,169,28932,2,0,L|185:74,1,90,2|2,3:2|1:2,2:0:0:0:
271,53,29574,6,0,P|293:108|343:233,1,180,4|2,3:2|3:2,2:0:0:0:
383,297,30537,1,2,1:2:0:0:
467,330,30857,2,0,P|490:296|471:157,1,180,2|2,2:0|3:2,2:0:0:0:
415,98,31820,1,2,1:2:0:0:
327,75,32141,6,0,L|136:89,1,180,2|2,3:2|3:2,2:0:0:0:
57,83,33103,1,2,1:2:0:0:
8,158,33424,2,0,P|4:191|16:256,1,90,2|2,2:0|1:2,2:0:0:0:
61,322,34066,2,0,L|154:325,1,90,0|0,1:0|1:0,2:0:0:0:
238,303,34708,6,0,P|305:318|371:330,2,135,6|2|2,3:2|2:0|3:2,2:0:0:0:
174,239,35991,2,0,P|159:176|163:136,1,90,2|0,3:2|3:0,2:0:0:0:
281,17,36954,1,2,3:2:0:0:
348,84,37275,2,0,L|339:225,1,135,2|2,3:2|2:0,2:0:0:0:
375,348,38237,6,0,P|310:353|248:315,2,135,2|2|2,3:2|2:0|3:2,2:0:0:0:
450,298,39521,1,2,3:2:0:0:
475,212,39841,2,0,L|486:72,2,135,2|2|2,3:2|2:0|3:2,2:0:0:0:
299,253,41446,2,0,L|291:362,2,90,2|2|0,3:2|3:2|3:1,2:0:0:0:
304,163,42408,5,0,3:2:0:0:
390,135,42729,2,0,P|328:76|242:96,1,180,2|2,3:2|3:2,2:0:0:0:
214,181,43692,2,0,P|163:192|116:178,1,90,2|0,3:2|3:0,2:0:0:0:
16,41,44654,1,2,3:2:0:0:
97,78,44975,6,0,L|238:63,2,135,6|2|2,3:2|2:0|3:2,2:0:0:0:
27,135,46258,2,0,L|17:230,1,90,0|0,3:0|3:0,2:0:0:0:
106,381,47221,1,2,3:2:0:0:
184,336,47542,2,0,L|333:350,1,135,2|2,3:2|2:0,2:0:0:0:
365,222,48504,6,0,L|504:228,2,135,2|2|2,3:2|2:0|3:2,2:0:0:0:
274,215,49788,1,2,3:2:0:0:
196,260,50109,2,0,P|136:273|57:242,1,135,2|2,3:2|2:0,2:0:0:0:
144,139,51071,2,0,P|99:86|51:30,2,135,2|2|2,3:2|2:0|3:2,2:0:0:0:
207,199,52355,1,2,3:2:0:0:
290,231,52676,6,0,B|324:230|324:230|374:243|374:243|442:238,1,135,2|2,3:2|2:0,2:0:0:0:
495,125,53638,2,0,P|436:62|350:73,1,180,2|2,3:2|3:2,2:0:0:0:
300,338,55242,6,0,P|264:354|130:146,1,360,6|0,3:2|3:0,2:0:0:0:
200,101,56847,2,0,P|178:66|149:23,1,90,2|2,3:2|3:2,2:0:0:0:
60,28,57488,2,0,P|34:65|10:103,1,90,2|0,3:2|3:0,2:0:0:0:
7,193,58130,6,0,P|50:289|291:346,1,360,2|0,3:2|3:0,2:0:0:0:
459,324,60055,1,2,3:2:0:0:
503,245,60376,2,0,P|507:200|289:21,1,360,2|0,3:2|3:0,2:0:0:0:
224,78,61980,1,2,3:2:0:0:
138,49,62301,2,0,P|75:61|-1:37,1,135,2|2,3:2|2:0,2:0:0:0:
26,167,63264,6,0,P|192:233|346:138,1,360,0|0,3:1|3:0,2:0:0:0:
484,43,65189,1,2,3:2:0:0:
494,132,65510,2,0,P|417:282|237:348,1,360,2|0,3:2|3:0,2:0:0:0:
157,329,67114,1,2,3:2:0:0:
79,283,67435,2,0,P|54:251|59:157,1,135,2|2,3:2|2:0,2:0:0:0:
185,203,68398,6,0,B|256:205|256:205|360:173|360:173|455:177,1,270,2|0,3:2|3:0,2:0:0:0:
499,101,69681,2,0,P|511:51|498:0,2,90,2|2|2,3:2|3:2|3:2,2:0:0:0:
422,53,70644,6,0,P|333:39|235:25,1,180,2|0,3:2|3:0,2:0:0:0:
153,26,71606,1,2,3:2:0:0:
127,112,71927,2,0,P|185:181|256:261,1,180,2|2,3:2|3:2,2:0:0:0:
309,310,72889,1,2,3:2:0:0:
395,335,73210,6,0,P|425:251|456:158,1,180,6|2,2:0|3:2,2:0:0:0:
475,77,74173,1,2,2:0:0:0:
391,43,74494,2,0,B|305:20|305:20|204:49,1,180,2|2,2:0|3:2,2:0:0:0:
67,144,75777,6,0,P|42:225|106:289,1,180,4|0,3:2|3:0,2:0:0:0:
132,205,76740,2,0,L|231:200,1,90,0|0,1:0|3:2,2:0:0:0:
310,185,77381,1,2,1:2:0:0:
399,192,77702,2,0,L|405:303,1,90,2|0,3:2|1:0,2:0:0:0:
345,356,78344,6,0,P|323:322|184:301,1,180,4|0,3:2|3:0,2:0:0:0:
128,234,79307,2,0,P|100:292|130:361,2,135,2|2|2,1:2|3:2|3:2,2:0:0:0:
185,164,80590,1,2,1:2:0:0:
274,156,80911,6,0,L|281:257,2,90,4|0|0,3:2|1:0|3:0,2:0:0:0:
253,68,81873,2,0,P|337:37|425:71,1,180,2|2,1:2|1:2,2:0:0:0:
474,137,82836,1,2,3:2:0:0:
468,226,83157,1,2,1:2:0:0:
428,306,83478,6,0,B|368:327|368:327|289:310,2,135,4|0|6,3:2|1:0|1:2,2:0:0:0:
448,218,84761,2,0,L|431:112,1,90,0|0,2:0|1:0,2:0:0:0:
416,40,85403,1,0,3:0:0:0:
331,8,85724,1,2,1:2:0:0:
263,67,86045,6,0,B|263:111|263:111|283:168|283:168|283:257,1,180,4|0,3:2|3:0,2:0:0:0:
283,333,87007,1,2,1:2:0:0:
196,357,87328,2,0,L|107:342,1,90,2|0,2:0|1:0,2:0:0:0:
39,281,87970,1,2,3:2:0:0:
69,196,88291,1,2,1:2:0:0:
144,147,88611,6,0,B|229:119|229:119|321:161,1,180,2|0,3:2|3:0,2:0:0:0:
368,226,89574,1,2,1:2:0:0:
446,182,89895,2,0,P|463:144|455:93,1,90,2|0,3:2|1:0,2:0:0:0:
410,19,90537,1,2,3:2:0:0:
330,61,90857,1,2,1:2:0:0:
246,28,91178,6,0,P|213:7|83:35,1,180,4|0,3:2|3:0,2:0:0:0:
41,114,92141,1,0,1:0:0:0:
77,196,92462,2,0,P|103:204|171:189,1,90,6|0,2:0|1:0,2:0:0:0:
241,148,93103,2,0,P|284:136|327:146,1,90,0|0,3:0|1:0,2:0:0:0:
409,186,93745,5,4,3:2:0:0:
469,252,94066,1,0,1:0:0:0:
445,339,94387,2,0,L|355:335,1,90,2|0,3:2|1:0,2:0:0:0:
308,258,95029,2,0,L|218:254,1,90,2|0,1:2|1:0,2:0:0:0:
181,172,95670,2,0,L|91:168,1,90,2|0,3:2|1:0,2:0:0:0:
23,109,96312,6,0,P|52:59|174:30,1,180,4|0,3:2|3:0,2:0:0:0:
235,82,97275,2,0,L|339:73,1,90,0|2,1:0|3:2,2:0:0:0:
406,36,97916,1,2,1:2:0:0:
464,104,98237,2,0,L|454:193,1,90,2|2,3:2|1:2,2:0:0:0:
455,283,98879,6,0,P|388:296|320:267,1,135,4|0,3:2|1:0,2:0:0:0:
271,149,99841,2,0,L|287:14,2,135,2|2|2,1:2|3:2|3:2,2:0:0:0:
218,222,101125,1,2,1:2:0:0:
149,282,101446,6,0,L|159:371,2,90,4|0|0,3:2|1:0|3:0,2:0:0:0:
88,215,102408,2,0,P|78:173|86:106,1,90,2|0,1:2|3:0,2:0:0:0:
143,65,103050,1,2,1:2:0:0:
225,100,103371,1,2,3:2:0:0:
289,37,103692,1,2,1:2:0:0:
354,98,104012,6,0,B|421:85|421:85|496:114,2,135,4|2|6,3:2|2:0|1:2,2:0:0:0:
291,163,105296,2,0,L|288:265,1,90,0|0,2:0|1:0,2:0:0:0:
287,343,105938,1,0,3:0:0:0:
371,372,106258,1,2,1:2:0:0:
453,335,106579,6,0,B|486:253|486:253|456:163,1,180,4|0,3:2|3:0,2:0:0:0:
411,88,107542,2,0,L|321:98,1,90,2|0,1:2|3:0,2:0:0:0:
276,176,108184,2,0,L|186:186,1,90,2|2,1:2|3:2,2:0:0:0:
99,209,108825,1,2,1:2:0:0:
8,211,109146,6,0,L|22:76,2,135,2|0|2,3:2|1:0|1:2,2:0:0:0:
10,301,110430,2,0,P|51:311|101:297,1,90,0|0,2:0|1:0,2:0:0:0:
165,241,111071,1,2,3:2:0:0:
215,166,111392,1,2,1:2:0:0:
278,101,111713,6,0,P|300:75|441:73,1,180,4|0,3:2|3:0,2:0:0:0:
501,129,112676,1,0,1:0:0:0:
469,213,112996,2,0,L|462:306,1,90,4|0,3:2|1:0,2:0:0:0:
412,377,113638,1,0,3:0:0:0:
333,333,113959,1,0,1:0:0:0:
263,276,114280,6,0,B|262:223|262:223|281:172|281:172|279:84,1,180,4|2,3:2|3:2,2:0:0:0:
216,35,115242,1,2,1:2:0:0:
138,80,115563,2,0,L|131:170,1,90,2|2,1:2|3:2,2:0:0:0:
77,244,116205,2,0,L|73:288,1,45,2|2,3:2|3:2,2:0:0:0:
