osu file format v14

[General]
AudioFilename: audio.mp3
AudioLeadIn: 0
PreviewTime: 75078
Countdown: 0
SampleSet: Soft
StackLeniency: 0.7
Mode: 0
LetterboxInBreaks: 0
WidescreenStoryboard: 1

[Editor]
Bookmarks: 24682,36389,68218
DistanceSpacing: 0.9
BeatDivisor: 4
GridSize: 4
TimelineZoom: 1.6

[Metadata]
Title:Crystal of Beginning
TitleUnicode:Crystal of Beginning
Artist:Aoba Ringo & Nakae Mitsuki
ArtistUnicode:青葉りんご&中恵光城
Creator:My Angel Rize
Version:Easy
Source:ソーサリージョーカーズ
Tags:sorcery jokers eroge visual novel op2 lecana
BeatmapID:1558283
BeatmapSetID:731428

[Difficulty]
HPDrainRate:2
CircleSize:3
OverallDifficulty:2
ApproachRate:4
SliderMultiplier:1
SliderTickRate:1

[Events]
//Background and Video events
0,0,"296_waifu2x_art_noise1_scale_tta_1.png",0,0
//Break Periods
//Storyboard Layer 0 (Background)
//Storyboard Layer 1 (Fail)
//Storyboard Layer 2 (Pass)
//Storyboard Layer 3 (Foreground)
//Storyboard Sound Samples

[TimingPoints]
10048,365.853658536585,4,2,2,60,1,0
10962,-100,4,2,3,60,0,0
11145,-100,4,2,2,60,0,0
11511,-100,4,2,3,60,0,0
11694,-100,4,2,2,60,0,0
11877,-100,4,2,3,60,0,0
12243,-100,4,2,2,60,0,0
12426,-100,4,2,3,60,0,0
24956,-100,4,2,2,5,0,0
25047,-100,4,2,2,60,0,0
25413,-100,4,2,4,60,0,0
25505,-100,4,2,2,60,0,0
26237,-100,4,2,2,5,0,0
26328,-100,4,2,2,60,0,0
26877,-100,4,2,4,60,0,0
26968,-100,4,2,2,60,0,0
27883,-100,4,2,2,5,0,0
27974,-100,4,2,2,60,0,0
28340,-100,4,2,4,60,0,0
28432,-100,4,2,2,60,0,0
29163,-100,4,2,2,5,0,0
29255,-100,4,2,2,60,0,0
29804,-100,4,2,4,60,0,0
29895,-100,4,2,2,60,0,0
30810,-100,4,2,2,5,0,0
30901,-100,4,2,2,60,0,0
32090,-100,4,2,2,5,0,0
32182,-100,4,2,2,60,0,0
32730,-100,4,2,4,60,0,0
32822,-100,4,2,2,60,0,0
33737,-100,4,2,2,5,0,0
33828,-100,4,2,2,60,0,0
35017,-100,4,2,2,5,0,0
35108,-100,4,2,4,60,0,0
35657,-100,4,2,3,60,0,0
35840,-100,4,2,2,60,0,0
36938,-100,4,2,4,60,0,0
37487,-100,4,2,3,60,0,0
38127,-100,4,2,4,60,0,0
38950,-100,4,2,3,60,0,0
39865,-100,4,2,4,60,0,0
40413,-100,4,2,3,60,0,0
41328,-100,4,2,4,60,0,0
41877,-100,4,2,3,60,0,0
42791,-100,4,2,4,60,0,0
43340,-100,4,2,3,60,0,0
44255,-100,4,2,4,60,0,0
44712,-100,4,2,3,60,0,0
45169,-100,4,2,4,60,0,0
45352,-100,4,2,3,60,0,0
46084,-100,4,2,4,60,0,0
46267,-100,4,2,3,60,0,0
48096,-100,4,2,4,60,0,0
49194,-100,4,2,2,60,0,0
50840,-100,4,2,3,60,0,0
51389,-100,4,2,4,60,0,0
51938,-100,4,2,3,60,0,0
52121,-100,4,2,4,60,0,0
52304,-100,4,2,3,60,0,0
52852,-100,4,2,4,60,0,0
53310,-100,4,2,2,5,0,0
53401,-100,4,2,3,60,0,0
53584,-100,4,2,4,60,0,0
53767,-100,4,2,3,60,0,0
54316,-100,4,2,4,60,0,0
54499,-100,4,2,3,60,0,0
54682,-100,4,2,4,60,0,0
54865,-100,4,2,3,60,0,0
55047,-100,4,2,4,60,0,0
55230,-100,4,2,3,60,0,0
55779,-100,4,2,4,60,0,0
56328,-100,4,2,3,60,0,0
56511,-100,4,2,4,60,0,0
56694,-100,4,2,3,60,0,0
57243,-100,4,2,4,60,0,0
57791,-100,4,2,3,60,0,0
60718,-100,4,2,2,60,0,0
61541,-100,4,2,2,5,0,0
61633,365.853658536585,3,2,3,45,1,0
63004,-100,3,2,4,45,0,0
63462,-100,3,2,3,45,0,0
65200,-100,3,2,4,45,0,0
65291,-100,3,2,3,45,0,0
66572,-100,3,2,4,45,0,0
66754,-100,3,2,3,45,0,0
68218,365.853658536585,4,2,2,60,1,0
68949,-100,4,2,4,60,0,0
69132,-100,4,2,2,60,0,0
69681,-100,4,2,4,60,0,0
69864,-100,4,2,2,60,0,0
70413,-100,4,2,4,60,0,0
70596,-100,4,2,2,60,0,0
71144,-100,4,2,4,60,0,0
71327,-100,4,2,2,60,0,0
71876,-100,4,2,4,60,0,0
72059,-100,4,2,2,60,0,0
72608,-100,4,2,4,60,0,0
72791,-100,4,2,2,60,0,0
75535,-100,4,2,2,70,0,1
75809,-100,4,2,2,5,0,1
75900,-100,4,2,2,70,0,1
78736,-100,4,2,2,5,0,1
78827,-100,4,2,2,70,0,1
81663,-100,4,2,2,5,0,1
81754,-100,4,2,2,70,0,1
82943,-100,4,2,2,5,0,1
83035,-100,4,2,2,70,0,1
87059,-100,4,2,2,70,0,0
87242,-100,4,2,2,70,0,1
87516,-100,4,2,2,5,0,1
87608,-100,4,2,2,70,0,1
90443,-100,4,2,2,5,0,1
90535,-100,4,2,2,70,0,1
93370,-100,4,2,2,5,0,1
93461,-100,4,2,2,70,0,1
94650,-100,4,2,2,5,0,1
94742,-100,4,2,2,70,0,1
98949,365.853658536585,3,2,2,60,1,0
101419,-100,3,2,2,5,0,0
101510,-100,3,2,4,60,0,0
101693,-100,3,2,2,60,0,0
102059,-100,3,2,4,60,0,0
102242,-100,3,2,2,60,0,0
102608,-100,3,2,4,60,0,0
102791,-100,3,2,2,60,0,0
103157,-100,3,2,4,60,0,0
103339,-100,3,2,2,60,0,0
103705,-100,3,2,4,60,0,0
103888,-100,3,2,2,60,0,0
106632,-100,3,2,2,50,0,0
106998,-100,3,2,2,35,0,0
107364,-100,3,2,2,40,0,0
107730,-100,3,2,2,45,0,0
108096,-100,3,2,2,50,0,0
108461,-100,3,2,2,55,0,0
108827,-100,3,2,2,60,0,0

[Colours]
Combo1 : 26,116,242
Combo2 : 164,32,240
Combo3 : 37,185,239
Combo4 : 23,209,116
Combo5 : 226,45,124

[HitObjects]
48,168,10048,6,0,P|60:288|68:336,2,150,12|12|8,0:0|0:0|0:0,0:0:0:0:
136,64,11694,2,0,P|200:23|284:47,1,150,8|8,0:0|0:0,0:0:0:0:
356,196,12974,6,0,B|280:200|236:164|236:164|260:200|252:232,1,200,12|2,0:0|0:0,0:0:0:0:
212,316,14072,2,0,P|164:324|104:320,1,100,8|2,0:0|0:0,0:0:0:0:
36,272,14804,1,10,0:0:0:0:
28,184,15169,2,0,B|56:124|32:72|32:72|72:114|113:105,1,200,0|2,0:0|0:0,0:0:0:0:
192,76,16267,5,8,0:0:0:0:
272,120,16633,2,0,L|384:104,1,100,2|10,0:0|0:0,0:0:0:0:
448,152,17365,2,0,B|416:280|484:224|444:364,2,200,0|2|6,0:0|0:0|0:0,0:0:0:0:
370,105,19194,6,0,P|310:89|266:97,1,100,10|2,0:0|0:0,0:0:0:0:
204,152,19926,1,8,0:0:0:0:
128,108,20291,2,0,L|108:212,1,100,2|10,0:0|0:0,0:0:0:0:
64,284,21023,2,0,P|124:344|240:320,1,200,0|2,0:0|0:0,0:0:0:0:
292,260,22121,6,0,L|404:296,1,100,8|2,0:0|0:0,0:0:0:0:
472,316,22852,1,8,0:0:0:0:
492,228,23218,2,0,B|520:156|520:156|436:212|356:188|312:136|296:92|296:56|300:8,1,400,4|4,0:0|0:0,0:0:0:0:
216,68,25047,6,0,P|76:68|48:116,1,200,10|8,0:0|0:0,0:0:0:0:
16,188,26145,2,0,L|24:288,1,100,0|10,0:0|0:0,0:0:0:0:
104,328,26877,2,0,B|252:304|184:372|320:340,1,200,2|6,0:0|0:0,0:0:0:0:
388,364,27974,6,0,P|432:308|384:192,1,200,10|8,0:0|0:0,0:0:0:0:
380,108,29072,2,0,L|284:136,1,100,0|10,0:0|0:0,0:0:0:0:
204,176,29804,1,0,0:0:0:0:
120,148,30169,1,10,0:0:0:0:
32,124,30535,6,0,L|12:240,1,100,4|10,0:0|0:0,0:0:0:0:
104,240,31267,2,0,L|124:356,1,100,2|8,0:0|0:0,0:0:0:0:
204,376,31999,2,0,B|232:352|232:320|232:320|264:304|316:312|352:336|368:360,1,200,0|0,0:0|0:0,0:0:0:0:
448,336,33096,1,10,0:0:0:0:
412,252,33462,6,0,L|448:40,1,200,4|2,0:0|0:0,0:0:0:0:
356,72,34560,1,8,0:0:0:0:
296,140,34926,2,0,L|184:124,1,100,0|2,0:0|0:0,0:0:0:0:
220,40,35657,2,0,L|108:24,1,100,2|10,0:0|0:0,0:0:0:0:
52,84,36389,5,12,0:0:0:0:
32,172,36755,2,0,L|60:380,1,200,0|8,0:0|0:0,0:0:0:0:
144,344,37852,1,2,0:0:0:0:
208,280,38218,2,0,P|276:244|388:288,1,200,0|8,0:0|0:0,0:0:0:0:
460,340,39316,5,2,0:0:0:0:
476,252,39682,2,0,P|492:144|496:48,1,200,0|8,0:0|0:0,0:0:0:0:
408,36,40779,1,2,0:0:0:0:
320,56,41145,2,0,L|112:108,1,200,0|8,0:0|0:0,0:0:0:0:
40,80,42243,5,2,0:0:0:0:
32,168,42608,2,0,B|48:304|48:304|76:368,1,200,0|8,0:0|0:0,0:0:0:0:
148,308,43706,1,2,0:0:0:0:
228,352,44072,2,0,P|280:360|332:344,1,100,0|0,0:0|0:0,0:0:0:0:
404,308,44804,1,8,0:0:0:0:
440,228,45169,6,0,B|432:132|472:176|448:64,2,150,2|2|8,0:0|0:0|0:0,0:0:0:0:
404,308,46633,2,0,L|296:288,1,100,0|2,0:0|0:0,0:0:0:0:
232,344,47365,2,0,L|124:324,1,100,2|2,0:0|0:0,0:0:0:0:
56,280,48096,6,0,P|28:180|80:92,1,200,2|2,0:0|0:0,0:0:0:0:
140,40,49194,1,2,0:0:0:0:
196,112,49560,6,0,L|400:88,1,200,4|2,0:0|0:0,0:0:0:0:
476,124,50657,1,2,0:0:0:0:
488,212,51023,2,0,B|412:224|344:180|344:180|360:204|360:244,1,200,2|0,0:0|0:0,0:0:0:0:
268,228,52121,1,2,0:0:0:0:
304,312,52487,6,0,L|460:296,2,150,2|2|0,0:0|0:0|0:0,0:0:0:0:
220,348,53950,2,0,P|188:324|128:320,1,100,2|2,0:0|0:0,0:0:0:0:
48,360,54682,2,0,P|23:317|25:267,1,100,2|2,0:0|0:0,0:0:0:0:
104,220,55413,6,0,L|84:20,1,200,2|2,0:0|0:0,0:0:0:0:
172,36,56511,1,2,0:0:0:0:
240,96,56877,2,0,P|336:136|432:100,1,200,2|2,0:0|0:0,0:0:0:0:
480,36,57974,1,2,0:0:0:0:
512,120,58340,6,0,B|500:208|500:208|472:280,2,150,2|2|2,0:0|0:0|0:0,0:0:0:0:
480,36,59804,1,2,0:0:0:0:
423,107,60169,1,2,0:0:0:0:
332,100,60535,2,0,B|270:82|270:82|126:114,1,200,2|4,0:0|0:0,0:0:0:0:
76,176,61633,6,0,P|44:133|64:73,2,100,0|8|0,0:0|0:0|0:0,0:0:0:0:
136,240,62730,2,0,P|120:296|108:344,1,100,6|0,0:0|0:0,0:0:0:0:
200,320,63462,1,8,0:0:0:0:
280,360,63828,6,0,P|328:365|366:335,2,100,6|0|8,0:0|0:0|0:0,0:0:0:0:
296,272,64925,2,0,B|260:124|260:124|220:68,1,200,6|8,0:0|0:0,0:0:0:0:
188,164,66023,2,0,B|40:200|40:200|-16:240,1,200,2|8,0:0|0:0,0:0:0:0:
16,316,67120,2,0,P|64:332|120:320,2,100,2|0|8,0:0|0:0|0:0,0:0:0:0:
60,236,68218,6,0,L|36:128,1,100,6|8,0:0|0:0,0:0:0:0:
68,52,68949,2,0,P|136:24|184:32,1,100,2|8,0:0|0:0,0:0:0:0:
224,88,69681,2,0,P|292:116|340:108,1,100,6|8,0:0|0:0,0:0:0:0:
384,52,70413,1,2,0:0:0:0:
472,32,70778,1,8,0:0:0:0:
508,116,71144,6,0,L|516:232,1,100,6|10,0:0|0:0,0:0:0:0:
460,288,71876,2,0,P|396:316|356:304,1,100,2|8,0:0|0:0,0:0:0:0:
300,252,72608,2,0,P|240:228|192:236,1,100,6|8,0:0|0:0,0:0:0:0:
124,272,73339,1,10,0:0:0:0:
36,252,73705,1,6,0:0:0:0:
32,324,75535,6,0,L|44:208,1,100,4|8,0:0|0:0,0:0:0:0:
88,144,76266,2,0,P|144:124|200:140,1,100,0|8,0:0|0:0,0:0:0:0:
252,188,76998,1,0,0:0:0:0:
308,256,77364,2,0,P|384:296|488:256,1,200,8|8,0:0|0:0,0:0:0:0:
500,172,78461,6,0,B|516:64|516:64|500:4,2,150,2|0|8,0:0|0:0|0:0,0:0:0:0:
420,128,79925,2,0,P|348:72|240:100,1,200,0|2,0:0|0:0,0:0:0:0:
176,148,81022,1,8,0:0:0:0:
88,124,81388,6,0,L|56:232,1,100,2|8,0:0|0:0,0:0:0:0:
56,312,82120,2,0,L|164:280,1,100,0|8,0:0|0:0,0:0:0:0:
216,220,82852,2,0,P|288:192|388:264,1,200,0|0,0:0|0:0,0:0:0:0:
456,308,83949,1,8,0:0:0:0:
464,220,84315,6,0,L|452:112,1,100,6|10,0:0|0:0,0:0:0:0:
380,68,85047,1,2,0:0:0:0:
296,100,85413,2,0,B|105:88|206:189|-7:147,1,300,10|10,0:0|0:0,0:0:0:0:
12,60,86876,1,10,0:0:0:0:
100,36,87242,6,0,L|216:52,1,100,6|10,0:0|0:0,0:0:0:0:
276,96,87974,2,0,L|392:80,1,100,0|10,0:0|0:0,0:0:0:0:
460,52,88705,1,0,0:0:0:0:
452,140,89071,2,0,L|424:348,1,200,10|8,0:0|0:0,0:0:0:0:
348,288,90169,6,0,P|288:248|208:268,2,150,2|0|8,0:0|0:0|0:0,0:0:0:0:
428,328,91632,5,0,0:0:0:0:
452,240,91998,2,0,L|476:136,2,100,10|2|8,0:0|0:0|0:0,0:0:0:0:
364,212,93096,6,0,L|248:172,1,100,2|8,0:0|0:0,0:0:0:0:
220,252,93827,2,0,L|104:292,1,100,0|8,0:0|0:0,0:0:0:0:
40,256,94559,1,0,0:0:0:0:
0,172,94925,2,0,P|4:88|108:48,1,200,8|8,0:0|0:0,0:0:0:0:
180,84,96022,6,0,L|232:68,2,50,2|10|10,0:0|0:0|0:0,0:0:0:0:
100,46,96754,1,0,0:0:0:0:
84,136,97120,1,10,0:0:0:0:
144,204,97486,2,0,L|256:172,1,100,2|10,0:0|0:0,0:0:0:0:
296,104,98217,2,0,L|408:136,1,100,8|8,0:0|0:0,0:0:0:0:
472,176,98949,6,0,L|456:340,1,150,6|2,0:0|0:0,0:0:0:0:
340,260,100046,2,0,L|182:306,1,150,2|2,0:0|0:0,0:0:0:0:
68,264,101144,5,2,0:0:0:0:
60,176,101509,2,0,B|52:88|104:124|76:20,2,150,2|2|2,0:0|0:0|0:0,0:0:0:0:
180,240,103156,6,0,B|188:328|136:292|164:396,2,150,2|2|0,0:0|0:0|0:0,0:0:0:0:
268,228,104619,2,0,L|256:72,1,150,2|2,0:0|0:0,0:0:0:0:
332,28,105534,6,0,P|396:12|480:48,1,150,2|2,0:0|0:0,0:0:0:0:
496,128,106448,2,0,L|488:196,1,50,0|8,0:0|0:0,0:0:0:0:
256,192,106997,12,8,109009,0:0:0:0:
