osu file format v14

[General]
AudioFilename: audio.mp3
AudioLeadIn: 0
PreviewTime: -1
Countdown: 1
SampleSet: Soft
StackLeniency: 0.7
Mode: 0
LetterboxInBreaks: 0
WidescreenStoryboard: 0

[Editor]
DistanceSpacing: 1.2
BeatDivisor: 4
GridSize: 4
TimelineZoom: 2.2

[Metadata]
Title:Heart Attack
TitleUnicode:Heart Attack
Artist:AoA
ArtistUnicode:AoA
Creator:kristrace
Version:ow
Source:
Tags:
BeatmapID:1482710
BeatmapSetID:700361

[Difficulty]
HPDrainRate:6
CircleSize:3.7
OverallDifficulty:6
ApproachRate:8.5
SliderMultiplier:1.9
SliderTickRate:1

[Events]
//Background and Video events
0,0,"bg.jpg",0,0
//Break Periods
2,14370,21352
//Storyboard Layer 0 (Background)
//Storyboard Layer 1 (Fail)
//Storyboard Layer 2 (Pass)
//Storyboard Layer 3 (Foreground)
//Storyboard Layer 4 (Overlay)
//Storyboard Sound Samples

[TimingPoints]
4885,476.190476190476,4,2,0,100,1,0
6313,-66.6666666666667,4,2,0,100,0,0
6551,-100,4,2,0,100,0,0
7742,-66.6666666666667,4,2,0,100,0,0
7980,-100,4,2,0,100,0,0
13932,-66.6666666666667,4,2,0,100,0,0
14170,-100,4,2,0,100,0,0
37265,-200,4,2,0,100,0,0
44884,-142.857142857143,4,2,0,100,0,0

[Colours]
Combo1 : 183,136,247
Combo2 : 0,0,255
Combo3 : 255,128,192
Combo4 : 128,0,128

[HitObjects]
72,84,4885,6,0,L|196:84,1,95,8|0,0:0|0:0,0:0:0:0:
440,148,5361,2,0,L|332:176,1,95,8|0,0:0|0:0,0:0:0:0:
268,240,5837,1,8,0:0:0:0:
328,320,6075,1,0,0:0:0:0:
432,148,6313,2,0,L|284:120,1,142.500005435944,8|0,0:0|0:0,0:0:0:0:
72,160,6789,5,8,0:0:0:0:
176,100,7027,1,0,0:0:0:0:
320,184,7265,2,0,L|224:224,1,95,8|0,0:0|0:0,0:0:0:0:
80,328,7742,2,0,B|148:300|180:328|180:328|236:328,1,142.5,8|0,0:0|0:0,0:0:0:0:
408,244,8218,1,8,0:0:0:0:
320,308,8456,1,0,0:0:0:0:
488,164,8694,6,0,L|396:108,1,95,8|0,0:0|0:0,0:0:0:0:
228,152,9170,1,8,0:0:0:0:
312,96,9408,1,0,0:0:0:0:
296,252,9646,2,0,L|183:285,1,95,8|0,0:0|0:0,0:0:0:0:
36,128,10123,2,0,L|144:128,1,95,8|0,0:0|0:0,0:0:0:0:
360,180,10599,6,0,P|320:252|232:208,1,190,8|0,0:0|0:0,0:0:0:0:
268,96,11313,1,0,0:0:0:0:
360,180,11551,2,8,B|308:200|284:236|284:236|180:236,1,190
72,100,12504,6,0,L|176:68,1,95,8|0,0:0|0:0,0:0:0:0:
348,160,12980,1,8,0:0:0:0:
280,84,13218,1,0,0:0:0:0:
236,256,13456,2,0,L|356:260,1,95,8|0,0:0|0:0,0:0:0:0:
468,112,13932,2,0,P|359:94|278:124,1,142.500005435944
116,96,22027,6,0,P|172:80|224:104,1,95,4|0,3:0|0:0,0:0:0:0:
108,244,22504,1,8,2:0:0:0:
205,90,22742,1,0,0:0:0:0:
300,276,22980,2,0,P|356:244|380:220,1,95,4|0,0:3|0:0,0:0:0:0:
512,52,23456,2,0,L|408:36,1,95
348,220,23932,5,8,0:0:0:0:
412,36,24170,1,0,0:0:0:0:
472,136,24408,1,0,3:0:0:0:
272,64,24646,1,0,0:0:0:0:
348,220,24884,2,0,L|240:280,1,95,4|0,0:3|0:0,0:0:0:0:
40,304,25361,2,0,L|100:216,1,95,8|0,0:0|0:0,0:0:0:0:
372,164,25837,6,0,L|280:116,1,95,4|0,3:0|0:0,0:0:0:0:
93,225,26313,1,8,0:0:0:0:
287,120,26551,1,0,0:0:0:0:
240,228,26789,1,0,0:0:0:0:
204,40,27027,1,0,0:0:0:0:
36,200,27265,2,0,L|128:152,1,95,8|0,0:0|0:0,0:0:0:0:
412,207,27742,6,0,P|324:214|303:189,1,95,10|0,0:0|0:0,0:0:0:0:
112,333,28218,2,0,P|167:299|173:266,1,95
266,130,28694,2,0,B|297:117|297:117|387:147,1,95,10|0,0:0|0:0,0:0:0:0:
404,224,29170,1,0,0:0:0:0:
314,284,29408,1,0,0:0:0:0:
198,258,29646,6,0,P|131:234|105:194,1,95
287,33,30123,1,0,0:0:0:0:
357,98,30361,1,0,0:0:0:0:
308,307,30599,2,0,P|342:242|344:205,1,95,2|0,0:0|0:0,0:0:0:0:
209,189,31075,5,0,0:0:0:0:
117,223,31313,1,0,0:0:0:0:
64,305,31551,2,0,P|110:339|166:342,2,95
209,189,32265,5,0,0:0:0:0:
327,120,32504,1,0,0:0:0:0:
294,208,32742,1,0,0:0:0:0:
120,110,32980,1,0,0:0:0:0:
142,235,33218,1,0,0:0:0:0:
341,119,33456,5,2,0:0:0:0:
323,264,33694,1,0,0:0:0:0:
206,52,33932,1,0,0:0:0:0:
218,242,34170,1,0,0:0:0:0:
90,91,34408,5,2,0:0:0:0:
100,298,34646,1,0,0:0:0:0:
315,124,34884,1,0,0:0:0:0:
393,191,35123,1,0,0:0:0:0:
250,337,35361,2,0,P|159:316|154:295,1,95
315,124,35837,6,0,L|410:114,1,95
109,210,36313,2,0,P|57:180|99:137,1,95
227,32,36789,1,0,0:0:0:0:
316,75,37027,1,0,0:0:0:0:
281,237,37265,6,0,L|190:240,1,71.25,8|0,0:0|0:0,0:0:0:0:
162,245,37742,1,8,0:0:0:0:
63,293,37980,1,0,0:0:0:0:
249,344,38218,2,0,L|357:331,1,95,8|8,0:0|0:0,0:0:0:0:
389,325,38932,5,0,0:0:0:0:
482,234,39170,2,0,P|466:210|421:180,1,71.25,8|0,0:0|0:0,0:0:0:0:
394,171,39646,1,8,0:0:0:0:
305,230,39884,1,0,0:0:0:0:
157,129,40123,2,0,B|119:160|119:160|97:212,1,95,8|8,0:0|0:0,0:0:0:0:
196,309,40837,1,0,0:0:0:0:
231,147,41075,6,0,L|322:144,1,71.25,8|0,0:0|0:0,0:0:0:0:
350,139,41552,1,8,0:0:0:0:
449,91,41790,1,0,0:0:0:0:
263,40,42028,2,0,L|155:53,1,95,8|8,0:0|0:0,0:0:0:0:
123,59,42742,5,0,0:0:0:0:
30,150,42980,2,0,P|46:174|91:204,1,71.25,8|0,0:0|0:0,0:0:0:0:
118,213,43456,1,8,0:0:0:0:
207,154,43694,1,0,0:0:0:0:
355,255,43932,2,0,B|363:249|363:249|398:210,1,47.5,8|8,0:0|0:0,0:0:0:0:
420,180,44408,5,0,0:0:0:0:
352,108,44646,1,0,0:0:0:0:
204,163,44884,2,0,P|125:165|54:200,1,132.999995941162
294,320,45599,1,0,0:0:0:0:
294,320,45837,2,0,L|390:322,1,66.4999979705811
487,213,46313,6,0,L|411:214,1,66.4999979705811
235,201,46789,2,0,P|206:152|228:71,1,132.999995941162
465,15,47504,1,0,0:0:0:0:
465,15,47742,2,0,L|467:111,1,66.4999979705811
358,208,48218,2,0,L|359:132,1,66.4999979705811
186,255,48694,6,0,P|100:237|60:200,1,132.999995941162
291,62,49408,1,0,0:0:0:0:
291,62,49646,2,0,L|288:147,1,66.4999979705811
294,279,50123,2,0,P|346:252|356:220,1,66.4999979705811
106,213,50599,6,0,P|63:226|39:247,1,66.4999979705811
256,121,51075,2,0,P|272:64|269:44,1,66.4999979705811
433,171,51551,1,0,0:0:0:0:
279,306,51789,1,0,0:0:0:0:
114,183,52027,2,0,P|116:129|136:101,1,66.4999979705811
279,306,52504,5,0,0:0:0:0:
402,211,52742,1,0,0:0:0:0:
279,306,52980,2,0,P|335:303|362:276,1,66.4999979705811
162,174,53456,2,0,P|117:173|79:186,1,66.4999979705811
346,40,53932,6,0,P|390:45|386:99,1,99.7499969558717
370,130,54408,1,0,0:0:0:0:
220,189,54646,1,0,0:0:0:0:
320,281,54884,1,0,0:0:0:0:
117,285,55123,1,0,0:0:0:0:
408,192,55361,2,0,L|381:59,1,132.999995941162
105,166,56075,5,0,0:0:0:0:
105,166,56313,2,0,B|81:221|81:221|109:309,1,132.999995941162
392,216,57027,1,0,0:0:0:0:
392,216,57265,2,0,P|404:277|344:342,1,132.999995941162
242,267,57980,5,0,0:0:0:0:
83,75,58218,2,0,B|110:69|110:69|141:78|141:78|185:64|185:64|234:75,1,132.999995941162
411,218,58932,1,0,0:0:0:0:
411,218,59170,2,0,P|332:238|286:275,1,132.999995941162
233,306,60123,5,0,0:0:0:0:
110,211,60361,1,0,0:0:0:0:
233,306,60599,2,0,P|177:303|150:276,1,66.4999979705811
350,174,61075,2,0,P|395:173|433:186,1,66.4999979705811
166,40,61551,6,0,P|122:45|126:99,1,99.7499969558717
142,130,62027,1,0,0:0:0:0:
292,189,62265,1,0,0:0:0:0:
192,281,62503,1,0,0:0:0:0:
395,285,62742,1,0,0:0:0:0:
104,192,62980,2,0,L|131:59,1,132.999995941162
407,166,63694,5,0,0:0:0:0:
430,264,63932,1,0,0:0:0:0:
221,158,64170,1,0,0:0:0:0:
341,301,64408,1,0,0:0:0:0:
120,216,64646,5,0,0:0:0:0:
331,216,64884,1,0,0:0:0:0:
246,105,65123,1,0,0:0:0:0:
204,332,65361,1,0,0:0:0:0:
256,192,65599,12,0,67742,0:0:0:0:
