osu file format v14

[General]
AudioFilename: audio.mp3
AudioLeadIn: 0
PreviewTime: -1
Countdown: 0
SampleSet: Soft
StackLeniency: 0.8
Mode: 0
LetterboxInBreaks: 0
WidescreenStoryboard: 0

[Editor]
Bookmarks: 11712,14662
DistanceSpacing: 1
BeatDivisor: 4
GridSize: 8
TimelineZoom: 1

[Metadata]
Title:Chikatto Chika Chika (Cover)
TitleUnicode:Chikatto Chika Chika (Cover)
Artist:Ao
ArtistUnicode:Ao
Creator:AwfulAccuracy
Version:Extra
Source:Ao on youtube
Tags:love is war, chikatto chika chika, Ao, youtube, cover
BeatmapID:2144202
BeatmapSetID:1025155

[Difficulty]
HPDrainRate:5.2
CircleSize:3.8
OverallDifficulty:9
ApproachRate:9.2
SliderMultiplier:1.8
SliderTickRate:1

[Events]
//Background and Video events
0,0,"dd1cwcz-396f194c-0629-429f-b1bc-dd7c4771d53a.png",0,0
//Break Periods
//Storyboard Layer 0 (Background)
//Storyboard Layer 1 (Fail)
//Storyboard Layer 2 (Pass)
//Storyboard Layer 3 (Foreground)
//Storyboard Layer 4 (Overlay)
//Storyboard Sound Samples

[TimingPoints]
2780,337.078651685393,4,2,1,100,1,8
3959,-200,4,2,1,50,0,0
12723,-133.333333333333,4,2,1,65,0,0
14156,-100,4,2,1,75,0,0
16094,-133.333333333333,4,2,1,75,0,0
18117,-100,4,2,1,60,0,1
23493,-133.333333333333,4,2,1,50,0,0
30757,-100,4,2,1,65,0,1
33613,-80,4,2,1,70,0,1
34212,-133.333333333333,4,2,1,50,0,0
38847,-100,4,2,1,60,0,1
39690,-133.333333333333,4,2,1,50,0,0
45083,-285.714285714284,4,2,1,65,0,0
46431,-200,4,2,1,50,0,0
54521,-100,4,2,1,65,0,1
55345,-133.333333333333,4,2,1,60,0,0
57892,-100,4,2,1,60,0,0
57892,-117.647058823529,4,2,1,100,0,0
59746,-100,4,2,1,75,0,1
66678,-133.333333333333,4,2,1,60,0,1
67751,-133.333333333333,4,2,1,65,0,0
70785,-133.333333333333,4,2,1,65,0,1
72171,-133.333333333333,4,2,1,70,0,0
74409,-100,4,2,1,60,0,0
84184,-100,4,2,1,75,0,1
89662,-100,4,2,1,70,0,0

[HitObjects]
127,132,4128,5,0,0:0:0:0:
332,297,4802,1,0,0:0:0:0:
330,77,5476,1,0,0:0:0:0:
229,330,6150,2,0,P|138:288|53:245,1,180,2|2,0:0|0:0,0:0:0:0:
385,252,8173,5,0,0:0:0:0:
180,87,8847,1,0,0:0:0:0:
182,307,9521,1,0,0:0:0:0:
283,54,10195,2,0,P|359:90|456:138,1,180,2|2,0:0|0:0,0:0:0:0:
200,320,11544,2,0,L|200:160,1,157.5,2|0,0:0|0:0,0:0:0:0:
312,64,12892,2,0,L|312:223,1,157.5,2|0,0:0|0:0,0:0:0:0:
226,158,13566,2,0,L|226:318,1,157.5,2|0,0:0|0:0,0:0:0:0:
392,62,14240,6,0,P|404:129|364:192,1,135,2|0,0:0|0:0,0:0:0:0:
139,198,14914,2,0,P|107:256|120:322,1,135,2|0,0:0|0:0,0:0:0:0:
327,41,15588,2,0,L|327:192,1,135,2|0,0:0|0:0,0:0:0:0:
325,313,16094,1,0,0:0:0:0:
193,88,16263,2,0,L|193:303,1,202.500007724762,2|0,0:0|0:0,0:0:0:0:
312,53,17105,1,0,0:0:0:0:
249,325,17274,1,0,0:0:0:0:
249,43,17442,1,0,0:0:0:0:
316,344,17611,1,0,0:0:0:0:
409,177,17864,6,0,L|281:212,1,101.250003862381,8|0,0:0|0:0,0:0:0:0:
39,176,18285,2,0,P|110:177|208:133,1,180,2|0,0:0|0:0,0:0:0:0:
364,28,18791,2,0,L|364:212,1,180,2|0,0:0|0:0,0:0:0:0:
270,41,19296,1,0,0:0:0:0:
409,243,19465,1,0,0:0:0:0:
189,163,19633,1,0,0:0:0:0:
386,78,19802,1,0,0:0:0:0:
308,266,19971,1,0,0:0:0:0:
278,31,20139,6,0,P|192:61|133:124,1,180,2|0,0:0|0:0,0:0:0:0:
384,135,20645,2,0,L|324:168,2,45,0|0|8,0:0|0:0|0:0,0:0:0:0:
219,257,20982,2,0,P|276:341|344:387,1,180,2|0,0:0|0:0,0:0:0:0:
484,333,21487,2,0,L|482:154,1,180,2|0,0:0|0:0,0:0:0:0:
248,68,21993,2,0,L|250:251,1,180,2|0,0:0|0:0,0:0:0:0:
371,62,22499,1,0,0:0:0:0:
320,293,22667,1,0,0:0:0:0:
301,46,22836,1,0,0:0:0:0:
381,291,23004,1,0,0:0:0:0:
75,75,23678,6,0,L|179:146,1,101.250003862381
308,225,24184,2,0,P|309:127|285:93,1,135.000005149842
211,68,24690,2,0,L|211:215,1,135.000005149842
214,315,25195,1,0,0:0:0:0:
308,134,25364,1,0,0:0:0:0:
327,325,25532,2,0,L|291:262,1,67.5000025749208
190,102,25869,2,0,P|216:80|275:66,2,67.5000025749208
61,234,26375,2,0,P|112:265|189:282,1,135.000005149842
282,219,26881,2,0,L|282:73,1,135.000005149842
425,16,27386,2,0,L|425:158,1,135.000005149842
503,59,27892,5,0,0:0:0:0:
409,324,28060,1,0,0:0:0:0:
407,317,28229,2,0,L|406:242,1,67.5000025749208
405,38,28566,2,0,L|405:179,1,135.000005149842
72,162,29072,2,0,P|128:197|226:209,1,135.000005149842
336,169,29577,2,0,P|306:233|338:319,1,135.000005149842
221,133,30083,2,0,P|192:61|168:5,1,135.000005149842
296,121,30588,1,0,0:0:0:0:
89,59,30757,1,0,0:0:0:0:
266,195,30926,2,0,L|139:323,1,180
138,179,31431,2,0,P|179:149|210:120,1,90
280,33,31768,5,0,0:0:0:0:
244,196,31937,1,0,0:0:0:0:
208,37,32105,1,0,0:0:0:0:
318,158,32274,1,0,0:0:0:0:
172,146,32442,5,0,0:0:0:0:
330,35,32611,1,0,0:0:0:0:
230,239,32779,1,0,0:0:0:0:
246,25,32948,1,0,0:0:0:0:
327,252,33117,5,0,0:0:0:0:
160,61,33285,1,0,0:0:0:0:
251,289,33454,1,0,0:0:0:0:
299,19,33622,1,0,0:0:0:0:
173,299,33791,2,0,L|96:83,1,225
390,122,34465,6,0,P|331:155|251:170,1,135.000005149842
161,133,34971,2,0,L|293:61,1,135.000005149842
350,281,35476,2,0,P|333:210|337:126,1,135.000005149842
362,28,35982,1,0,0:0:0:0:
421,209,36150,1,0,0:0:0:0:
416,17,36319,6,0,L|369:146,1,135.000005149842
452,303,36824,2,0,P|408:274|349:259,1,101.250003862381
325,267,37162,2,0,L|329:121,1,135.000005149842
413,253,37667,1,0,0:0:0:0:
382,53,37836,1,0,0:0:0:0:
304,167,38004,2,0,L|277:81,2,67.5000025749208
357,321,38510,1,0,0:0:0:0:
220,125,38678,1,0,0:0:0:0:
262,345,38847,1,0,0:0:0:0:
328,188,39015,2,0,L|394:13,1,180
276,93,39521,6,0,P|229:127|201:180,1,101.250003862381
125,273,39858,2,0,P|98:206|97:113,1,135.000005149842
386,111,40364,2,0,P|386:185|415:271,1,135.000005149842
251,103,40869,1,0,0:0:0:0:
361,315,41038,1,0,0:0:0:0:
362,148,41206,2,0,L|362:10,1,135.000005149842
455,142,41712,2,0,L|454:289,1,135.000005149842
356,228,42218,2,0,P|326:172|267:149,1,101.250003862381
260,154,42555,2,0,L|263:7,1,135.000005149842
350,123,43060,2,0,P|391:202|389:316,1,202.500007724762
249,142,43735,5,0,0:0:0:0:
362,288,43903,1,0,0:0:0:0:
441,67,44072,1,0,0:0:0:0:
242,240,44240,2,0,L|167:300,1,67.5000025749208
239,84,44577,1,0,0:0:0:0:
302,344,44746,1,0,0:0:0:0:
415,66,44914,2,0,L|448:-23,1,67.5000025749208
341,228,45251,2,0,B|278:217|165:235|108:217,1,220.499993270874
288,123,46600,5,0,0:0:0:0:
382,272,46768,1,0,0:0:0:0:
379,112,46937,1,0,0:0:0:0:
357,347,47105,6,0,B|373:279|414:230|423:177,1,180
300,269,47948,1,0,0:0:0:0:
299,88,48117,1,0,0:0:0:0:
404,235,48285,1,0,0:0:0:0:
225,140,48454,6,0,B|157:124|108:83|55:74,1,180
247,55,49296,1,0,0:0:0:0:
299,205,49465,1,0,0:0:0:0:
159,126,49633,1,0,0:0:0:0:
333,89,49802,6,0,B|398:65|462:73|511:51,1,180
409,168,50645,1,0,0:0:0:0:
337,268,50813,1,0,0:0:0:0:
306,88,50982,1,0,0:0:0:0:
220,208,51150,6,0,B|166:252|104:267|64:304,1,180
153,137,51993,1,0,0:0:0:0:
335,229,52162,1,0,0:0:0:0:
224,91,52330,1,0,0:0:0:0:
224,368,52499,6,0,L|225:184,1,180
312,329,53341,1,0,0:0:0:0:
334,145,53510,1,0,0:0:0:0:
250,253,53678,1,0,0:0:0:0:
512,254,53847,6,0,L|325:255,1,180
455,105,54690,2,0,P|358:140|267:140,1,180
433,247,55195,1,0,0:0:0:0:
327,67,55364,1,0,0:0:0:0:
324,336,55532,2,0,L|325:187,1,135
440,326,56038,2,0,P|408:259|402:196,1,135.000005149842
429,68,56544,1,0,0:0:0:0:
343,301,56712,1,0,0:0:0:0:
274,54,56881,2,0,L|293:144,2,67.5000025749208
222,294,57386,6,0,P|318:224|424:193,1,202.500007724762
264,134,58060,2,0,B|133:108|133:108|85:155|36:117,1,236.250009012223
288,285,58650,2,0,P|328:318|274:251,1,495
279,0,59746,6,0,L|274:90,1,90
262,321,60083,1,0,0:0:0:0:
216,46,60251,1,0,0:0:0:0:
212,335,60420,1,0,0:0:0:0:
277,52,60588,1,0,0:0:0:0:
113,279,60757,6,0,L|186:202,1,90
399,105,61094,2,0,L|326:181,1,90
184,321,61431,1,0,0:0:0:0:
268,52,61600,1,0,0:0:0:0:
342,310,61768,1,0,0:0:0:0:
94,124,61937,1,0,0:0:0:0:
442,200,62105,2,0,P|421:139|421:87,1,90
364,212,62442,2,0,L|357:332,1,90
236,104,62779,5,0,0:0:0:0:
310,350,62948,1,0,0:0:0:0:
309,79,63117,1,0,0:0:0:0:
233,355,63285,1,0,0:0:0:0:
269,31,63454,2,0,L|271:122,1,90
276,355,63791,2,0,L|274:263,1,90
367,351,64128,2,0,P|364:291|381:227,1,90
424,95,64465,1,0,0:0:0:0:
412,337,64633,1,0,0:0:0:0:
360,69,64802,1,0,0:0:0:0:
348,68,64971,2,0,P|282:62|238:71,1,90
391,150,65308,5,0,0:0:0:0:
174,25,65476,1,0,0:0:0:0:
332,233,65645,1,0,0:0:0:0:
325,1,65813,1,0,0:0:0:0:
232,289,65982,1,0,0:0:0:0:
256,17,66150,2,0,L|248:108,1,90
256,367,66487,2,0,L|264:276,1,90
286,62,66824,6,0,P|337:138|386:177,1,135.000005149842
215,125,67330,2,0,L|192:278,1,135.000005149842
301,127,67836,1,0,0:0:0:0:
106,281,68004,1,0,0:0:0:0:
215,55,68173,1,0,0:0:0:0:
282,282,68341,1,0,0:0:0:0:
348,86,68510,2,0,L|378:-3,1,67.5000025749208
421,182,68847,5,0,0:0:0:0:
300,13,69015,1,0,0:0:0:0:
279,238,69184,1,0,0:0:0:0:
176,94,69353,2,0,L|134:22,1,67.5000025749208
128,225,69690,1,0,0:0:0:0:
273,104,69858,6,0,P|319:76|366:68,1,101.250003862381
398,72,70195,2,0,L|397:167,1,67.5000025749208
396,305,70532,2,0,P|329:268|277:262,1,101.250003862381
291,260,70869,2,0,L|290:100,1,135.000005149842
421,250,71375,2,0,L|422:396,1,135.000005149842
161,187,71881,2,0,L|162:88,1,67.5000025749208
236,299,72218,1,0,0:0:0:0:
239,35,72386,1,0,0:0:0:0:
238,305,72555,1,0,0:0:0:0:
238,28,72723,1,0,0:0:0:0:
412,174,72892,6,0,L|327:175,1,67.5000025749208
83,174,73229,2,0,L|168:172,1,67.5000025749208
377,240,73566,1,0,0:0:0:0:
134,106,73735,1,0,0:0:0:0:
395,109,73903,1,0,0:0:0:0:
134,235,74072,1,0,0:0:0:0:
348,48,74240,2,0,L|280:117,1,67.5000025749208
210,198,74577,2,0,P|171:157|145:102,1,90
295,207,74914,1,0,0:0:0:0:
216,2,75083,1,0,0:0:0:0:
132,243,75588,5,0,0:0:0:0:
375,62,75757,1,0,0:0:0:0:
395,258,76263,5,0,0:0:0:0:
202,51,76431,1,0,0:0:0:0:
296,330,76600,1,0,0:0:0:0:
271,19,76768,1,0,0:0:0:0:
315,237,77779,5,0,0:0:0:0:
278,101,77948,1,0,0:0:0:0:
398,150,78117,1,0,0:0:0:0:
161,172,78285,1,0,0:0:0:0:
353,103,78622,2,0,P|390:73|407:33,1,90
407,215,78959,2,0,L|406:342,1,90
332,132,79296,1,0,0:0:0:0:
254,331,79465,1,0,0:0:0:0:
267,120,79633,1,0,0:0:0:0:
326,331,79802,1,0,0:0:0:0:
297,38,79971,6,0,L|296:149,1,90
297,303,80308,1,0,0:0:0:0:
208,114,80476,1,0,0:0:0:0:
352,245,80645,2,0,L|440:324,1,90
354,142,80982,1,0,0:0:0:0:
243,231,81150,2,0,L|242:348,2,90
245,37,81656,5,0,0:0:0:0:
201,295,81824,1,0,0:0:0:0:
305,66,81993,1,0,0:0:0:0:
300,295,82162,1,0,0:0:0:0:
207,76,82330,1,0,0:0:0:0:
369,247,82499,1,0,0:0:0:0:
159,181,82667,1,0,0:0:0:0:
334,95,82836,1,0,0:0:0:0:
164,273,83004,6,0,P|112:311|66:317,1,90
159,62,83341,2,0,L|159:170,1,90
165,348,83678,1,0,0:0:0:0:
234,140,83847,1,0,0:0:0:0:
246,326,84015,2,0,L|206:224,1,90
142,55,84353,1,0,0:0:0:0:
300,274,84521,1,0,0:0:0:0:
87,216,84690,1,0,0:0:0:0:
304,76,84858,1,0,0:0:0:0:
207,322,85027,5,0,0:0:0:0:
202,59,85195,1,0,0:0:0:0:
390,193,85364,1,0,0:0:0:0:
106,247,85532,1,0,0:0:0:0:
295,47,85701,1,0,0:0:0:0:
207,352,85869,6,0,L|233:252,1,90
370,27,86206,2,0,L|344:127,1,90
299,338,86544,5,0,0:0:0:0:
283,77,86712,1,0,0:0:0:0:
408,309,86881,1,0,0:0:0:0:
144,96,87049,1,0,0:0:0:0:
450,166,87218,5,0,0:0:0:0:
186,288,87386,1,0,0:0:0:0:
353,26,87555,1,0,0:0:0:0:
308,322,87723,1,0,0:0:0:0:
237,34,87892,5,0,0:0:0:0:
424,284,88060,1,0,0:0:0:0:
122,169,88229,1,0,0:0:0:0:
420,52,88397,1,0,0:0:0:0:
219,332,88566,5,0,0:0:0:0:
309,21,88735,1,0,0:0:0:0:
354,319,88903,1,0,0:0:0:0:
164,31,89072,1,0,0:0:0:0:
442,252,89240,5,0,0:0:0:0:
91,265,89409,1,0,0:0:0:0:
406,29,89577,1,0,0:0:0:0:
256,192,91768,12,0,95813,0:0:0:0:
