osu file format v14

[General]
AudioFilename: audio.mp3
AudioLeadIn: 0
PreviewTime: 59939
Countdown: 0
SampleSet: Soft
StackLeniency: 0.7
Mode: 0
LetterboxInBreaks: 0
WidescreenStoryboard: 1

[Editor]
Bookmarks: 13484,25121,36757,48394,57121,60030,71666,83303,94939,100757,106575,118212,126939,129848,141484,153121,164757,176394,179259,202575,225848,231666
DistanceSpacing: 1.6
BeatDivisor: 4
GridSize: 32
TimelineZoom: 1

[Metadata]
Title:Sprinkles
TitleUnicode:チョコスプレー
Artist:Anzu Hana
ArtistUnicode:杏花
Creator:Shirahane Suou
Version:Insane
Source:推しのラブより恋のラブ
Tags:oshi no love yori koi no oshirabu video game visual novel eroge japanese pop jpop j-pop sukerasomero yuri 百合 ed ending choco souffle soufflé
BeatmapID:4107846
BeatmapSetID:1978624

[Difficulty]
HPDrainRate:5
CircleSize:4
OverallDifficulty:7.5
ApproachRate:8.5
SliderMultiplier:1.7
SliderTickRate:1

[Events]
//Background and Video events
0,0,"souffle.jpg",0,0
//Break Periods
//Storyboard Layer 0 (Background)
//Storyboard Layer 1 (Fail)
//Storyboard Layer 2 (Pass)
//Storyboard Layer 3 (Foreground)
//Storyboard Layer 4 (Overlay)
//Storyboard Sound Samples

[TimingPoints]
394,363.636363636364,4,2,1,40,1,0
394,-250,4,2,1,40,0,0
10575,-333.333333333333,4,2,1,40,0,0
12030,-333.333333333333,4,2,1,60,0,0
13484,-111.111111111111,4,2,1,70,0,0
25121,-142.857142857143,4,2,1,50,0,0
36757,-125,4,2,1,60,0,0
48394,-181.818181818182,4,2,1,60,0,0
55666,-133.333333333334,4,2,1,60,0,0
60030,-100,4,2,1,80,0,1
71666,-142.857142857143,4,2,1,70,0,0
83303,-111.111111111111,4,2,1,70,0,0
94939,-181.818181818182,4,2,1,50,0,0
100757,-142.857142857143,4,2,1,60,0,0
106575,-125,4,2,1,60,0,0
129848,-100,4,2,1,80,0,1
141484,-142.857142857143,4,2,1,70,0,0
153121,-111.111111111111,4,2,1,80,0,0
163303,-111.111111111111,4,2,1,80,0,1
164757,-111.111111111111,4,2,1,70,0,0
176394,-333.333333333333,4,2,1,50,0,0
178121,-333.333333333333,4,2,1,5,0,0
178212,-100,4,2,1,70,0,0
179303,-90.9090909090909,4,2,1,80,0,1
190939,-100,4,2,1,80,0,1
202575,-100,4,2,1,80,0,0
226121,-100,4,2,1,5,0,0

[Colours]
Combo1 : 130,221,255
Combo2 : 255,98,125
Combo3 : 255,145,186
Combo4 : 148,171,241

[HitObjects]
378,356,394,6,0,P|389:321|412:285,1,68,2|0,0:2|0:0,0:0:0:0:
326,241,1121,2,0,P|315:206|292:170,1,68,2|0,0:2|0:0,0:0:0:0:
359,110,1848,2,0,P|388:126|420:136,1,68,2|0,0:2|0:0,0:0:0:0:
494,109,2394,2,0,P|517:86|512:41,1,68,2|0,0:2|0:0,0:0:0:0:
463,0,2939,1,0,0:0:0:0:
274,84,3303,6,0,P|241:93|212:110,1,68,2|0,0:2|0:0,0:0:0:0:
140,82,3848,2,0,P|123:111|113:143,1,68,2|0,0:2|0:0,0:0:0:0:
0,334,4575,2,0,P|34:277|171:272,1,204,2|0,0:2|0:0,0:0:0:0:
392,290,6212,6,0,P|363:307|330:316,1,68,2|0,0:2|0:0,0:0:0:0:
264,384,6939,2,0,P|235:366|202:357,1,68,2|0,0:2|0:0,0:0:0:0:
107,258,7666,2,0,P|73:254|37:281,1,68,2|0,0:2|0:0,0:0:0:0:
65,348,8212,2,0,P|99:352|135:325,1,68,2|0,0:2|0:0,0:0:0:0:
183,283,8757,1,0,0:0:0:0:
47,123,9121,6,0,P|36:161|16:191,1,68,2|0,0:2|0:0,0:0:0:0:
85,269,9848,2,0,P|96:231|116:201,1,68,2|0,0:2|0:0,0:0:0:0:
219,100,10575,6,0,B|276:83|304:128|296:137|326:172|384:151,1,178.499994552612,2|0,0:2|0:0,0:0:0:0:
359,74,12030,5,4,0:2:0:0:
237,178,12394,1,4,0:2:0:0:
437,276,12757,5,8,0:2:0:0:
430,265,12847,1,8,0:2:0:0:
422,255,12938,1,8,0:2:0:0:
411,248,13029,1,8,0:2:0:0:
400,242,13120,1,8,0:2:0:0:
387,239,13211,1,8,0:2:0:0:
375,239,13302,1,8,0:2:0:0:
362,241,13393,1,8,0:2:0:0:
350,246,13484,6,0,P|273:272|194:312,1,152.999995330811,6|8,3:2|0:2,0:0:0:0:
92,197,14030,1,10,0:2:0:0:
92,197,14121,1,8,0:2:0:0:
92,197,14212,2,0,P|126:213|162:225,1,76.4999976654053,2|0,3:2|3:2,0:0:0:0:
190,384,14575,1,8,0:2:0:0:
124,318,14757,1,2,3:2:0:0:
249,196,14939,6,0,P|265:161|277:125,1,76.4999976654053,2|0,3:2|3:2,0:0:0:0:
354,0,15303,1,8,0:2:0:0:
423,61,15484,1,10,0:2:0:0:
423,61,15575,1,8,0:2:0:0:
423,61,15666,2,0,P|389:90|341:86,1,76.4999976654053,2|0,3:2|3:2,0:0:0:0:
220,16,16030,2,0,P|257:21|284:47,1,76.4999976654053,10|0,0:2|3:2,0:0:0:0:
433,174,16394,6,0,P|399:243|374:317,1,152.999995330811,2|8,3:2|0:2,0:0:0:0:
283,151,16939,1,8,0:2:0:0:
283,151,17030,1,8,0:2:0:0:
283,151,17121,2,0,P|299:185|312:222,1,76.4999976654053,0|0,3:2|3:2,0:0:0:0:
227,383,17484,2,0,P|261:366|298:353,1,76.4999976654053,8|0,0:2|3:2,0:0:0:0:
209,230,17848,6,0,P|192:264|179:301,1,76.4999976654053,2|0,3:2|3:2,0:0:0:0:
22,372,18212,1,8,0:2:0:0:
113,384,18394,1,8,0:2:0:0:
113,384,18484,1,8,0:2:0:0:
113,384,18575,2,0,P|100:347|84:313,1,76.4999976654053,0|0,3:2|3:2,0:0:0:0:
0,195,18939,2,0,P|31:229|72:229,1,76.4999976654053,8|0,0:2|3:2,0:0:0:0:
204,91,19303,6,0,P|149:84|70:165,1,152.999995330811,6|8,3:2|0:2,0:0:0:0:
198,247,19848,1,10,0:2:0:0:
198,247,19938,1,8,0:2:0:0:
198,247,20029,2,0,P|185:210|169:176,1,76.4999976654053,2|0,3:2|3:2,0:0:0:0:
299,89,20394,1,8,0:2:0:0:
264,173,20575,1,2,3:2:0:0:
133,62,20757,6,0,P|169:74|203:90,1,76.4999976654053,2|0,3:2|3:2,0:0:0:0:
343,10,21121,1,8,0:2:0:0:
393,94,21303,1,10,0:2:0:0:
393,94,21394,1,8,0:2:0:0:
393,94,21484,2,0,P|380:130|364:164,1,76.4999976654053,2|0,3:2|3:2,0:0:0:0:
266,286,21848,2,0,P|304:250|357:259,1,76.4999976654053,10|0,0:2|3:2,0:0:0:0:
489,375,22212,6,0,P|416:351|341:336,1,152.999995330811,2|8,3:2|0:2,0:0:0:0:
208,214,22757,1,8,0:2:0:0:
208,214,22848,1,8,0:2:0:0:
208,214,22939,2,0,P|171:225|134:233,1,76.4999976654053,0|0,3:2|3:2,0:0:0:0:
247,360,23303,2,0,P|254:322|266:286,1,76.4999976654053,8|0,0:2|3:2,0:0:0:0:
325,147,23666,6,0,P|264:127|241:136,1,76.4999976654053,2|0,3:2|3:2,0:0:0:0:
354,256,24030,2,0,P|397:265|445:206,1,114.749996498108,8|0,0:2|0:0,0:0:0:0:
512,133,24394,5,8,0:2:0:0:
508,104,24484,1,8,0:2:0:0:
492,80,24575,1,8,0:3:0:0:
467,67,24666,1,8,0:3:0:0:
439,67,24757,1,10,0:2:0:0:
424,71,24847,1,8,0:3:0:0:
413,81,24938,1,4,0:3:0:0:
405,93,25029,1,4,0:3:0:0:
402,108,25121,6,0,P|427:161|443:219,1,118.999996368408,6|0,3:2|3:2,0:0:0:0:
509,290,25666,1,2,0:2:0:0:
509,290,25848,2,0,P|475:301|447:322,2,59.4999981842042,2|0|2,3:2|0:0|3:2,0:0:0:0:
387,372,26394,6,0,P|353:361|325:340,1,59.4999981842042,2|0,0:2|3:2,0:0:0:0:
256,384,26757,2,0,P|248:349|252:314,1,59.4999981842042,2|0,0:2|3:2,0:0:0:0:
235,155,27120,2,0,P|269:166|297:187,1,59.4999981842042,2|0,0:2|3:2,0:0:0:0:
180,275,27484,2,0,P|206:251|238:237,1,59.4999981842042,2|0,0:2|3:2,0:0:0:0:
170,365,27848,5,0,0:2:0:0:
170,365,27939,1,0,0:2:0:0:
170,365,28030,2,0,P|108:344|55:332,1,118.999996368408,2|2,3:2|3:2,0:0:0:0:
0,269,28575,2,0,P|10:238|16:211,1,59.4999981842042,2|0,0:2|3:2,0:0:0:0:
86,159,28939,2,0,P|75:128|69:101,1,59.4999981842042,2|0,0:2|3:2,0:0:0:0:
6,43,29303,1,2,0:2:0:0:
127,12,29484,6,0,P|159:49|245:34,1,118.999996368408,0|0,3:2|3:2,0:0:0:0:
329,136,30212,2,0,P|361:99|447:114,1,118.999996368408,0|0,3:2|3:2,0:0:0:0:
366,238,30757,5,0,0:0:0:0:
366,238,30848,1,0,0:0:0:0:
366,238,30939,2,0,P|308:221|250:209,1,118.999996368408,0|0,3:2|3:2,0:0:0:0:
169,174,31484,1,2,0:2:0:0:
169,174,31666,2,0,P|140:182|111:188,2,59.4999981842042,2|0|2,3:2|0:0|3:2,0:0:0:0:
324,136,32212,6,0,P|295:128|266:122,1,59.4999981842042,2|0,0:2|3:2,0:0:0:0:
340,53,32575,2,0,P|311:45|282:39,1,59.4999981842042,2|0,0:2|3:2,0:0:0:0:
129,97,32939,2,0,P|158:89|187:83,1,59.4999981842042,2|0,0:2|3:2,0:0:0:0:
113,14,33303,2,0,P|142:6|171:0,1,59.4999981842042,2|0,0:2|3:2,0:0:0:0:
44,75,33666,5,0,0:2:0:0:
44,75,33757,1,0,0:2:0:0:
44,75,33848,2,0,P|18:155|12:196,1,118.999996368408,2|2,3:2|3:2,0:0:0:0:
7,283,34394,2,0,P|43:280|63:265,1,59.4999981842042,2|0,0:2|3:2,0:0:0:0:
134,308,34757,2,0,P|150:274|147:250,1,59.4999981842042,2|0,0:2|3:2,0:0:0:0:
94,187,35121,1,0,0:0:0:0:
226,64,35303,6,0,P|199:117|179:173,1,118.999996368408,2|10,3:2|0:3,0:0:0:0:
234,249,35848,1,2,0:2:0:0:
369,140,36030,6,0,L|304:122,1,59.4999981842042,0|2,3:2|0:2,0:0:0:0:
302,131,36303,1,8,0:2:0:0:
294,140,36394,1,8,0:2:0:0:
299,161,36484,1,8,0:2:0:0:
305,183,36575,1,8,0:3:0:0:
311,204,36666,1,8,0:3:0:0:
317,226,36757,6,0,P|359:240|438:189,1,136,4|8,3:2|0:2,0:0:0:0:
358,53,37303,1,2,3:2:0:0:
461,45,37484,1,2,0:2:0:0:
461,45,37666,2,0,P|448:78|440:122,1,68,2|8,3:2|0:2,0:0:0:0:
294,140,38030,6,0,P|281:107|273:63,1,68,2|0,3:2|3:2,0:0:0:0:
113,131,38394,2,0,P|120:164|132:195,1,68,2|8,3:2|0:2,0:0:0:0:
222,198,38757,2,0,L|178:52,1,136,2|2,3:2|3:2,0:0:0:0:
45,11,39303,2,0,P|78:44|109:44,1,68,8|0,0:2|3:2,0:0:0:0:
331,48,39666,6,0,P|285:60|270:86,1,68,2|0,3:2|3:2,0:0:0:0:
394,231,40030,1,10,0:2:0:0:
469,165,40212,2,0,L|317:127,1,136,2|2,3:2|3:2,0:0:0:0:
240,229,40757,2,0,L|315:210,1,68,8|2,0:2|3:2,0:0:0:0:
179,153,41121,6,0,L|254:134,1,68,0|0,3:2|3:2,0:0:0:0:
156,237,41484,1,8,0:2:0:0:
120,95,41666,2,0,B|94:43|157:5|157:5|180:48,1,136,0|0,3:2|3:2,0:0:0:0:
92,176,42212,2,0,L|26:192,1,68,8|0,0:2|3:2,0:0:0:0:
208,308,42575,6,0,L|345:342,1,136,4|8,3:2|0:2,0:0:0:0:
505,298,43121,1,2,3:2:0:0:
405,281,43303,1,2,0:2:0:0:
405,281,43484,2,0,P|419:311|429:344,1,68,2|8,3:2|0:2,0:0:0:0:
489,154,43848,6,0,P|479:186|464:217,1,68,2|0,3:2|3:2,0:0:0:0:
302,151,44212,2,0,P|311:118|326:87,1,68,2|8,3:2|0:2,0:0:0:0:
425,66,44575,2,0,L|371:219,1,136,2|2,3:2|3:2,0:0:0:0:
252,263,45121,2,0,P|275:239|309:238,1,68,8|0,0:2|3:2,0:0:0:0:
375,344,45484,6,0,P|343:332|310:323,1,68,2|0,3:2|3:2,0:0:0:0:
155,204,45848,1,10,0:2:0:0:
120,297,46030,2,0,L|274:257,1,136,2|2,3:2|3:2,0:0:0:0:
260,114,46575,2,0,L|239:179,1,68,8|2,0:2|3:2,0:0:0:0:
52,361,46939,6,0,L|31:296,1,68,2|0,3:2|3:2,0:0:0:0:
100,94,47303,5,10,0:2:0:0:
0,211,47484,1,2,3:2:0:0:
31,36,47666,5,8,0:2:0:0:
84,182,47847,1,2,3:2:0:0:
115,7,48030,5,8,0:2:0:0:
15,124,48211,1,0,3:2:0:0:
153,240,48394,5,6,3:2:0:0:
153,240,48939,1,2,3:2:0:0:
152,240,49121,2,0,P|206:216|256:211,1,93.5000028533936,10|0,0:2|3:2,0:0:0:0:
299,152,49666,1,8,0:2:0:0:
363,256,49848,1,0,3:2:0:0:
363,256,50212,2,0,P|337:240|305:234,1,46.7500014266968,2|0,3:2|0:0,0:0:0:0:
441,267,50576,2,0,P|441:236|431:205,1,46.7500014266968,10|0,0:2|0:0,0:0:0:0:
470,340,50939,2,0,P|496:325|518:300,1,46.7500014266968,2|0,0:2|0:0,0:0:0:0:
388,340,51303,6,0,P|343:338|302:372,1,93.5000028533936,2|0,3:2|0:0,0:0:0:0:
241,312,51848,1,2,3:2:0:0:
137,383,52030,2,0,P|92:385|51:351,1,93.5000028533936,10|0,0:2|3:2,0:0:0:0:
0,295,52575,1,8,0:2:0:0:
136,260,52757,1,0,3:2:0:0:
136,260,53121,2,0,P|122:287|115:313,1,46.7500014266968,2|0,3:2|3:2,0:0:0:0:
28,220,53484,1,10,0:2:0:0:
102,177,53666,1,0,3:2:0:0:
208,316,53848,1,10,0:3:0:0:
208,316,54212,6,0,P|240:306|309:300,1,93.5000028533936,6|0,3:2|0:0,0:0:0:0:
362,248,54757,1,2,3:2:0:0:
399,384,54939,2,0,P|409:338|429:296,1,93.5000028533936,10|0,0:2|3:2,0:0:0:0:
492,230,55484,1,8,0:2:0:0:
375,164,55666,6,0,P|402:150|451:141,1,63.7500024318696,2|0,3:2|0:0,0:0:0:0:
279,81,56030,2,0,P|252:95|203:104,1,63.7500024318696,8|2,0:3|0:2,0:0:0:0:
184,111,56303,1,8,0:2:0:0:
184,111,56394,1,10,0:2:0:0:
287,205,56575,1,8,0:3:0:0:
152,247,56757,1,6,0:3:0:0:
207,188,56939,1,4,0:3:0:0:
177,325,57121,5,10,0:2:0:0:
128,170,57303,1,8,0:2:0:0:
340,145,57666,5,8,0:2:0:0:
231,266,57848,1,8,0:2:0:0:
184,111,58030,1,8,0:2:0:0:
366,223,58393,5,8,0:2:0:0:
207,188,58575,1,8,0:2:0:0:
504,6,60030,5,4,3:2:0:0:
504,6,60212,1,0,3:2:0:0:
398,125,60394,2,0,P|432:103|482:86,1,85,10|0,0:2|3:2,0:0:0:0:
296,0,60757,2,0,P|330:22|380:39,1,85,2|0,3:2|3:2,0:0:0:0:
338,188,61121,2,0,P|305:140|313:105,1,85,10|0,0:2|3:2,0:0:0:0:
469,191,61484,5,2,3:2:0:0:
311,276,61666,1,0,3:2:0:0:
208,115,61848,5,10,0:2:0:0:
338,188,62030,1,0,3:2:0:0:
194,310,62212,5,2,3:2:0:0:
247,199,62394,1,0,3:2:0:0:
120,142,62575,5,10,0:2:0:0:
165,229,62757,1,0,3:2:0:0:
209,25,62939,6,0,P|167:26|133:51,1,85,2|0,3:2|3:2,0:0:0:0:
0,195,63303,2,0,P|41:196|75:221,1,85,10|0,0:2|3:2,0:0:0:0:
258,383,63666,6,0,P|246:342|224:298,1,85,2|0,3:2|3:2,0:0:0:0:
351,160,64030,2,0,P|332:198|320:238,1,85,10|0,0:2|3:2,0:0:0:0:
216,60,64394,5,0,3:2:0:0:
216,60,64575,1,0,3:2:0:0:
151,141,64757,5,8,0:2:0:0:
317,72,64939,1,0,3:2:0:0:
114,46,65121,5,8,0:2:0:0:
256,155,65303,1,0,3:2:0:0:
51,129,65484,5,8,0:2:0:0:
216,60,65666,1,0,3:2:0:0:
13,34,65848,5,4,3:2:0:0:
13,34,66030,1,0,3:2:0:0:
151,141,66212,2,0,P|133:179|125:221,1,85,10|0,0:2|3:2,0:0:0:0:
44,351,66575,2,0,P|35:309|19:270,1,85,2|0,3:2|3:2,0:0:0:0:
205,286,66939,2,0,P|165:325|113:315,1,85,10|0,0:2|3:2,0:0:0:0:
234,200,67303,5,2,3:2:0:0:
403,274,67485,1,0,3:2:0:0:
441,146,67666,5,10,0:2:0:0:
318,236,67848,1,0,3:2:0:0:
228,106,68030,5,2,3:2:0:0:
341,149,68212,1,0,3:2:0:0:
409,24,68394,5,10,0:2:0:0:
323,57,68575,1,0,3:2:0:0:
416,227,68757,6,0,P|427:186|441:145,1,85,2|0,3:2|3:2,0:0:0:0:
281,297,69121,2,0,P|294:337|306:378,1,85,10|0,0:2|3:2,0:0:0:0:
201,219,69484,6,0,P|243:184|285:189,1,85,2|0,3:2|3:2,0:0:0:0:
178,341,69848,2,0,P|126:322|110:283,1,85,10|0,0:2|3:2,0:0:0:0:
11,155,70212,5,0,3:2:0:0:
109,204,70394,1,0,3:2:0:0:
127,33,70575,2,0,P|105:70|90:125,1,85,10|0,0:2|0:0,0:0:0:0:
194,261,70939,5,10,0:2:0:0:
213,268,71029,1,8,0:2:0:0:
234,270,71120,1,8,0:2:0:0:
255,266,71211,1,8,0:2:0:0:
274,256,71302,1,10,0:2:0:0:
289,241,71393,1,8,0:2:0:0:
299,223,71484,1,8,0:2:0:0:
304,202,71575,1,8,0:2:0:0:
303,181,71666,6,0,P|286:122|254:57,1,118.999996368408,6|0,3:2|0:0,0:0:0:0:
201,3,72212,1,0,3:2:0:0:
364,92,72394,2,0,P|403:94|453:27,1,118.999996368408,10|0,0:2|3:2,0:0:0:0:
371,6,72939,1,0,3:2:0:0:
299,151,73121,6,0,P|311:177|319:206,1,59.4999981842042,2|0,0:2|3:2,0:0:0:0:
422,194,73484,2,0,P|409:220|401:249,1,59.4999981842042,2|2,3:2|0:2,0:0:0:0:
282,379,73848,1,8,0:2:0:0:
269,290,74030,2,0,P|326:299|358:347,1,118.999996368408,2|0,0:2|0:0,0:0:0:0:
198,346,74575,6,0,P|172:293|192:239,1,118.999996368408,2|2,3:2|0:2,0:0:0:0:
256,180,75121,1,2,3:2:0:0:
117,72,75303,1,8,0:2:0:0:
212,44,75484,2,0,P|190:99|178:157,1,118.999996368408,2|2,0:2|3:2,0:0:0:0:
35,301,76030,5,10,0:2:0:0:
113,270,76212,1,8,0:3:0:0:
191,239,76394,1,4,0:3:0:0:
58,208,76575,5,2,3:2:0:0:
58,208,76939,1,2,3:2:0:0:
178,322,77121,1,8,0:2:0:0:
192,325,77211,1,8,0:2:0:0:
207,325,77302,1,8,0:2:0:0:
221,322,77393,1,8,0:2:0:0:
234,314,77484,6,0,P|300:305|355:352,1,118.999996368408,6|0,3:2|0:0,0:0:0:0:
423,384,78030,1,0,3:2:0:0:
512,250,78212,2,0,P|461:278|403:267,1,118.999996368408,10|0,0:2|3:2,0:0:0:0:
318,235,78757,1,0,3:2:0:0:
468,128,78939,6,0,P|457:147|447:184,1,59.4999981842042,2|0,0:2|3:2,0:0:0:0:
389,101,79303,2,0,P|378:120|368:157,1,59.4999981842042,2|2,3:2|0:2,0:0:0:0:
245,8,79666,1,8,0:2:0:0:
211,84,79848,2,0,P|273:89|323:33,1,118.999996368408,2|0,0:2|0:0,0:0:0:0:
507,55,80394,6,0,P|449:31|393:19,1,118.999996368408,2|0,3:2|0:0,0:0:0:0:
315,55,80939,1,0,3:2:0:0:
410,156,81121,2,0,P|402:124|379:89,1,59.4999981842042,10|0,0:2|0:0,0:0:0:0:
238,4,81484,1,0,3:2:0:0:
238,4,81848,5,10,0:2:0:0:
194,162,82030,1,0,3:2:0:0:
307,111,82212,2,0,P|279:98|251:91,1,59.4999981842042,8|0,0:2|3:2,0:0:0:0:
216,83,82484,1,0,3:2:0:0:
216,83,82575,1,10,0:2:0:0:
115,183,82757,1,8,0:3:0:0:
252,221,82939,1,4,0:3:0:0:
194,162,83121,1,4,0:3:0:0:
89,264,83303,6,0,P|164:277|234:306,1,152.999995330811,6|8,3:2|0:2,0:0:0:0:
391,259,83848,1,10,0:2:0:0:
391,259,83939,1,8,0:2:0:0:
391,259,84030,2,0,P|355:273|318:280,1,76.4999976654053,2|0,3:2|3:2,0:0:0:0:
356,120,84394,1,8,0:2:0:0:
429,178,84575,1,2,3:2:0:0:
253,224,84757,6,0,P|267:188|274:151,1,76.4999976654053,2|0,3:2|3:2,0:0:0:0:
424,67,85121,1,8,0:2:0:0:
335,47,85303,1,10,0:2:0:0:
335,47,85394,1,8,0:2:0:0:
335,47,85484,2,0,P|341:84|356:119,1,76.4999976654053,2|0,3:2|3:2,0:0:0:0:
502,199,85848,2,0,P|466:184|429:177,1,76.4999976654053,10|0,0:2|3:2,0:0:0:0:
235,64,86212,6,0,P|192:107|101:104,1,152.999995330811,2|8,3:2|0:2,0:0:0:0:
0,0,86757,1,8,0:2:0:0:
0,0,86848,1,8,0:2:0:0:
0,0,86939,2,0,P|18:39|24:82,1,76.4999976654053,0|0,3:2|3:2,0:0:0:0:
130,192,87303,2,0,P|113:226|106:263,1,76.4999976654053,8|0,0:2|3:2,0:0:0:0:
0,370,87666,6,0,P|34:353|71:346,1,76.4999976654053,2|0,3:2|3:2,0:0:0:0:
199,258,88030,1,8,0:2:0:0:
233,362,88212,1,8,0:2:0:0:
233,362,88303,1,8,0:2:0:0:
233,362,88394,2,0,P|195:354|161:338,1,76.4999976654053,0|0,3:2|3:2,0:0:0:0:
12,281,88757,2,0,P|28:246|35:209,1,76.4999976654053,8|0,0:2|3:2,0:0:0:0:
212,161,89121,6,0,P|151:171|71:111,1,152.999995330811,6|8,3:2|0:2,0:0:0:0:
187,10,89666,1,10,0:2:0:0:
187,10,89757,1,8,0:2:0:0:
187,10,89848,2,0,P|170:44|163:81,1,76.4999976654053,2|0,3:2|3:2,0:0:0:0:
3,78,90212,1,8,0:2:0:0:
82,30,90394,1,2,3:2:0:0:
216,157,90575,6,0,P|250:140|287:133,1,76.4999976654053,2|0,3:2|3:2,0:0:0:0:
433,63,90939,1,8,0:2:0:0:
369,0,91121,1,10,0:2:0:0:
369,0,91212,1,8,0:2:0:0:
369,0,91303,2,0,P|345:37|348:83,1,76.4999976654053,2|0,3:2|3:2,0:0:0:0:
460,204,91666,2,0,P|484:167|481:121,1,76.4999976654053,10|0,0:2|3:2,0:0:0:0:
360,194,92030,6,0,P|385:265|403:340,1,152.999995330811,2|8,3:2|0:2,0:0:0:0:
292,258,92575,1,8,0:2:0:0:
292,258,92666,1,8,0:2:0:0:
292,258,92757,2,0,P|304:293|313:331,1,76.4999976654053,0|0,3:2|3:2,0:0:0:0:
482,277,93121,2,0,P|469:241|460:203,1,76.4999976654053,8|0,0:2|3:2,0:0:0:0:
281,146,93484,6,0,P|243:173|203:172,1,76.4999976654053,2|0,3:2|3:2,0:0:0:0:
87,82,93848,2,0,P|112:137|126:204,1,114.749996498108,8|0,0:2|0:0,0:0:0:0:
190,267,94212,5,8,0:2:0:0:
161,271,94302,1,8,0:2:0:0:
137,287,94393,1,8,0:3:0:0:
124,312,94484,1,8,0:3:0:0:
124,340,94575,1,10,0:2:0:0:
128,355,94665,1,8,0:3:0:0:
138,366,94756,1,4,0:3:0:0:
150,374,94847,1,4,0:3:0:0:
164,376,94939,6,0,P|183:368|216:366,1,46.7500014266968,6|0,3:2|0:0,0:0:0:0:
272,305,95303,2,0,P|295:302|316:294,1,46.7500014266968,0|2,3:2|0:2,0:0:0:0:
402,329,95666,2,0,P|404:352|412:373,1,46.7500014266968,2|0,3:2|0:0,0:0:0:0:
494,351,96030,2,0,P|491:327|483:306,1,46.7500014266968,2|2,3:2|0:2,0:0:0:0:
319,166,96394,6,0,P|308:190|302:230,1,46.7500014266968,0|2,3:2|0:2,0:0:0:0:
395,198,96757,2,0,P|384:222|378:262,1,46.7500014266968,0|2,3:2|0:2,0:0:0:0:
317,294,97121,1,0,3:2:0:0:
224,215,97303,1,2,1:2:0:0:
203,336,97484,1,0,1:0:0:0:
50,242,97848,6,0,P|57:223|74:193,1,46.7500014266968,2|0,3:2|0:0,0:0:0:0:
122,276,98212,2,0,P|129:257|146:227,1,46.7500014266968,2|2,3:2|0:2,0:0:0:0:
224,215,98575,2,0,P|217:196|200:166,1,46.7500014266968,0|2,3:2|0:2,0:0:0:0:
296,181,98939,2,0,P|289:162|272:132,1,46.7500014266968,0|2,3:2|0:2,0:0:0:0:
162,0,99303,5,4,1:2:0:0:
120,150,99848,5,10,0:2:0:0:
141,75,100030,1,2,0:2:0:0:
162,0,100212,1,2,3:2:0:0:
194,130,100393,1,2,3:2:0:0:
65,94,100575,1,10,0:2:0:0:
223,52,100757,6,0,P|281:39|335:15,1,118.999996368408,6|8,3:2|0:2,0:0:0:0:
419,139,101303,1,2,0:2:0:0:
469,69,101484,2,0,P|441:58|412:52,1,59.4999981842042,2|0,3:2|0:0,0:0:0:0:
285,124,101848,2,0,P|312:113|341:107,1,59.4999981842042,10|2,0:2|0:2,0:0:0:0:
504,161,102212,6,0,P|493:188|487:217,1,59.4999981842042,0|2,3:2|0:2,0:0:0:0:
419,139,102575,2,0,P|408:166|402:195,1,59.4999981842042,8|2,0:2|0:2,0:0:0:0:
428,275,102939,1,0,3:2:0:0:
266,235,103121,1,10,0:2:0:0:
374,384,103303,2,0,P|362:335|335:278,1,89.2499972763062,8|0,0:2|0:0,0:0:0:0:
338,287,103666,6,0,P|295:325|238:318,1,118.999996368408,2|10,3:2|0:2,0:0:0:0:
127,231,104212,2,0,P|156:236|184:246,1,59.4999981842042,2|0,0:2|3:2,0:0:0:0:
170,384,104575,2,0,P|164:354|154:326,1,59.4999981842042,2|8,0:2|0:2,0:0:0:0:
81,368,104939,1,0,0:0:0:0:
0,268,105121,5,10,0:2:0:0:
127,231,105303,1,0,3:2:0:0:
32,140,105484,1,10,0:2:0:0:
165,89,105666,5,10,0:3:0:0:
165,89,105757,1,8,0:3:0:0:
165,89,105848,1,8,0:2:0:0:
118,154,106030,1,10,0:3:0:0:
118,154,106121,1,8,0:3:0:0:
118,154,106212,1,0,3:2:0:0:
204,251,106394,1,8,0:3:0:0:
281,153,106575,6,0,P|328:173|421:187,1,136,4|8,3:2|0:2,0:0:0:0:
503,328,107121,1,2,3:2:0:0:
512,245,107303,1,2,0:2:0:0:
512,245,107484,2,0,P|478:249|446:261,1,68,2|8,3:2|0:2,0:0:0:0:
357,371,107848,6,0,P|368:339|372:305,1,68,2|0,3:2|3:2,0:0:0:0:
214,264,108212,2,0,P|202:295|198:329,1,68,2|8,3:2|0:2,0:0:0:0:
272,384,108575,2,0,L|307:221,1,136,2|2,3:2|3:2,0:0:0:0:
432,173,109121,2,0,P|390:198|354:206,1,68,8|0,0:2|3:2,0:0:0:0:
231,134,109484,6,0,P|262:145|291:164,1,68,2|0,3:2|3:2,0:0:0:0:
162,317,109848,1,10,0:2:0:0:
89,251,110030,2,0,L|243:213,1,136,2|2,3:2|3:2,0:0:0:0:
157,87,110575,2,0,L|138:164,1,68,8|2,0:2|3:2,0:0:0:0:
16,303,110939,6,0,L|0:236,1,68,0|0,3:2|3:2,0:0:0:0:
194,305,111303,1,8,0:2:0:0:
126,375,111484,2,0,L|91:233,1,136,0|0,3:2|3:2,0:0:0:0:
0,139,112030,2,0,P|35:161|70:156,1,68,8|0,0:2|3:2,0:0:0:0:
183,44,112394,6,0,B|101:27|101:27|51:77,1,136,4|8,3:2|0:2,0:0:0:0:
230,121,112939,1,2,3:2:0:0:
159,188,113121,1,2,0:2:0:0:
159,188,113303,2,0,L|138:116,1,68,2|8,3:2|0:2,0:0:0:0:
253,0,113666,6,0,P|285:33|323:36,1,68,2|0,3:2|3:2,0:0:0:0:
453,118,114030,2,0,P|497:106|519:75,1,68,2|8,3:2|0:2,0:0:0:0:
396,0,114394,2,0,L|365:147,1,136,2|2,3:2|3:2,0:0:0:0:
410,267,114939,2,0,L|424:200,1,68,8|0,0:2|3:2,0:0:0:0:
283,116,115303,6,0,P|257:137|224:143,1,68,2|0,3:2|3:2,0:0:0:0:
77,46,115666,1,10,0:2:0:0:
167,0,115848,2,0,L|137:146,1,136,2|2,3:2|3:2,0:0:0:0:
86,255,116394,2,0,L|72:188,1,68,8|0,0:2|3:2,0:0:0:0:
145,322,116757,6,0,P|105:348|65:341,1,68,2|0,3:2|3:2,0:0:0:0:
169,234,117121,5,10,0:2:0:0:
216,376,117303,1,2,3:2:0:0:
330,182,117484,5,8,0:2:0:0:
230,293,117666,1,2,3:2:0:0:
461,297,117848,5,8,0:2:0:0:
309,264,118030,1,0,3:2:0:0:
368,379,118212,6,0,L|395:228,1,136,6|8,3:2|0:2,0:0:0:0:
507,154,118757,1,2,3:2:0:0:
507,154,118939,2,0,L|433:176,1,68,2|0,3:2|3:2,0:0:0:0:
307,94,119303,2,0,L|380:116,1,68,8|0,0:2|0:0,0:0:0:0:
488,0,119666,5,0,3:2:0:0:
488,0,120030,2,0,P|455:40|466:112,1,102,10|0,0:2|0:0,0:0:0:0:
470,101,120394,2,0,L|492:174,1,68,2|0,3:2|3:2,0:0:0:0:
395,265,120757,2,0,L|375:199,1,68,10|0,0:2|0:0,0:0:0:0:
512,340,121121,6,0,P|452:337|387:414,1,136,2|8,3:2|0:2,0:0:0:0:
298,265,121666,1,2,3:2:0:0:
298,265,121848,2,0,L|317:330,1,68,2|0,3:2|3:2,0:0:0:0:
200,384,122212,2,0,L|219:318,1,68,8|0,0:2|0:0,0:0:0:0:
105,242,122575,5,0,3:2:0:0:
105,242,122939,2,0,P|146:249|198:197,1,102,10|0,0:2|0:0,0:0:0:0:
207,207,123303,2,0,L|187:141,1,68,2|0,3:2|3:2,0:0:0:0:
212,0,123666,2,0,L|232:66,1,68,10|0,0:2|0:0,0:0:0:0:
293,226,124030,6,0,P|331:192|434:204,1,136,6|8,3:2|0:2,0:0:0:0:
486,40,124575,1,2,3:2:0:0:
512,126,124757,2,0,L|358:91,1,136,2|8,3:2|0:2,0:0:0:0:
227,29,125303,1,2,0:2:0:0:
316,0,125484,6,0,L|281:154,1,136,2|8,3:2|0:2,0:0:0:0:
246,286,126030,1,2,3:2:0:0:
209,155,126212,5,10,0:2:0:0:
266,209,126394,1,8,0:3:0:0:
172,308,126575,5,6,0:3:0:0:
190,231,126757,1,4,0:3:0:0:
226,363,126939,5,10,0:2:0:0:
114,253,127121,1,8,0:2:0:0:
287,134,127484,5,8,0:2:0:0:
246,286,127666,1,8,0:2:0:0:
135,174,127848,1,8,0:2:0:0:
361,114,128212,5,8,0:2:0:0:
320,267,128394,1,8,0:2:0:0:
446,31,129848,5,4,3:2:0:0:
446,31,130030,1,0,3:2:0:0:
411,173,130212,2,0,P|403:131|385:92,1,85,10|0,0:2|3:2,0:0:0:0:
487,234,130575,2,0,P|494:192|512:153,1,85,2|0,3:2|3:2,0:0:0:0:
431,295,130939,2,0,P|464:320|505:316,1,85,10|0,0:2|3:2,0:0:0:0:
359,241,131303,5,2,3:2:0:0:
198,339,131484,1,0,3:2:0:0:
148,212,131666,5,10,0:2:0:0:
280,292,131847,1,0,3:2:0:0:
346,149,132030,5,2,3:2:0:0:
241,212,132211,1,0,3:2:0:0:
183,78,132394,5,10,0:2:0:0:
259,123,132575,1,0,3:2:0:0:
195,288,132757,6,0,P|153:298|115:316,1,85,2|0,3:2|3:2,0:0:0:0:
0,206,133121,2,0,P|41:216|79:234,1,85,10|0,0:2|3:2,0:0:0:0:
183,78,133484,6,0,P|144:118|144:161,1,85,2|0,3:2|3:2,0:0:0:0:
5,23,133848,2,0,P|44:63|44:106,1,85,10|0,0:2|3:2,0:0:0:0:
168,241,134212,5,0,3:2:0:0:
168,241,134394,1,0,3:2:0:0:
230,159,134575,5,8,0:2:0:0:
207,335,134757,1,0,3:2:0:0:
434,186,134939,5,8,0:2:0:0:
269,254,135121,1,0,3:2:0:0:
512,376,135302,5,8,0:2:0:0:
371,268,135484,1,0,3:2:0:0:
512,241,135666,5,4,3:2:0:0:
512,241,135848,1,0,3:2:0:0:
419,384,136030,2,0,P|430:343|451:306,1,85,10|0,0:2|3:2,0:0:0:0:
338,190,136394,2,0,P|358:227|370:267,1,85,2|0,3:2|3:2,0:0:0:0:
468,104,136757,2,0,P|447:141|435:181,1,85,10|0,0:2|3:2,0:0:0:0:
276,259,137121,5,2,3:2:0:0:
367,102,137303,1,0,3:2:0:0:
215,31,137484,5,10,0:2:0:0:
295,169,137666,1,0,3:2:0:0:
155,232,137848,5,2,3:2:0:0:
215,126,138030,1,0,3:2:0:0:
75,68,138212,5,10,0:2:0:0:
121,150,138394,1,0,3:2:0:0:
263,247,138575,6,0,P|274:206|295:169,1,85,2|0,3:2|3:2,0:0:0:0:
312,12,138939,2,0,P|323:52|344:89,1,85,10|0,0:2|3:2,0:0:0:0:
489,36,139303,6,0,P|437:14|399:28,1,85,2|0,3:2|3:2,0:0:0:0:
385,175,139666,2,0,P|429:141|436:101,1,85,10|0,0:2|3:2,0:0:0:0:
295,169,140030,5,0,3:2:0:0:
346,253,140212,1,0,3:2:0:0:
172,287,140394,2,0,P|209:267|249:252,1,85,10|0,0:2|0:0,0:0:0:0:
402,333,140757,5,10,0:2:0:0:
421,340,140847,1,8,0:2:0:0:
442,342,140938,1,8,0:2:0:0:
463,338,141029,1,8,0:2:0:0:
482,328,141120,1,10,0:2:0:0:
497,313,141211,1,8,0:2:0:0:
507,295,141302,1,8,0:2:0:0:
512,274,141393,1,8,0:2:0:0:
511,253,141484,6,0,P|457:227|399:211,1,118.999996368408,6|0,3:2|0:0,0:0:0:0:
344,152,142030,1,0,3:2:0:0:
380,294,142212,2,0,P|322:309|269:335,1,118.999996368408,10|0,0:2|3:2,0:0:0:0:
206,280,142757,1,0,3:2:0:0:
64,384,142939,6,0,P|57:352|30:308,1,59.4999981842042,2|0,0:2|3:2,0:0:0:0:
142,361,143303,2,0,P|135:329|108:285,1,59.4999981842042,2|2,3:2|0:2,0:0:0:0:
39,161,143666,1,8,0:2:0:0:
0,238,143848,2,0,P|65:240|116:190,1,118.999996368408,2|0,0:2|0:0,0:0:0:0:
306,143,144394,6,0,P|240:145|189:95,1,118.999996368408,2|2,3:2|0:2,0:0:0:0:
159,34,144939,1,2,3:2:0:0:
39,161,145121,1,8,0:2:0:0:
0,67,145303,2,0,L|135:106,1,118.999996368408,2|2,0:2|3:2,0:0:0:0:
275,70,145848,5,10,0:2:0:0:
306,143,146030,1,8,0:3:0:0:
337,216,146212,1,4,0:3:0:0:
357,83,146394,5,2,3:2:0:0:
357,83,146757,1,2,3:2:0:0:
258,206,146939,1,8,0:2:0:0:
243,202,147029,1,8,0:2:0:0:
229,198,147120,1,8,0:2:0:0:
214,195,147211,1,8,0:2:0:0:
200,191,147303,6,0,P|184:130|159:63,1,118.999996368408,6|0,3:2|0:0,0:0:0:0:
212,6,147848,1,0,3:2:0:0:
319,153,148030,2,0,P|377:161|428:110,1,118.999996368408,10|0,0:2|3:2,0:0:0:0:
426,44,148575,1,0,3:2:0:0:
257,93,148757,6,0,P|242:118|234:147,1,59.4999981842042,2|0,0:2|3:2,0:0:0:0:
154,177,149121,2,0,P|168:202|190:223,1,59.4999981842042,2|2,3:2|0:2,0:0:0:0:
336,317,149484,1,8,0:2:0:0:
247,341,149666,2,0,L|281:201,1,118.999996368408,2|0,0:2|0:0,0:0:0:0:
374,130,150212,5,2,3:2:0:0:
374,130,150575,2,0,L|295:162,1,59.4999981842042,2|0,0:2|3:2,0:0:0:0:
486,222,150939,1,10,0:2:0:0:
486,222,151121,2,0,L|407:190,1,59.4999981842042,2|0,0:2|3:2,0:0:0:0:
444,67,151484,6,0,L|466:122,1,59.4999981842042,2|4,3:2|0:2,0:0:0:0:
369,288,151848,2,0,L|346:232,1,59.4999981842042,2|8,3:2|0:2,0:0:0:0:
464,310,152212,5,2,3:2:0:0:
464,310,152303,1,8,0:2:0:0:
464,310,152394,1,10,0:2:0:0:
328,371,152575,1,8,0:3:0:0:
328,371,152666,1,8,0:3:0:0:
328,371,152757,1,4,0:3:0:0:
412,384,152939,1,4,0:3:0:0:
276,289,153121,6,0,L|187:264,1,76.4999976654053,6|0,3:2|3:2,0:0:0:0:
71,360,153484,2,0,P|112:312|88:204,1,152.999995330811,8|0,0:2|3:2,0:0:0:0:
49,161,154030,1,0,3:2:0:0:
190,40,154212,5,10,0:2:0:0:
94,0,154394,2,0,L|134:150,1,152.999995330811,2|0,3:2|3:2,0:0:0:0:
181,280,154939,2,0,L|200:205,1,76.4999976654053,10|0,0:2|3:2,0:0:0:0:
100,318,155303,2,0,P|124:353|180:365,1,76.4999976654053,2|0,3:2|3:2,0:0:0:0:
103,228,155666,2,0,P|60:231|21:274,1,76.4999976654053,10|0,0:2|3:2,0:0:0:0:
239,352,156030,6,0,L|315:327,1,76.4999976654053,2|2,3:2|3:2,0:0:0:0:
434,204,156394,1,10,0:2:0:0:
472,284,156575,2,0,P|404:290|347:197,1,152.999995330811,2|0,3:2|3:2,0:0:0:0:
210,204,157121,2,0,P|249:194|282:177,1,76.4999976654053,8|2,0:2|3:2,0:0:0:0:
445,115,157484,5,2,3:2:0:0:
377,58,157665,1,2,3:2:0:0:
295,90,157847,1,8,0:2:0:0:
363,145,158029,1,2,3:2:0:0:
309,1,158211,5,10,0:2:0:0:
213,122,158393,1,0,3:2:0:0:
377,58,158575,1,10,0:2:0:0:
227,35,158757,2,0,P|150:41|77:62,1,152.999995330811,2|2,3:2|3:2,0:0:0:0:
0,167,159303,5,8,0:2:0:0:
149,214,159484,1,2,3:2:0:0:
61,234,159666,1,0,3:2:0:0:
210,281,159848,1,2,3:2:0:0:
89,148,160030,1,10,0:2:0:0:
49,325,160212,6,0,P|86:316|121:301,1,76.4999976654053,2|0,3:2|3:2,0:0:0:0:
271,348,160575,1,2,3:2:0:0:
183,368,160757,1,8,0:2:0:0:
298,261,160939,2,0,P|283:225|274:188,1,76.4999976654053,2|0,3:2|3:2,0:0:0:0:
166,126,161303,1,2,3:2:0:0:
166,126,161484,2,0,P|180:161|189:198,1,76.4999976654053,8|0,0:2|3:2,0:0:0:0:
363,327,161848,5,0,3:2:0:0:
363,327,162030,2,0,P|398:313|435:304,1,76.4999976654053,2|8,3:2|0:2,0:0:0:0:
512,171,162394,1,2,3:2:0:0:
512,171,162576,2,0,P|474:162|439:147,1,76.4999976654053,2|0,3:2|3:2,0:0:0:0:
352,20,162939,2,0,P|376:52|376:89,1,76.4999976654053,8|0,0:2|3:2,0:0:0:0:
392,226,163303,5,2,3:2:0:0:
392,226,163394,1,2,0:2:0:0:
392,226,163484,2,0,L|338:208,1,38.2499988327027,2|2,3:2|0:2,0:0:0:0:
297,153,163666,1,10,0:2:0:0:
297,153,163757,1,2,0:2:0:0:
297,153,163847,2,0,L|243:171,1,38.2499988327027,2|2,0:2|0:2,0:0:0:0:
195,230,164030,5,10,0:2:0:0:
181,234,164120,1,10,0:2:0:0:
167,237,164211,1,10,0:2:0:0:
153,237,164302,1,10,0:2:0:0:
139,234,164393,1,10,0:2:0:0:
126,227,164484,1,10,0:2:0:0:
115,218,164575,1,10,0:2:0:0:
106,206,164666,1,10,0:2:0:0:
101,193,164757,6,0,P|112:146|149:97,1,76.4999976654053,6|0,3:2|3:2,0:0:0:0:
81,0,165121,2,0,P|73:37|56:71,1,76.4999976654053,8|0,0:2|3:2,0:0:0:0:
197,181,165484,6,0,P|230:163|272:166,1,76.4999976654053,2|0,3:2|3:2,0:0:0:0:
298,39,165848,2,0,P|330:59|348:96,1,76.4999976654053,8|0,0:2|3:2,0:0:0:0:
437,224,166212,6,0,P|402:210|341:196,1,76.4999976654053,2|0,3:2|3:2,0:0:0:0:
266,346,166575,1,10,0:2:0:0:
246,252,166757,2,0,L|404:304,1,152.999995330811,2|2,3:2|3:2,0:0:0:0:
497,379,167303,2,0,P|472:323|477:296,1,76.4999976654053,8|0,0:2|3:2,0:0:0:0:
365,200,167666,6,0,P|386:126|413:55,1,152.999995330811,2|10,3:2|0:2,0:0:0:0:
289,0,168212,2,0,P|302:35|313:72,1,76.4999976654053,2|0,3:2|3:2,0:0:0:0:
480,129,168575,2,0,P|466:164|455:201,1,76.4999976654053,2|8,3:2|0:2,0:0:0:0:
403,281,168939,1,2,3:2:0:0:
281,170,169121,5,0,3:2:0:0:
208,320,169303,1,0,3:2:0:0:
194,147,169484,5,8,0:2:0:0:
267,255,169666,1,0,3:2:0:0:
121,302,169848,5,8,0:2:0:0:
186,233,170030,1,0,3:2:0:0:
284,341,170212,5,8,0:2:0:0:
208,320,170394,1,0,3:2:0:0:
97,216,170575,6,0,P|56:228|16:248,1,76.4999976654053,6|0,3:2|3:2,0:0:0:0:
71,129,170939,2,0,P|30:141|-10:161,1,76.4999976654053,8|0,0:2|3:2,0:0:0:0:
188,63,171303,6,0,P|222:78|259:89,1,76.4999976654053,2|0,3:2|3:2,0:0:0:0:
163,150,171666,2,0,P|197:165|234:176,1,76.4999976654053,8|0,0:2|3:2,0:0:0:0:
204,323,172030,6,0,P|193:286|177:251,1,76.4999976654053,2|0,3:2|3:2,0:0:0:0:
152,384,172394,1,10,0:2:0:0:
292,316,172575,2,0,P|335:312|445:376,1,152.999995330811,2|2,3:2|3:2,0:0:0:0:
512,227,173121,2,0,P|474:256|421:247,1,76.4999976654053,8|0,0:2|3:2,0:0:0:0:
290,232,173484,6,0,P|280:198|255:149,1,76.4999976654053,2|0,3:2|3:2,0:0:0:0:
372,207,173848,2,0,P|362:173|337:124,1,76.4999976654053,8|0,0:2|3:2,0:0:0:0:
512,29,174212,6,0,P|502:62|477:112,1,76.4999976654053,2|0,3:2|3:2,0:0:0:0:
430,4,174575,2,0,P|420:37|395:87,1,76.4999976654053,8|0,0:2|3:2,0:0:0:0:
258,46,174939,6,0,P|292:29|329:18,1,76.4999976654053,2|0,3:2|3:2,0:0:0:0:
427,161,175303,2,0,L|389:288,1,114.749996498108,8|0,0:2|0:0,0:0:0:0:
324,311,175666,5,10,0:2:0:0:
305,305,175756,1,8,0:2:0:0:
286,303,175847,1,8,0:2:0:0:
267,304,175938,1,8,0:2:0:0:
249,309,176029,1,8,0:2:0:0:
232,318,176120,1,8,0:2:0:0:
216,329,176211,1,8,0:2:0:0:
203,343,176302,1,8,0:2:0:0:
193,359,176394,6,0,P|240:339|240:174,1,242.249992607117,2|0,3:2|0:0,0:0:0:0:
222,169,178212,6,0,P|173:184|140:210,1,85,8|0,0:2|0:0,0:0:0:0:
59,267,178484,6,0,P|108:282|141:308,1,85,8|0,0:3|0:0,0:0:0:0:
193,359,178757,5,8,0:2:0:0:
295,238,178939,1,8,0:2:0:0:
384,370,179121,5,8,0:2:0:0:
384,370,179212,1,8,0:2:0:0:
384,370,179303,2,0,P|341:349|296:337,1,93.5000028533936,4|0,3:2|3:2,0:0:0:0:
345,154,179666,6,0,P|383:183|390:228,1,93.5000028533936,10|0,0:2|3:2,0:0:0:0:
235,142,180030,2,0,P|241:94|276:66,1,93.5000028533936,2|0,3:2|3:2,0:0:0:0:
295,238,180394,2,0,P|250:252|210:276,1,93.5000028533936,10|0,0:2|3:2,0:0:0:0:
25,208,180757,5,2,3:2:0:0:
153,354,180939,1,0,3:2:0:0:
140,132,181121,5,10,0:2:0:0:
89,281,181303,1,0,3:2:0:0:
57,127,181484,5,2,3:2:0:0:
138,220,181666,1,0,3:2:0:0:
201,64,181848,5,10,0:2:0:0:
140,132,182030,1,0,3:2:0:0:
264,240,182212,6,0,P|248:195|227:154,1,93.5000028533936,2|0,3:2|3:2,0:0:0:0:
335,0,182575,2,0,P|313:41|298:85,1,93.5000028533936,10|0,0:2|3:2,0:0:0:0:
483,90,182939,6,0,P|457:49|399:44,1,93.5000028533936,2|0,3:2|3:2,0:0:0:0:
338,189,183303,2,0,P|383:173|400:117,1,93.5000028533936,10|0,0:2|3:2,0:0:0:0:
235,11,183666,5,0,3:2:0:0:
235,11,183848,1,0,3:2:0:0:
205,113,184030,5,8,0:2:0:0:
342,0,184212,1,0,3:2:0:0:
138,34,184394,5,8,0:2:0:0:
304,96,184576,1,0,3:2:0:0:
99,125,184757,5,8,0:2:0:0:
235,11,184939,1,0,3:2:0:0:
266,186,185121,5,4,3:2:0:0:
266,186,185303,1,0,3:2:0:0:
396,77,185484,2,0,P|439:91|501:104,1,93.5000028533936,10|0,0:2|3:2,0:0:0:0:
385,254,185848,2,0,P|374:208|360:164,1,93.5000028533936,2|0,3:2|3:2,0:0:0:0:
479,316,186212,2,0,P|489:270|503:226,1,93.5000028533936,10|0,0:2|3:2,0:0:0:0:
293,266,186575,5,2,3:2:0:0:
431,384,186757,1,0,3:2:0:0:
212,311,186939,5,10,0:2:0:0:
357,337,187121,1,0,3:2:0:0:
192,220,187303,5,2,3:2:0:0:
113,312,187485,1,0,3:2:0:0:
71,130,187666,5,10,0:2:0:0:
101,216,187848,1,0,3:2:0:0:
0,360,188030,6,0,P|9:314|25:270,1,93.5000028533936,2|0,3:2|3:2,0:0:0:0:
167,130,188394,2,0,P|182:174|192:219,1,93.5000028533936,10|0,0:2|3:2,0:0:0:0:
341,337,188757,6,0,P|301:320|219:308,1,93.5000028533936,2|0,3:2|3:2,0:0:0:0:
405,272,189121,2,0,P|437:326|422:371,1,93.5000028533936,10|0,0:2|3:2,0:0:0:0:
313,231,189484,5,0,3:2:0:0:
394,170,189666,1,0,3:2:0:0:
201,81,189848,2,0,P|234:136|308:134,1,140.25000428009,10|0,0:2|0:0,0:0:0:0:
371,85,190212,5,10,0:2:0:0:
392,75,190302,1,8,0:2:0:0:
415,73,190393,1,8,0:2:0:0:
438,78,190484,1,8,0:2:0:0:
458,89,190575,1,10,0:2:0:0:
474,106,190666,1,8,0:2:0:0:
484,128,190757,1,8,0:2:0:0:
486,151,190848,1,8,0:2:0:0:
482,174,190939,6,0,P|466:226|448:371,1,170,6|8,3:2|0:2,0:0:0:0:
286,269,191484,1,0,3:2:0:0:
286,269,191575,1,8,0:2:0:0:
286,269,191666,2,0,P|328:263|369:252,1,85,2|0,3:2|0:0,0:0:0:0:
245,365,192030,2,0,P|204:330|121:341,1,127.5,8|0,0:2|0:0,0:0:0:0:
109,359,192394,6,0,P|90:276|50:201,1,170,2|10,3:2|0:2,0:0:0:0:
133,53,192939,1,2,2:0:0:0:
0,93,193121,2,0,P|40:104|78:123,1,85,0|2,3:2|2:0,0:0:0:0:
229,44,193484,1,8,0:2:0:0:
178,136,193666,1,8,0:2:0:0:
353,163,193848,6,0,P|312:151|274:132,1,85,2|0,3:2|0:0,0:0:0:0:
135,217,194212,1,10,0:2:0:0:
277,295,194394,1,2,3:2:0:0:
277,295,194484,1,8,0:2:0:0:
277,295,194575,1,0,3:2:0:0:
148,376,194757,2,0,P|160:335|179:297,1,85,2|8,2:0|0:2,0:0:0:0:
231,210,195121,1,2,2:0:0:0:
358,323,195303,5,10,0:2:0:0:
435,345,195484,1,8,0:3:0:0:
512,367,195666,1,4,0:3:0:0:
416,267,195848,5,2,3:2:0:0:
416,267,196212,1,2,3:2:0:0:
293,372,196394,1,8,0:2:0:0:
274,367,196484,1,8,0:2:0:0:
256,363,196575,1,8,0:2:0:0:
238,358,196666,1,8,0:2:0:0:
220,354,196757,6,0,P|176:309|201:197,1,170,6|8,3:2|0:2,0:0:0:0:
311,103,197303,1,0,3:2:0:0:
311,103,197394,1,8,0:2:0:0:
311,103,197484,2,0,P|269:121|213:128,1,85,2|0,3:2|0:0,0:0:0:0:
375,248,197848,2,0,P|383:185|408:126,1,127.5,8|0,0:2|0:0,0:0:0:0:
433,107,198212,6,0,P|412:29|332:17,1,170,2|10,3:2|0:2,0:0:0:0:
287,184,198757,1,2,2:0:0:0:
206,121,198939,2,0,P|246:109|313:74,1,85,0|2,3:2|2:0,0:0:0:0:
261,277,199303,1,8,0:2:0:0:
194,210,199484,1,8,0:2:0:0:
64,346,199666,6,0,B|105:347|147:366|147:366|200:326|160:269,1,170,2|8,3:2|0:2,0:0:0:0:
60,179,200212,1,0,3:2:0:0:
60,179,200303,1,8,0:2:0:0:
60,179,200394,2,0,P|79:218|89:276,1,85,2|0,3:2|0:0,0:0:0:0:
261,277,200757,2,0,P|242:238|232:180,1,85,8|0,0:2|0:0,0:0:0:0:
130,108,201121,5,10,0:2:0:0:
130,108,201212,1,8,0:2:0:0:
130,108,201303,2,0,L|188:130,1,42.5,8|8,0:3|0:3,0:0:0:0:
231,22,201484,1,8,0:2:0:0:
231,22,201575,1,8,0:2:0:0:
231,22,201666,2,0,L|173:44,1,42.5,0|0,3:2|3:2,0:0:0:0:
275,121,201848,5,10,0:3:0:0:
283,107,201938,1,8,0:3:0:0:
294,95,202029,1,8,0:3:0:0:
307,86,202120,1,8,0:3:0:0:
321,80,202211,1,4,0:3:0:0:
337,77,202302,1,4,0:3:0:0:
353,78,202393,1,4,0:3:0:0:
368,82,202484,1,4,0:3:0:0:
383,89,202575,6,0,P|424:152|455:278,1,170,6|8,3:2|0:2,0:0:0:0:
414,380,203121,1,0,3:2:0:0:
414,380,203212,1,0,3:0:0:0:
414,380,203303,2,0,P|393:348|377:285,1,85,2|0,3:2|3:2,0:0:0:0:
269,182,203666,2,0,P|300:202|363:218,1,85,8|0,0:2|3:2,0:0:0:0:
147,336,204030,6,0,P|182:296|309:310,1,170,2|8,3:2|0:2,0:0:0:0:
419,155,204575,1,0,3:2:0:0:
422,250,204757,2,0,P|381:238|345:215,1,85,2|0,3:2|3:2,0:0:0:0:
220,127,205121,1,8,0:2:0:0:
353,51,205303,1,2,3:2:0:0:
189,41,205484,5,2,3:2:0:0:
320,130,205666,1,2,3:2:0:0:
177,211,205848,2,0,P|114:182|47:170,1,127.5,8|0,0:2|0:0,0:0:0:0:
47,160,206212,2,0,P|67:124|73:69,1,85,0|0,3:2|3:2,0:0:0:0:
89,263,206575,2,0,P|69:299|63:354,1,85,10|0,0:2|3:2,0:0:0:0:
303,370,206939,6,0,P|255:321|140:349,1,170,2|8,3:2|0:2,0:0:0:0:
89,263,207484,1,0,3:2:0:0:
233,190,207666,5,10,0:2:0:0:
98,102,207848,1,0,3:2:0:0:
283,113,208030,5,10,0:2:0:0:
140,185,208212,1,0,3:2:0:0:
104,11,208394,6,0,P|161:30|288:24,1,170,6|8,3:2|0:2,0:0:0:0:
431,28,208939,1,0,3:2:0:0:
431,28,209030,1,0,3:0:0:0:
431,28,209121,2,0,P|379:36|351:79,1,85,2|0,3:2|3:2,0:0:0:0:
417,199,209484,2,0,P|436:149|412:104,1,85,8|0,0:2|3:2,0:0:0:0:
261,125,209848,6,0,P|301:133|352:158,1,85,2|0,3:2|3:2,0:0:0:0:
489,268,210212,2,0,P|448:276|398:301,1,85,8|0,0:2|3:2,0:0:0:0:
283,384,210575,2,0,P|292:342|309:303,1,85,2|0,3:2|3:2,0:0:0:0:
185,189,210939,2,0,P|202:227|211:269,1,85,8|0,0:2|3:2,0:0:0:0:
90,368,211303,5,0,3:2:0:0:
122,284,211484,1,2,3:2:0:0:
178,354,211665,1,10,0:2:0:0:
34,298,211848,1,2,3:2:0:0:
34,298,211939,1,0,3:0:0:0:
34,298,212030,2,0,P|21:251|-1:203,1,85,2|0,3:2|3:2,0:0:0:0:
121,120,212394,2,0,P|104:159|93:200,1,85,10|0,0:2|3:2,0:0:0:0:
207,91,212757,5,2,3:2:0:0:
137,30,212939,1,2,3:2:0:0:
189,181,213121,1,10,0:2:0:0:
294,61,213303,1,2,2:0:0:0:
346,212,213484,5,8,0:2:0:0:
337,231,213574,1,8,0:2:0:0:
329,251,213665,1,8,0:2:0:0:
323,271,213756,1,8,0:2:0:0:
319,292,213848,2,0,L|337:363,1,42.5,10|8,0:2|0:2,0:0:0:0:
415,341,214030,2,0,L|404:299,1,42.5,8|8,0:2|0:2,0:0:0:0:
487,261,214212,6,0,P|405:269|346:212,1,170,6|8,3:2|0:2,0:0:0:0:
462,110,214757,1,0,3:2:0:0:
462,110,214848,1,0,3:0:0:0:
462,110,214939,2,0,P|443:147|431:188,1,85,2|0,3:2|3:2,0:0:0:0:
276,277,215303,2,0,P|264:236|244:198,1,85,8|0,0:2|3:2,0:0:0:0:
365,109,215666,6,0,P|286:119|214:50,1,170,2|8,3:2|0:2,0:0:0:0:
56,99,216212,1,0,3:2:0:0:
112,0,216394,2,0,P|128:39|141:83,1,85,2|0,3:2|3:2,0:0:0:0:
244,198,216757,2,0,P|227:237|214:281,1,85,8|0,0:2|3:2,0:0:0:0:
2,265,217121,6,0,P|45:209|152:219,1,170,2|8,3:2|0:2,0:0:0:0:
127,375,217666,1,2,3:2:0:0:
127,375,217757,1,0,3:0:0:0:
127,375,217848,2,0,P|115:334|98:295,1,85,0|0,3:2|3:2,0:0:0:0:
37,147,218212,1,10,0:2:0:0:
138,209,218394,1,2,3:2:0:0:
157,36,218575,6,0,P|144:76|127:115,1,85,2|0,3:2|3:2,0:0:0:0:
214,284,218939,2,0,P|225:243|242:204,1,85,10|0,0:2|3:2,0:0:0:0:
323,77,219303,6,0,P|283:93|243:105,1,85,10|0,0:2|3:2,0:0:0:0:
58,237,219666,2,0,P|97:220|137:208,1,85,10|0,0:2|3:2,0:0:0:0:
280,343,220030,6,0,P|326:302|330:197,1,170,6|8,3:2|0:2,0:0:0:0:
403,105,220575,1,0,3:2:0:0:
403,105,220666,1,0,3:0:0:0:
403,105,220757,2,0,P|362:92|322:76,1,85,2|0,3:2|3:2,0:0:0:0:
193,0,221121,2,0,P|208:39|221:80,1,85,8|0,0:2|3:2,0:0:0:0:
150,225,221484,6,0,B|79:249|46:184|46:184|78:173|101:136,1,170,2|8,3:2|0:2,0:0:0:0:
132,80,222030,1,0,3:2:0:0:
0,14,222212,2,0,P|15:53|28:94,1,85,2|0,3:2|3:2,0:0:0:0:
0,193,222575,1,8,0:2:0:0:
185,164,222757,5,2,3:2:0:0:
70,279,222939,2,0,P|82:238|98:198,1,85,2|2,3:2|3:2,0:0:0:0:
139,352,223303,5,10,0:2:0:0:
253,235,223484,2,0,P|212:247|172:263,1,85,2|0,3:2|3:2,0:0:0:0:
323,384,223848,5,2,3:2:0:0:
354,231,224030,1,10,0:2:0:0:
242,338,224212,1,2,3:2:0:0:
422,373,224394,6,0,P|429:331|441:290,1,85,2|0,3:2|3:2,0:0:0:0:
512,190,224757,2,0,P|504:148|492:107,1,85,10|0,0:2|0:0,0:0:0:0:
375,28,225121,5,10,0:2:0:0:
370,43,225211,1,8,0:2:0:0:
362,57,225302,1,8,0:2:0:0:
352,69,225393,1,8,0:2:0:0:
339,78,225484,1,8,0:2:0:0:
324,84,225575,1,8,0:2:0:0:
309,87,225666,1,8,0:2:0:0:
293,86,225757,1,8,0:2:0:0:
277,81,225848,5,6,3:2:0:0:
256,192,226030,12,0,231666,0:0:0:0:
