osu file format v14

[General]
AudioFilename: audio.mp3
AudioLeadIn: 0
PreviewTime: 59939
Countdown: 0
SampleSet: Soft
StackLeniency: 0.7
Mode: 0
LetterboxInBreaks: 0
WidescreenStoryboard: 1

[Editor]
Bookmarks: 13484,25121,36757,48394,57121,60030,71666,83303,94939,100757,106575,118212,126939,129848,141484,153121,164757,176394,179303,202575,225848,231666
DistanceSpacing: 1.6
BeatDivisor: 4
GridSize: 32
TimelineZoom: 1

[Metadata]
Title:Sprinkles
TitleUnicode:チョコスプレー
Artist:Anzu Hana
ArtistUnicode:杏花
Creator:Shirahane Suou
Version:Hard
Source:推しのラブより恋のラブ
Tags:oshi no love yori koi no oshirabu video game visual novel eroge japanese pop jpop j-pop sukerasomero yuri 百合 ed ending choco souffle soufflé
BeatmapID:4107845
BeatmapSetID:1978624

[Difficulty]
HPDrainRate:4
CircleSize:3.7
OverallDifficulty:6
ApproachRate:7.5
SliderMultiplier:1.4
SliderTickRate:1

[Events]
//Background and Video events
0,0,"souffle.jpg",0,0
//Break Periods
//Storyboard Layer 0 (Background)
//Storyboard Layer 1 (Fail)
//Storyboard Layer 2 (Pass)
//Storyboard Layer 3 (Foreground)
//Storyboard Layer 4 (Overlay)
//Storyboard Sound Samples

[TimingPoints]
394,363.636363636364,4,2,1,40,1,0
394,-153.846153846153,4,2,1,40,0,0
12030,-125,4,2,1,60,0,0
13484,-111.111111111111,4,2,1,70,0,0
25121,-125,4,2,1,50,0,0
36757,-111.111111111111,4,2,1,60,0,0
48394,-125,4,2,1,60,0,0
60030,-100,4,2,1,80,0,1
71666,-111.111111111111,4,2,1,70,0,0
94939,-125,4,2,1,50,0,0
100757,-111.111111111111,4,2,1,60,0,0
129848,-100,4,2,1,80,0,1
141484,-111.111111111111,4,2,1,70,0,0
153121,-111.111111111111,4,2,1,80,0,0
164757,-111.111111111111,4,2,1,70,0,0
176394,-125,4,2,1,50,0,0
178030,-125,4,2,1,5,0,0
178212,-125,4,2,1,70,0,0
179303,-100,4,2,1,80,0,1
202575,-100,4,2,1,80,0,0
226121,-100,4,2,1,5,0,0

[Colours]
Combo1 : 130,221,255
Combo2 : 255,98,125
Combo3 : 255,145,186
Combo4 : 148,171,241

[HitObjects]
38,306,394,6,0,P|107:316|191:245,1,181.999991668702,2|2,0:2|0:2,0:0:0:0:
319,121,1848,2,0,P|360:117|401:147,1,90.9999958343508,2|0,0:2|0:0,0:0:0:0:
449,207,2394,2,0,L|423:313,1,90.9999958343508,2|0,0:2|0:0,0:0:0:0:
315,373,3303,5,2,0:2:0:0:
260,300,3666,1,0,0:0:0:0:
260,300,3848,2,0,P|272:260|305:212,1,90.9999958343508,2|0,0:2|0:0,0:0:0:0:
362,153,4575,2,0,P|331:95|147:99,1,272.999987503052,2|0,0:2|0:0,0:0:0:0:
13,13,6212,6,0,P|50:99|73:189,1,181.999991668702,2|2,0:2|0:2,0:0:0:0:
29,356,7666,2,0,P|63:331|114:331,1,90.9999958343508,2|0,0:2|0:0,0:0:0:0:
164,270,8212,2,0,P|202:286|228:331,1,90.9999958343508,2|0,0:2|0:0,0:0:0:0:
340,372,9121,2,0,P|325:284|284:183,1,181.999991668702,2|2,0:2|0:2,0:0:0:0:
134,105,10575,6,0,B|232:143|278:63|262:51|313:-45|424:17,1,318.499985420228,2|0,0:2|0:0,0:0:0:0:
478,45,12030,5,4,0:2:0:0:
366,99,12394,1,4,0:2:0:0:
445,199,12757,2,0,L|436:231,3,28,8|8|8|8,0:2|0:2|0:2|0:2,0:0:0:0:
459,255,13121,2,0,L|450:287,3,28,8|8|8|8,0:2|0:2|0:2|0:2,0:0:0:0:
435,319,13484,6,0,P|375:318|325:378,1,125.999996154785,6|8,3:2|0:2,0:0:0:0:
255,326,14030,1,10,0:2:0:0:
255,326,14212,2,0,L|125:358,1,125.999996154785,2|8,3:2|0:2,0:0:0:0:
55,383,14757,1,2,3:2:0:0:
8,315,14939,6,0,P|21:255|56:170,1,125.999996154785,2|8,3:2|0:2,0:0:0:0:
70,119,15484,1,10,0:2:0:0:
70,119,15666,2,0,P|35:108|-1:103,1,62.9999980773926,2|0,3:2|3:2,0:0:0:0:
23,22,16030,2,0,P|54:27|83:37,1,62.9999980773926,10|0,0:2|3:2,0:0:0:0:
156,75,16394,6,0,P|200:83|270:43,1,125.999996154785,2|8,3:2|0:2,0:0:0:0:
349,75,16939,1,8,0:2:0:0:
349,75,17121,2,0,L|365:9,1,62.9999980773926,0|0,3:2|3:2,0:0:0:0:
441,39,17484,2,0,L|426:100,1,62.9999980773926,8|0,0:2|3:2,0:0:0:0:
497,141,17848,6,0,P|443:136|380:184,1,125.999996154785,2|8,3:2|0:2,0:0:0:0:
302,169,18394,1,8,0:2:0:0:
302,169,18575,2,0,L|316:230,1,62.9999980773926,0|0,3:2|3:2,0:0:0:0:
369,293,18939,1,8,0:2:0:0:
240,376,19303,6,0,L|211:253,1,125.999996154785,6|8,3:2|0:2,0:0:0:0:
153,203,19848,1,10,0:2:0:0:
153,203,20030,2,0,L|178:73,1,125.999996154785,2|8,3:2|0:2,0:0:0:0:
234,20,20575,1,2,3:2:0:0:
290,79,20757,6,0,P|350:85|389:39,1,125.999996154785,2|8,3:2|0:2,0:0:0:0:
468,8,21303,1,10,0:2:0:0:
468,8,21484,2,0,P|481:36|488:67,1,62.9999980773926,2|0,3:2|3:2,0:0:0:0:
443,135,21848,2,0,P|429:163|422:194,1,62.9999980773926,10|0,0:2|3:2,0:0:0:0:
456,268,22212,6,0,P|392:286|328:322,1,125.999996154785,2|8,3:2|0:2,0:0:0:0:
258,302,22757,1,8,0:2:0:0:
258,302,22939,2,0,P|229:274|230:240,1,62.9999980773926,0|0,3:2|3:2,0:0:0:0:
189,179,23303,2,0,P|199:146|206:108,1,62.9999980773926,8|0,0:2|3:2,0:0:0:0:
247,48,23666,6,0,L|164:30,1,62.9999980773926,2|0,3:2|3:2,0:0:0:0:
107,0,24030,2,0,L|24:18,1,62.9999980773926,8|0,0:2|0:0,0:0:0:0:
9,87,24394,2,0,L|21:129,3,31.4999990386963,8|8|8|8,0:2|0:2|0:3|0:3,0:0:0:0:
52,138,24757,2,0,L|64:180,3,31.4999990386963,10|8|4|4,0:2|0:3|0:3|0:3,0:0:0:0:
38,198,25121,6,0,L|71:323,1,112,6|0,3:2|3:2,0:0:0:0:
129,365,25666,1,2,0:2:0:0:
129,365,25848,2,0,P|170:339|249:346,1,112,2|2,3:2|3:2,0:0:0:0:
303,300,26394,2,0,P|344:326|423:319,1,112,2|2,0:2|0:2,0:0:0:0:
441,197,27121,2,0,P|400:171|321:178,1,112,2|2,0:2|0:2,0:0:0:0:
271,213,27666,1,0,3:2:0:0:
136,157,28030,6,0,L|252:125,1,112,2|2,3:2|3:2,0:0:0:0:
267,50,28575,2,0,L|383:82,1,112,2|2,0:2|0:2,0:0:0:0:
443,199,29303,1,2,0:2:0:0:
443,199,29484,2,0,P|478:203|505:127,2,112,0|0|0,3:2|3:2|3:2,0:0:0:0:
318,168,30575,2,0,P|332:200|341:238,1,56,0|0,3:2|0:0,0:0:0:0:
399,290,30939,6,0,P|339:308|295:331,1,112,0|0,3:2|3:2,0:0:0:0:
227,366,31484,1,2,0:2:0:0:
227,366,31666,2,0,P|186:373|137:318,1,112,2|2,3:2|3:2,0:0:0:0:
82,270,32212,2,0,P|123:277|172:222,1,112,2|2,0:2|0:2,0:0:0:0:
259,118,32939,2,0,P|224:76|170:79,1,112,2|2,0:2|0:2,0:0:0:0:
109,126,33484,1,0,3:2:0:0:
261,215,33848,6,0,L|378:195,1,112,2|2,3:2|3:2,0:0:0:0:
447,214,34394,2,0,P|488:165|470:99,1,112,2|2,0:2|0:2,0:0:0:0:
442,51,34939,1,0,3:2:0:0:
298,78,35303,2,0,L|181:97,1,112,2|10,3:2|0:3,0:0:0:0:
112,79,35849,2,0,P|71:128|89:194,1,112,2|2,0:2|0:2,0:0:0:0:
34,242,36394,2,0,L|44:293,3,28,8|8|8|8,0:2|0:2|0:3|0:3,0:0:0:0:
47,309,36757,6,0,P|103:302|161:342,1,125.999996154785,4|8,3:2|0:2,0:0:0:0:
236,381,37303,1,2,3:2:0:0:
291,322,37484,1,2,0:2:0:0:
291,322,37666,2,0,L|356:338,1,62.9999980773926,2|8,3:2|0:2,0:0:0:0:
424,376,38030,6,0,P|461:356|461:267,1,125.999996154785,2|2,3:2|3:2,0:0:0:0:
489,199,38575,1,8,0:2:0:0:
489,199,38757,2,0,L|364:168,1,125.999996154785,2|2,3:2|3:2,0:0:0:0:
313,105,39303,1,8,0:2:0:0:
195,218,39666,6,0,P|144:229|78:175,1,125.999996154785,2|10,3:2|0:2,0:0:0:0:
6,166,40212,2,0,P|26:107|40:41,1,125.999996154785,2|2,3:2|3:2,0:0:0:0:
109,3,40757,2,0,P|138:13|171:20,1,62.9999980773926,8|2,0:2|3:2,0:0:0:0:
226,79,41121,6,0,P|267:48|355:68,1,125.999996154785,0|8,3:2|0:2,0:0:0:0:
407,10,41666,2,0,P|431:63|441:156,1,125.999996154785,0|0,3:2|3:2,0:0:0:0:
500,187,42212,1,8,0:2:0:0:
384,302,42575,6,0,B|312:295|337:345|248:332,1,125.999996154785,4|8,3:2|0:2,0:0:0:0:
194,294,43121,1,2,3:2:0:0:
135,351,43303,1,2,0:2:0:0:
135,351,43484,2,0,P|99:354|65:326,1,62.9999980773926,2|8,3:2|0:2,0:0:0:0:
21,280,43848,6,0,P|32:227|64:140,1,125.999996154785,2|2,3:2|3:2,0:0:0:0:
0,97,44394,1,8,0:2:0:0:
0,97,44575,2,0,P|38:111|113:55,1,125.999996154785,2|2,3:2|3:2,0:0:0:0:
173,22,45121,1,8,0:2:0:0:
277,147,45484,6,0,P|254:221|249:278,1,125.999996154785,2|10,3:2|0:2,0:0:0:0:
225,347,46030,2,0,P|250:318|342:312,1,125.999996154785,2|2,3:2|3:2,0:0:0:0:
399,355,46575,1,8,0:2:0:0:
459,299,46757,1,2,3:2:0:0:
459,299,46939,6,0,P|475:238|490:218,1,62.9999980773926,2|0,3:2|3:2,0:0:0:0:
444,162,47303,2,0,P|383:177|358:175,1,62.9999980773926,10|2,0:2|3:2,0:0:0:0:
322,232,47666,1,8,0:2:0:0:
322,232,47848,1,2,3:2:0:0:
258,179,48030,1,8,0:2:0:0:
258,179,48212,1,0,3:2:0:0:
308,88,48394,6,0,P|286:51|165:54,1,168,6|2,3:2|3:2,0:0:0:0:
95,19,49121,2,0,L|66:154,1,112,10|0,0:2|3:2,0:0:0:0:
14,180,49666,1,8,0:2:0:0:
49,249,49848,1,0,3:2:0:0:
209,228,50212,2,0,P|224:192|217:152,1,56,2|0,3:2|0:0,0:0:0:0:
152,133,50575,2,0,L|127:249,1,112,10|2,0:2|0:2,0:0:0:0:
32,352,51303,6,0,B|94:337|94:337|128:360|128:360|201:342,1,168,2|2,3:2|3:2,0:0:0:0:
266,323,52030,2,0,P|284:293|254:221,1,112,10|0,0:2|3:2,0:0:0:0:
201,172,52575,1,8,0:2:0:0:
235,100,52757,1,0,3:2:0:0:
372,149,53121,2,0,L|438:129,1,56,2|0,3:2|3:2,0:0:0:0:
474,72,53484,1,10,0:2:0:0:
474,72,53666,1,0,3:2:0:0:
403,34,53848,1,10,0:3:0:0:
269,93,54212,6,0,P|227:202|224:264,1,168,6|2,3:2|3:2,0:0:0:0:
291,292,54939,2,0,P|233:290|130:363,1,168,10|8,0:2|0:2,0:0:0:0:
66,375,55666,2,0,L|49:309,1,56,2|0,3:2|0:0,0:0:0:0:
0,261,56030,2,0,L|17:195,1,56,8|2,0:3|0:2,0:0:0:0:
74,152,56394,1,10,0:2:0:0:
25,87,56575,1,8,0:3:0:0:
77,28,56757,1,6,0:3:0:0:
77,28,56939,1,4,0:3:0:0:
150,65,57121,5,10,0:2:0:0:
226,30,57303,1,8,0:2:0:0:
382,90,57666,5,8,0:2:0:0:
306,125,57848,1,8,0:2:0:0:
310,208,58030,1,8,0:2:0:0:
453,296,58394,5,8,0:2:0:0:
449,213,58576,1,8,0:2:0:0:
119,373,60030,6,0,L|96:300,1,70,4|0,3:2|3:2,0:0:0:0:
123,218,60394,2,0,P|60:225|-2:167,2,140,10|2|10,0:2|3:2|0:2,0:0:0:0:
184,151,61303,1,0,3:2:0:0:
272,171,61484,6,0,P|294:208|295:246,1,70,2|0,3:2|3:2,0:0:0:0:
384,259,61848,2,0,P|362:296|330:316,1,70,10|0,0:2|3:2,0:0:0:0:
280,380,62212,1,2,3:2:0:0:
280,380,62394,1,0,3:2:0:0:
207,325,62575,2,0,L|187:231,1,70,10|0,0:2|3:2,0:0:0:0:
123,196,62939,6,0,P|77:232|-7:227,2,140,2|10|2,3:2|0:2|3:2,0:0:0:0:
165,115,63848,1,0,3:2:0:0:
251,143,64030,2,0,P|293:132|337:127,1,70,10|0,0:2|3:2,0:0:0:0:
409,114,64394,6,0,P|399:147|394:182,1,70,0|0,3:2|3:2,0:0:0:0:
335,252,64757,1,8,0:2:0:0:
335,252,64939,1,0,3:2:0:0:
416,303,65121,1,8,0:2:0:0:
416,303,65303,1,0,3:2:0:0:
361,376,65484,1,8,0:2:0:0:
361,376,65666,1,0,3:2:0:0:
253,331,65848,6,0,P|207:344|168:371,1,70,4|0,3:2|3:2,0:0:0:0:
121,292,66212,2,0,P|93:323|-15:323,2,140,10|2|10,0:2|3:2|0:2,0:0:0:0:
192,235,67121,1,0,3:2:0:0:
150,153,67303,6,0,P|157:106|172:77,1,70,2|0,3:2|3:2,0:0:0:0:
238,30,67666,2,0,P|270:42|305:46,1,70,10|0,0:2|3:2,0:0:0:0:
378,109,68030,1,2,3:2:0:0:
378,109,68212,1,0,3:2:0:0:
456,62,68394,2,0,P|493:72|505:124,1,70,10|0,0:2|3:2,0:0:0:0:
484,186,68757,6,0,P|504:252|511:322,2,140,2|10|2,3:2|0:2|3:2,0:0:0:0:
409,134,69666,1,0,3:2:0:0:
334,186,69848,6,0,B|284:172|284:172|271:140|271:140|199:115,1,140,10|0,0:2|3:2,0:0:0:0:
161,51,70394,1,0,3:2:0:0:
79,91,70575,2,0,P|65:129|79:170,1,70,10|0,0:2|0:0,0:0:0:0:
42,244,70939,2,0,L|88:256,3,35,10|8|8|8,0:2|0:2|0:2|0:2,0:0:0:0:
97,293,71303,2,0,L|143:305,3,35,10|8|8|8,0:2|0:2|0:2|0:2,0:0:0:0:
167,283,71666,6,0,P|201:317|280:307,1,125.999996154785,6|0,3:2|0:0,0:0:0:0:
343,356,72212,1,0,3:2:0:0:
391,289,72394,2,0,L|364:154,1,125.999996154785,10|0,0:2|3:2,0:0:0:0:
202,155,73121,2,0,P|171:161|143:175,1,62.9999980773926,2|0,0:2|3:2,0:0:0:0:
123,96,73484,2,0,P|150:81|181:75,1,62.9999980773926,2|2,3:2|0:2,0:0:0:0:
241,18,73848,1,8,0:2:0:0:
241,18,74030,2,0,P|273:57|353:48,1,125.999996154785,2|0,0:2|0:0,0:0:0:0:
428,7,74575,6,0,P|453:65|460:146,1,125.999996154785,2|2,3:2|0:2,0:0:0:0:
512,193,75121,1,2,3:2:0:0:
468,263,75303,1,8,0:2:0:0:
468,263,75484,2,0,P|409:290|346:353,1,125.999996154785,2|2,0:2|3:2,0:0:0:0:
294,375,76030,5,10,0:2:0:0:
241,311,76212,1,8,0:3:0:0:
164,339,76394,1,4,0:3:0:0:
109,262,76575,1,2,3:2:0:0:
209,132,76939,5,2,3:2:0:0:
141,85,77121,2,0,L|90:102,3,31.4999990386963,8|8|8|8,0:2|0:2|0:2|0:2,0:0:0:0:
73,79,77484,6,0,P|43:167|38:213,1,125.999996154785,6|0,3:2|0:0,0:0:0:0:
1,272,78030,1,0,3:2:0:0:
68,318,78212,2,0,L|206:288,1,125.999996154785,10|0,0:2|3:2,0:0:0:0:
287,158,78939,2,0,P|303:191|307:236,1,62.9999980773926,2|0,0:2|3:2,0:0:0:0:
378,257,79303,2,0,P|411:241|456:237,1,62.9999980773926,2|2,3:2|0:2,0:0:0:0:
492,176,79666,1,8,0:2:0:0:
492,176,79848,2,0,P|466:124|460:53,1,125.999996154785,2|0,0:2|0:0,0:0:0:0:
365,0,80394,6,0,P|338:40|258:42,1,125.999996154785,2|0,3:2|0:0,0:0:0:0:
186,21,80939,1,0,3:2:0:0:
173,101,81121,2,0,L|202:226,1,125.999996154785,10|0,0:2|3:2,0:0:0:0:
314,342,81848,6,0,P|329:301|344:277,1,62.9999980773926,10|0,0:2|3:2,0:0:0:0:
394,223,82212,2,0,P|379:182|364:158,1,62.9999980773926,8|0,0:2|3:2,0:0:0:0:
309,109,82575,1,10,0:2:0:0:
251,166,82757,1,8,0:3:0:0:
175,148,82939,1,4,0:3:0:0:
175,148,83121,1,4,0:3:0:0:
143,56,83303,6,0,P|198:26|259:11,1,125.999996154785,6|8,3:2|0:2,0:0:0:0:
344,8,83848,1,10,0:2:0:0:
344,8,84030,2,0,P|383:38|398:117,1,125.999996154785,2|8,3:2|0:2,0:0:0:0:
448,175,84575,1,2,3:2:0:0:
372,206,84757,6,0,P|323:201|254:259,1,125.999996154785,2|8,3:2|0:2,0:0:0:0:
195,201,85303,1,10,0:2:0:0:
195,201,85484,2,0,P|183:236|173:277,1,62.9999980773926,2|0,3:2|3:2,0:0:0:0:
138,332,85848,2,0,P|168:340|198:350,1,62.9999980773926,10|0,0:2|3:2,0:0:0:0:
267,384,86212,6,0,P|348:347|396:344,1,125.999996154785,2|8,3:2|0:2,0:0:0:0:
465,374,86757,1,8,0:2:0:0:
465,374,86939,2,0,P|478:332|494:308,1,62.9999980773926,0|0,3:2|3:2,0:0:0:0:
433,254,87303,2,0,P|420:212|404:188,1,62.9999980773926,8|0,0:2|3:2,0:0:0:0:
478,150,87666,6,0,P|428:155|357:90,1,125.999996154785,2|8,3:2|0:2,0:0:0:0:
294,75,88212,1,8,0:2:0:0:
294,75,88394,2,0,P|251:86|213:112,1,62.9999980773926,0|0,3:2|3:2,0:0:0:0:
184,159,88757,1,8,0:2:0:0:
73,37,89121,6,0,P|54:87|40:175,1,125.999996154785,6|8,3:2|0:2,0:0:0:0:
0,228,89666,1,10,0:2:0:0:
0,228,89848,2,0,P|37:278|112:262,1,125.999996154785,2|8,3:2|0:2,0:0:0:0:
170,241,90394,1,2,3:2:0:0:
225,300,90575,6,0,P|286:277|353:263,1,125.999996154785,2|8,3:2|0:2,0:0:0:0:
404,207,91121,1,10,0:2:0:0:
404,207,91303,2,0,P|401:167|381:139,1,62.9999980773926,2|0,3:2|3:2,0:0:0:0:
439,82,91666,2,0,P|404:64|369:68,1,62.9999980773926,10|0,0:2|3:2,0:0:0:0:
314,15,92030,6,0,P|267:50|273:128,1,125.999996154785,2|8,3:2|0:2,0:0:0:0:
230,188,92575,1,8,0:2:0:0:
230,188,92757,2,0,P|249:232|250:270,1,62.9999980773926,0|0,3:2|3:2,0:0:0:0:
307,306,93121,2,0,P|278:344|245:364,1,62.9999980773926,8|0,0:2|3:2,0:0:0:0:
188,376,93484,6,0,P|164:364|125:355,1,62.9999980773926,2|0,3:2|3:2,0:0:0:0:
61,307,93848,2,0,P|73:283|82:244,1,62.9999980773926,8|0,0:2|0:0,0:0:0:0:
141,191,94212,2,0,L|125:137,3,31.4999990386963,8|8|8|8,0:2|0:2|0:3|0:3,0:0:0:0:
103,131,94575,2,0,L|119:77,3,31.4999990386963,10|8|4|4,0:2|0:3|0:3|0:3,0:0:0:0:
99,61,94939,5,6,3:2:0:0:
220,5,95303,1,0,3:2:0:0:
316,101,95666,1,2,3:2:0:0:
433,54,96030,1,2,3:2:0:0:
512,159,96394,5,0,3:2:0:0:
463,286,96757,1,0,3:2:0:0:
336,256,97121,2,0,L|280:276,2,56,0|2|0,3:2|1:2|1:0,0:0:0:0:
410,154,97848,5,2,3:2:0:0:
343,39,98212,1,2,3:2:0:0:
216,14,98575,1,0,3:2:0:0:
114,90,98939,1,0,3:2:0:0:
180,230,99303,5,4,1:2:0:0:
15,373,99848,2,0,P|26:318|48:267,1,112,10|2,0:2|3:2,0:0:0:0:
17,193,100394,1,2,3:2:0:0:
17,193,100575,1,10,0:2:0:0:
96,125,100757,6,0,P|144:128|232:78,1,125.999996154785,6|8,3:2|0:2,0:0:0:0:
273,39,101303,1,2,0:2:0:0:
344,88,101484,1,2,3:2:0:0:
344,88,101666,2,0,L|323:161,1,62.9999980773926,0|10,0:0|0:2,0:0:0:0:
260,197,102030,6,0,L|297:326,1,125.999996154785,2|2,0:2|0:2,0:0:0:0:
356,372,102575,2,0,P|385:360|416:355,1,62.9999980773926,8|2,0:2|0:2,0:0:0:0:
473,296,102939,1,0,3:2:0:0:
413,239,103121,1,10,0:2:0:0:
449,165,103303,1,8,0:2:0:0:
349,34,103666,6,0,P|289:23|229:84,1,125.999996154785,2|10,3:2|0:2,0:0:0:0:
161,29,104212,2,0,P|132:108|129:170,1,125.999996154785,2|2,0:2|0:2,0:0:0:0:
180,212,104757,2,0,P|224:225|251:246,1,62.9999980773926,8|0,0:2|0:0,0:0:0:0:
306,187,105121,6,0,P|341:202|352:297,1,125.999996154785,10|10,0:2|0:2,0:0:0:0:
316,350,105666,2,0,P|278:360|244:376,1,62.9999980773926,10|8,0:3|0:2,0:0:0:0:
183,329,106030,1,10,0:3:0:0:
183,329,106212,1,0,3:2:0:0:
111,369,106394,1,8,0:3:0:0:
46,318,106575,6,0,P|61:257|93:185,1,125.999996154785,4|8,3:2|0:2,0:0:0:0:
160,165,107121,1,2,3:2:0:0:
139,90,107303,1,2,0:2:0:0:
139,90,107484,2,0,P|104:75|64:74,1,62.9999980773926,2|8,3:2|0:2,0:0:0:0:
45,4,107848,6,0,P|30:65|12:125,1,125.999996154785,2|2,3:2|3:2,0:0:0:0:
66,194,108394,1,8,0:2:0:0:
66,194,108575,2,0,P|47:254|33:315,1,125.999996154785,2|2,3:2|3:2,0:0:0:0:
85,378,109121,1,8,0:2:0:0:
224,293,109484,6,0,P|268:306|336:251,1,125.999996154785,2|10,3:2|0:2,0:0:0:0:
408,292,110030,2,0,P|420:230|440:170,1,125.999996154785,2|2,3:2|3:2,0:0:0:0:
502,116,110575,2,0,P|508:82|480:41,1,62.9999980773926,8|2,0:2|3:2,0:0:0:0:
431,6,110939,6,0,P|373:22|303:66,1,125.999996154785,0|8,3:2|0:2,0:0:0:0:
235,44,111484,2,0,P|282:87|298:154,1,125.999996154785,0|0,3:2|3:2,0:0:0:0:
255,215,112030,1,8,0:2:0:0:
387,311,112394,6,0,P|341:308|257:365,1,125.999996154785,4|8,3:2|0:2,0:0:0:0:
198,380,112939,1,2,3:2:0:0:
147,315,113121,1,2,0:2:0:0:
147,315,113303,2,0,L|73:296,1,62.9999980773926,2|8,3:2|0:2,0:0:0:0:
4,310,113666,6,0,P|4:265|42:179,1,125.999996154785,2|2,3:2|3:2,0:0:0:0:
33,111,114212,1,8,0:2:0:0:
33,111,114394,2,0,P|74:117|167:70,1,125.999996154785,2|2,3:2|3:2,0:0:0:0:
204,24,114939,1,8,0:2:0:0:
324,134,115303,6,0,P|343:176|356:258,1,125.999996154785,2|10,3:2|0:2,0:0:0:0:
298,312,115848,2,0,P|347:304|410:353,1,125.999996154785,2|2,3:2|3:2,0:0:0:0:
483,376,116394,2,0,P|499:339|522:300,1,62.9999980773926,8|0,0:2|3:2,0:0:0:0:
499,237,116757,6,0,P|469:213|421:217,1,62.9999980773926,2|0,3:2|3:2,0:0:0:0:
434,128,117121,2,0,P|398:141|377:185,1,62.9999980773926,10|2,0:2|3:2,0:0:0:0:
321,213,117484,1,8,0:2:0:0:
321,213,117666,1,2,3:2:0:0:
258,160,117848,1,8,0:2:0:0:
258,160,118030,1,0,3:2:0:0:
200,236,118212,6,0,P|154:246|89:196,1,125.999996154785,6|8,3:2|0:2,0:0:0:0:
20,163,118757,1,2,3:2:0:0:
20,163,118939,2,0,L|36:95,1,62.9999980773926,2|0,3:2|3:2,0:0:0:0:
90,40,119303,2,0,L|158:56,1,62.9999980773926,8|0,0:2|0:0,0:0:0:0:
199,120,119666,5,0,3:2:0:0:
319,9,120030,2,0,P|349:34|354:72,1,62.9999980773926,10|0,0:2|3:2,0:0:0:0:
432,85,120394,2,0,P|425:123|394:146,1,62.9999980773926,2|0,3:2|3:2,0:0:0:0:
421,221,120757,2,0,P|384:234|348:219,1,62.9999980773926,10|0,0:2|0:0,0:0:0:0:
293,183,121121,6,0,P|238:183|198:252,1,125.999996154785,2|8,3:2|0:2,0:0:0:0:
209,321,121666,1,2,3:2:0:0:
209,321,121848,2,0,P|251:332|274:353,1,62.9999980773926,2|0,3:2|3:2,0:0:0:0:
337,384,122212,2,0,P|379:373|402:352,1,62.9999980773926,8|0,0:2|0:0,0:0:0:0:
439,293,122575,5,0,3:2:0:0:
345,158,122939,2,0,P|355:108|370:83,1,62.9999980773926,10|0,0:2|3:2,0:0:0:0:
393,22,123303,2,0,P|363:10|332:6,1,62.9999980773926,2|0,3:2|3:2,0:0:0:0:
266,55,123666,2,0,P|234:58|205:70,1,62.9999980773926,10|0,0:2|0:0,0:0:0:0:
138,23,124030,6,0,P|99:17|22:71,1,125.999996154785,6|8,3:2|0:2,0:0:0:0:
4,141,124575,1,2,3:2:0:0:
4,141,124757,2,0,P|21:181|35:280,1,125.999996154785,2|8,3:2|0:2,0:0:0:0:
3,338,125303,1,2,0:2:0:0:
72,379,125484,6,0,L|205:344,1,125.999996154785,2|8,3:2|0:2,0:0:0:0:
239,277,126030,1,2,3:2:0:0:
309,318,126212,1,10,0:2:0:0:
379,276,126394,1,8,0:3:0:0:
371,194,126575,1,6,0:3:0:0:
371,194,126757,1,4,0:3:0:0:
306,143,126939,5,10,0:2:0:0:
338,62,127121,1,8,0:2:0:0:
192,137,127484,5,8,0:2:0:0:
224,218,127666,1,8,0:2:0:0:
169,285,127848,1,8,0:2:0:0:
7,256,128212,5,8,0:2:0:0:
62,189,128394,1,8,0:2:0:0:
336,364,129848,6,0,P|357:329|351:286,1,70,4|0,3:2|3:2,0:0:0:0:
289,238,130212,2,0,P|227:253|139:302,2,140,10|2|10,0:2|3:2|0:2,0:0:0:0:
337,160,131121,1,0,3:2:0:0:
283,86,131303,6,0,P|247:74|209:82,1,70,2|0,3:2|3:2,0:0:0:0:
135,37,131666,2,0,P|106:62|94:99,1,70,10|0,0:2|3:2,0:0:0:0:
37,162,132030,1,2,3:2:0:0:
37,162,132212,1,0,3:2:0:0:
119,201,132394,2,0,P|135:243|140:280,1,70,10|0,0:2|3:2,0:0:0:0:
217,314,132757,6,0,P|154:314|98:376,2,140,2|10|2,3:2|0:2|3:2,0:0:0:0:
300,350,133666,1,0,3:2:0:0:
354,276,133848,2,0,P|348:228|318:198,1,70,10|0,0:2|3:2,0:0:0:0:
258,162,134212,6,0,P|209:174|171:194,1,70,0|0,3:2|3:2,0:0:0:0:
130,250,134575,1,8,0:2:0:0:
130,250,134757,1,0,3:2:0:0:
54,208,134939,1,8,0:2:0:0:
54,208,135121,1,0,3:2:0:0:
70,121,135303,1,8,0:2:0:0:
70,121,135484,1,0,3:2:0:0:
163,64,135666,6,0,P|199:75|251:78,1,70,4|0,3:2|3:2,0:0:0:0:
316,112,136030,2,0,P|357:82|336:-15,2,140,10|2|10,0:2|3:2|0:2,0:0:0:0:
257,182,136939,1,0,3:2:0:0:
330,236,137121,6,0,P|316:269|305:310,1,70,2|0,3:2|3:2,0:0:0:0:
366,369,137484,2,0,P|399:355|440:344,1,70,10|0,0:2|3:2,0:0:0:0:
480,269,137848,1,2,3:2:0:0:
480,269,138030,1,0,3:2:0:0:
426,195,138212,2,0,P|416:151|434:127,1,70,10|0,0:2|3:2,0:0:0:0:
376,56,138575,6,0,P|421:88|507:85,2,140,2|10|2,3:2|0:2|3:2,0:0:0:0:
297,10,139484,1,0,3:2:0:0:
258,92,139666,6,0,L|296:236,1,140,10|0,0:2|3:2,0:0:0:0:
357,293,140212,1,0,3:2:0:0:
295,360,140394,2,0,P|237:376|218:392,1,70,10|0,0:2|0:0,0:0:0:0:
143,351,140757,2,0,L|130:307,3,35,10|8|8|8,0:2|0:2|0:2|0:2,0:0:0:0:
153,276,141121,2,0,L|140:232,3,35,10|8|8|8,0:2|0:2|0:2|0:2,0:0:0:0:
107,222,141484,6,0,P|77:198|82:109,1,125.999996154785,6|0,3:2|0:0,0:0:0:0:
15,60,142030,1,0,3:2:0:0:
80,10,142212,2,0,L|212:38,1,125.999996154785,10|0,0:2|3:2,0:0:0:0:
292,165,142939,2,0,P|325:163|360:137,1,62.9999980773926,2|0,0:2|3:2,0:0:0:0:
420,191,143303,2,0,P|434:161|429:118,1,62.9999980773926,2|2,3:2|0:2,0:0:0:0:
466,58,143666,1,8,0:2:0:0:
466,58,143848,2,0,P|398:45|326:26,1,125.999996154785,2|0,0:2|0:0,0:0:0:0:
265,1,144394,6,0,P|220:42|143:35,1,125.999996154785,2|2,3:2|0:2,0:0:0:0:
83,7,144939,1,2,3:2:0:0:
50,84,145121,1,8,0:2:0:0:
50,84,145303,2,0,P|64:137|69:237,1,125.999996154785,2|2,0:2|3:2,0:0:0:0:
46,286,145848,5,10,0:2:0:0:
122,315,146030,1,8,0:3:0:0:
190,270,146212,1,4,0:3:0:0:
194,173,146394,1,2,3:2:0:0:
50,84,146757,5,2,3:2:0:0:
115,35,146939,2,0,L|173:49,3,31.4999990386963,8|8|8|8,0:2|0:2|0:2|0:2,0:0:0:0:
172,73,147303,6,0,L|303:43,1,125.999996154785,6|0,3:2|0:0,0:0:0:0:
367,6,147848,1,0,3:2:0:0:
409,76,148030,2,0,B|395:123|395:123|405:149|405:149|388:213,1,125.999996154785,10|0,0:2|3:2,0:0:0:0:
281,317,148757,2,0,P|243:326|205:346,1,62.9999980773926,2|0,0:2|3:2,0:0:0:0:
147,373,149121,2,0,P|109:363|71:344,1,62.9999980773926,2|2,3:2|0:2,0:0:0:0:
46,282,149484,1,8,0:2:0:0:
46,282,149666,2,0,P|78:243|90:156,1,125.999996154785,2|0,0:2|0:0,0:0:0:0:
49,99,150212,6,0,L|199:64,1,125.999996154785,2|2,3:2|0:2,0:0:0:0:
325,8,150939,1,10,0:2:0:0:
325,8,151121,2,0,P|357:33|355:125,1,125.999996154785,2|2,0:2|3:2,0:0:0:0:
312,178,151666,6,0,P|273:189|246:210,1,62.9999980773926,4|2,0:2|3:2,0:0:0:0:
174,221,152030,2,0,P|190:247|198:278,1,62.9999980773926,8|2,0:2|3:2,0:0:0:0:
253,339,152394,1,10,0:2:0:0:
328,307,152575,1,8,0:3:0:0:
388,369,152757,1,4,0:3:0:0:
388,369,152939,1,4,0:3:0:0:
478,326,153121,6,0,P|497:289|496:184,1,125.999996154785,6|8,3:2|0:2,0:0:0:0:
384,108,153848,2,0,P|333:120|316:130,1,62.9999980773926,0|0,3:2|3:2,0:0:0:0:
276,192,154212,5,10,0:2:0:0:
276,192,154394,2,0,P|284:143|220:88,1,125.999996154785,2|0,3:2|3:2,0:0:0:0:
176,33,154939,2,0,P|141:44|117:59,1,62.9999980773926,10|0,0:2|3:2,0:0:0:0:
77,129,155303,2,0,P|111:140|136:155,1,62.9999980773926,2|0,3:2|3:2,0:0:0:0:
189,214,155666,2,0,P|173:241|164:271,1,62.9999980773926,10|0,0:2|3:2,0:0:0:0:
88,304,156030,6,0,P|60:288|30:279,2,62.9999980773926,2|2|10,3:2|3:2|0:2,0:0:0:0:
138,368,156575,2,0,P|192:376|244:327,1,125.999996154785,2|0,3:2|3:2,0:0:0:0:
310,284,157121,1,8,0:2:0:0:
269,212,157303,5,2,3:2:0:0:
269,212,157484,2,0,P|283:163|296:142,1,62.9999980773926,2|2,3:2|3:2,0:0:0:0:
339,87,157848,2,0,P|388:73|409:60,1,62.9999980773926,8|2,0:2|3:2,0:0:0:0:
480,96,158212,1,10,0:2:0:0:
480,96,158394,1,0,3:2:0:0:
456,173,158575,1,10,0:2:0:0:
503,239,158757,6,0,P|485:290|469:365,1,125.999996154785,2|2,3:2|3:2,0:0:0:0:
389,378,159303,2,0,P|369:341|376:309,1,62.9999980773926,8|2,0:2|3:2,0:0:0:0:
357,245,159666,1,0,3:2:0:0:
357,245,159848,2,0,P|320:225|288:232,1,62.9999980773926,2|10,3:2|0:2,0:0:0:0:
238,281,160212,6,0,P|176:283|122:227,1,125.999996154785,2|2,3:2|3:2,0:0:0:0:
59,200,160757,1,8,0:2:0:0:
94,125,160939,2,0,P|137:101|224:98,1,125.999996154785,2|2,3:2|3:2,0:0:0:0:
284,57,161484,2,0,P|317:76|323:110,1,62.9999980773926,8|0,0:2|3:2,0:0:0:0:
385,160,161848,5,0,3:2:0:0:
385,160,162030,2,0,P|352:176|326:199,1,62.9999980773926,2|8,3:2|0:2,0:0:0:0:
263,235,162394,1,2,3:2:0:0:
263,235,162576,2,0,P|282:259|295:288,1,62.9999980773926,2|0,3:2|3:2,0:0:0:0:
279,368,162939,1,8,0:2:0:0:
124,329,163303,5,2,3:2:0:0:
124,329,163484,1,2,3:2:0:0:
79,261,163666,1,10,0:2:0:0:
79,261,163848,1,2,0:2:0:0:
139,206,164030,2,0,L|155:155,3,31.4999990386963,10|10|10|10,0:2|0:2|0:2|0:2,0:0:0:0:
132,137,164394,2,0,L|148:86,3,31.4999990386963,10|10|10|10,0:2|0:2|0:2|0:2,0:0:0:0:
169,76,164757,6,0,P|234:67|283:114,1,125.999996154785,6|8,3:2|0:2,0:0:0:0:
434,53,165484,2,0,P|421:89|415:142,1,62.9999980773926,2|0,3:2|3:2,0:0:0:0:
363,176,165848,2,0,P|376:212|382:265,1,62.9999980773926,8|0,0:2|3:2,0:0:0:0:
377,318,166212,6,0,P|304:332|264:375,1,125.999996154785,2|10,3:2|0:2,0:0:0:0:
186,367,166757,2,0,P|158:331|160:300,1,62.9999980773926,2|0,3:2|3:2,0:0:0:0:
86,272,167121,1,2,3:2:0:0:
86,273,167303,2,0,P|116:239|147:235,1,62.9999980773926,8|0,0:2|3:2,0:0:0:0:
190,177,167666,6,0,P|247:211|315:190,1,125.999996154785,2|10,3:2|0:2,0:0:0:0:
378,230,168212,2,0,P|384:199|398:170,1,62.9999980773926,2|0,3:2|3:2,0:0:0:0:
457,114,168575,2,0,P|433:92|416:66,1,62.9999980773926,2|8,3:2|0:2,0:0:0:0:
355,19,168939,1,2,3:2:0:0:
297,76,169121,6,0,L|213:58,1,62.9999980773926,0|0,3:2|3:2,0:0:0:0:
168,14,169484,2,0,L|110:77,1,62.9999980773926,8|0,0:2|3:2,0:0:0:0:
59,107,169848,1,8,0:2:0:0:
59,107,170030,1,0,3:2:0:0:
118,170,170212,1,8,0:2:0:0:
118,170,170394,1,0,3:2:0:0:
38,227,170575,6,0,P|14:273|-1:364,1,125.999996154785,6|8,3:2|0:2,0:0:0:0:
166,384,171303,2,0,P|178:361|185:315,1,62.9999980773926,2|0,3:2|3:2,0:0:0:0:
241,265,171666,2,0,P|229:242|221:196,1,62.9999980773926,8|0,0:2|3:2,0:0:0:0:
157,153,172030,6,0,P|215:162|265:105,1,125.999996154785,2|10,3:2|0:2,0:0:0:0:
328,72,172575,2,0,P|353:82|397:91,1,62.9999980773926,2|0,3:2|3:2,0:0:0:0:
447,154,172939,1,2,3:2:0:0:
447,154,173121,2,0,P|433:192|429:240,1,62.9999980773926,8|0,0:2|3:2,0:0:0:0:
392,287,173484,6,0,P|343:277|278:331,1,125.999996154785,2|8,3:2|0:2,0:0:0:0:
214,362,174030,1,0,3:2:0:0:
165,295,174212,2,0,L|190:162,1,125.999996154785,2|8,3:2|0:2,0:0:0:0:
83,44,174939,6,0,L|71:105,1,62.9999980773926,2|0,3:2|3:2,0:0:0:0:
0,151,175303,1,8,0:0:0:0:
57,290,175666,2,0,L|109:305,3,31.4999990386963,10|8|8|8,0:2|0:2|0:2|0:2,0:0:0:0:
125,281,176030,2,0,L|177:296,3,31.4999990386963,8|8|8|8,0:2|0:2|0:2|0:2,0:0:0:0:
180,316,176394,6,0,B|263:364|384:335|443:233|396:112|396:112|377:177|314:197,1,504,2|0,3:2|0:0,0:0:0:0:
252,158,178212,6,0,P|210:168|168:199,2,84,8|8|8,0:2|0:3|0:2,0:0:0:0:
301,90,178939,1,8,0:2:0:0:
301,90,179121,1,8,0:2:0:0:
384,127,179303,6,0,P|403:168|408:210,1,70,4|0,3:2|3:2,0:0:0:0:
373,276,179666,2,0,P|402:242|499:251,2,140,10|2|10,0:2|3:2|0:2,0:0:0:0:
340,360,180575,1,0,3:2:0:0:
257,320,180757,6,0,P|209:328|180:346,1,70,2|0,3:2|3:2,0:0:0:0:
109,381,181121,2,0,P|61:373|32:355,1,70,10|0,0:2|3:2,0:0:0:0:
4,285,181484,1,2,3:2:0:0:
4,285,181666,1,0,3:2:0:0:
82,238,181848,2,0,P|96:206|99:171,1,70,10|0,0:2|3:2,0:0:0:0:
115,81,182212,6,0,P|59:84|6:10,2,140,2|10|2,3:2|0:2|3:2,0:0:0:0:
178,16,183121,1,0,3:2:0:0:
257,60,183303,2,0,P|289:46|323:38,1,70,10|0,0:2|3:2,0:0:0:0:
407,4,183666,6,0,P|433:38|431:80,1,70,0|0,3:2|3:2,0:0:0:0:
500,135,184030,1,8,0:2:0:0:
500,135,184212,1,0,3:2:0:0:
459,218,184394,1,8,0:2:0:0:
459,218,184575,1,0,3:2:0:0:
374,198,184757,1,8,0:2:0:0:
374,198,184939,1,0,3:2:0:0:
275,254,185121,6,0,P|241:242|207:236,1,70,4|0,3:2|3:2,0:0:0:0:
177,150,185484,2,0,P|202:102|208:3,2,140,10|2|10,0:2|3:2|0:2,0:0:0:0:
86,164,186394,1,0,3:2:0:0:
90,254,186575,6,0,P|131:272|164:261,1,70,2|0,3:2|3:2,0:0:0:0:
204,343,186939,2,0,P|240:316|247:282,1,70,10|0,0:2|3:2,0:0:0:0:
294,216,187303,1,2,3:2:0:0:
294,216,187484,1,0,3:2:0:0:
357,281,187666,2,0,P|411:302|426:314,1,70,10|0,0:2|3:2,0:0:0:0:
450,229,188030,6,0,L|487:371,2,140,2|10|2,3:2|0:2|3:2,0:0:0:0:
485,145,188939,1,0,3:2:0:0:
403,103,189121,6,0,P|377:139|283:141,1,140,10|0,0:2|3:2,0:0:0:0:
201,114,189666,1,0,3:2:0:0:
156,193,189848,2,0,L|184:285,1,70,10|0,0:2|0:0,0:0:0:0:
215,342,190212,2,0,L|259:351,3,35,10|8|8|8,0:2|0:2|0:2|0:2,0:0:0:0:
291,330,190575,2,0,L|335:339,3,35,10|8|8|8,0:2|0:2|0:2|0:2,0:0:0:0:
358,369,190939,6,0,L|391:224,1,140,6|8,3:2|0:2,0:0:0:0:
451,165,191484,1,0,3:2:0:0:
374,115,191666,2,0,L|297:144,1,70,2|0,3:2|0:0,0:0:0:0:
243,203,192030,2,0,L|166:174,1,70,8|0,0:2|0:0,0:0:0:0:
110,115,192394,6,0,P|58:131|48:216,1,140,2|10,3:2|0:2,0:0:0:0:
2,289,192939,2,0,L|96:317,1,70,2|0,2:0|3:2,0:0:0:0:
145,359,193303,2,0,L|173:265,1,70,2|8,2:0|0:2,0:0:0:0:
239,239,193666,1,8,0:2:0:0:
186,164,193848,6,0,P|198:107|282:98,1,140,2|10,3:2|0:2,0:0:0:0:
349,46,194394,2,0,L|429:67,1,70,2|0,3:2|3:2,0:0:0:0:
490,117,194757,1,2,2:0:0:0:
444,195,194939,2,0,L|465:275,1,70,8|2,0:2|2:0,0:0:0:0:
402,332,195303,5,10,0:2:0:0:
320,372,195484,1,8,0:3:0:0:
250,313,195666,1,4,0:3:0:0:
286,214,195848,1,2,3:2:0:0:
144,109,196212,5,2,3:2:0:0:
79,172,196394,2,0,L|90:220,3,35,8|8|8|8,0:2|0:2|0:2|0:2,0:0:0:0:
60,243,196757,6,0,P|105:237|155:320,1,140,6|8,3:2|0:2,0:0:0:0:
216,375,197303,1,0,3:2:0:0:
274,306,197484,2,0,L|360:327,1,70,2|0,3:2|0:0,0:0:0:0:
416,375,197848,2,0,P|454:373|488:338,1,70,8|0,0:2|0:0,0:0:0:0:
512,267,198212,6,0,L|482:121,1,140,2|10,3:2|0:2,0:0:0:0:
425,59,198757,2,0,P|384:67|363:97,1,70,2|0,2:0|3:2,0:0:0:0:
283,48,199121,2,0,P|269:87|284:120,1,70,2|8,2:0|0:2,0:0:0:0:
341,178,199484,1,8,0:2:0:0:
269,234,199666,6,0,L|126:209,1,140,2|8,3:2|0:2,0:0:0:0:
64,147,200212,1,0,3:2:0:0:
0,234,200394,2,0,L|12:302,1,70,2|0,3:2|0:0,0:0:0:0:
71,371,200757,2,0,P|108:371|143:347,1,70,8|0,0:2|0:0,0:0:0:0:
224,332,201121,6,0,L|236:279,3,35,10|8|8|8,0:2|0:2|0:3|0:3,0:0:0:0:
208,258,201484,2,0,L|220:205,3,35,8|8|0|0,0:2|0:2|3:2|3:2,0:0:0:0:
251,194,201848,2,0,B|328:231|381:160|381:160|347:146|326:105,1,210,10|4,0:3|0:3,0:0:0:0:
262,45,202575,6,0,P|289:4|386:23,1,140,6|8,3:2|0:2,0:0:0:0:
446,48,203121,1,0,3:2:0:0:
420,128,203303,2,0,L|440:199,1,70,2|0,3:2|3:2,0:0:0:0:
501,251,203666,2,0,L|481:322,1,70,8|0,0:2|3:2,0:0:0:0:
418,374,204030,6,0,P|377:337|279:348,1,140,2|8,3:2|0:2,0:0:0:0:
218,370,204575,1,0,3:2:0:0:
168,301,204757,2,0,B|181:251|181:251|166:218|166:218|182:152,1,140,2|8,3:2|0:2,0:0:0:0:
240,110,205303,1,2,3:2:0:0:
191,41,205484,5,2,3:2:0:0:
191,41,205666,2,0,L|119:66,1,70,2|8,3:2|0:2,0:0:0:0:
45,34,206030,2,0,P|4:65|10:158,1,140,0|0,3:2|3:2,0:0:0:0:
47,218,206575,2,0,L|31:300,1,70,10|0,0:2|3:2,0:0:0:0:
8,367,206939,6,0,P|43:331|143:334,1,140,2|8,3:2|0:2,0:0:0:0:
272,236,207666,1,10,0:2:0:0:
272,236,207848,1,0,3:2:0:0:
354,269,208030,1,10,0:2:0:0:
354,269,208212,1,0,3:2:0:0:
413,209,208394,6,0,P|423:166|358:85,1,140,6|8,3:2|0:2,0:0:0:0:
328,19,208939,1,0,3:2:0:0:
255,61,209121,2,0,P|235:104|234:155,1,70,2|0,3:2|3:2,0:0:0:0:
176,189,209484,2,0,P|196:232|197:283,1,70,8|0,0:2|3:2,0:0:0:0:
272,295,209848,6,0,P|204:288|156:336,1,140,2|8,3:2|0:2,0:0:0:0:
83,378,210394,1,0,3:2:0:0:
41,305,210575,2,0,L|66:163,1,140,2|8,3:2|0:2,0:0:0:0:
117,100,211121,1,0,3:2:0:0:
188,143,211303,1,0,3:2:0:0:
248,85,211484,5,2,3:2:0:0:
248,85,211666,2,0,L|338:109,1,70,10|2,0:2|3:2,0:0:0:0:
364,172,212030,2,0,P|348:211|329:325,1,140,2|10,3:2|0:2,0:0:0:0:
378,375,212575,1,0,3:2:0:0:
455,342,212757,6,0,P|463:322|472:265,1,70,2|2,3:2|3:2,0:0:0:0:
511,202,213121,1,10,0:2:0:0:
450,143,213303,1,2,2:0:0:0:
496,73,213484,2,0,L|482:25,3,35,8|8|8|8,0:2|0:2|0:2|0:2,0:0:0:0:
458,7,213848,2,0,L|410:21,3,35,10|8|8|8,0:2|0:2|0:2|0:2,0:0:0:0:
396,48,214212,6,0,P|351:65|269:31,1,140,6|8,3:2|0:2,0:0:0:0:
199,77,214757,1,0,3:2:0:0:
138,18,214939,2,0,L|62:40,1,70,2|0,3:2|3:2,0:0:0:0:
18,104,215303,2,0,L|40:180,1,70,8|0,0:2|3:2,0:0:0:0:
98,229,215666,6,0,P|155:220|225:270,1,140,2|8,3:2|0:2,0:0:0:0:
264,335,216212,1,0,3:2:0:0:
342,305,216394,2,0,P|382:250|376:181,1,140,2|8,3:2|0:2,0:0:0:0:
309,130,216939,1,0,3:2:0:0:
236,172,217121,6,0,L|89:146,1,140,2|8,3:2|0:2,0:0:0:0:
21,114,217666,2,0,P|18:70|36:40,1,70,2|0,3:2|3:2,0:0:0:0:
99,1,218030,1,0,3:2:0:0:
170,45,218212,2,0,P|215:42|246:17,1,70,10|2,0:2|3:2,0:0:0:0:
314,1,218575,6,0,L|337:74,1,70,2|0,3:2|3:2,0:0:0:0:
425,62,218939,2,0,L|402:135,1,70,10|0,0:2|3:2,0:0:0:0:
298,178,219303,2,0,L|321:251,1,70,10|0,0:2|3:2,0:0:0:0:
409,239,219667,2,0,L|386:312,1,70,10|0,0:2|3:2,0:0:0:0:
294,378,220030,6,0,P|263:338|171:334,1,140,6|8,3:2|0:2,0:0:0:0:
103,368,220575,1,0,3:2:0:0:
54,299,220757,2,0,L|71:211,1,70,2|0,3:2|3:2,0:0:0:0:
125,169,221121,2,0,P|162:170|197:134,1,70,8|0,0:2|3:2,0:0:0:0:
234,81,221484,6,0,P|183:36|116:46,1,140,2|8,3:2|0:2,0:0:0:0:
42,5,222030,1,0,3:2:0:0:
1,78,222212,2,0,L|33:237,1,140,2|8,3:2|0:2,0:0:0:0:
7,296,222757,5,2,3:2:0:0:
80,336,222939,2,0,B|128:319|128:319|151:290|151:290|206:271,1,140,2|10,3:2|0:2,0:0:0:0:
287,301,223484,2,0,P|327:298|362:261,1,70,2|0,3:2|3:2,0:0:0:0:
408,219,223848,1,2,3:2:0:0:
364,146,224030,1,10,0:2:0:0:
412,77,224212,1,2,3:2:0:0:
352,17,224394,6,0,L|275:41,1,70,2|0,3:2|3:2,0:0:0:0:
201,38,224757,2,0,L|225:115,1,70,10|0,0:2|0:0,0:0:0:0:
271,173,225121,2,0,L|259:222,3,35,10|8|8|8,0:2|0:2|0:2|0:2,0:0:0:0:
228,231,225484,2,0,L|216:280,3,35,8|8|8|8,0:2|0:2|0:2|0:2,0:0:0:0:
232,305,225848,5,6,3:2:0:0:
256,192,226030,12,0,231666,0:0:0:0:
