osu file format v14

[General]
AudioFilename: audio.mp3
AudioLeadIn: 0
PreviewTime: 59939
Countdown: 0
SampleSet: Soft
StackLeniency: 0.7
Mode: 0
LetterboxInBreaks: 0
WidescreenStoryboard: 1

[Editor]
Bookmarks: 13484,25121,36757,48394,57121,60030,71666,83303,94939,100757,106575,118212,126939,129848,141484,153121,164757,176394,179303,202575,225848,231666
DistanceSpacing: 1.6
BeatDivisor: 4
GridSize: 32
TimelineZoom: 1

[Metadata]
Title:Sprinkles
TitleUnicode:チョコスプレー
Artist:Anzu Hana
ArtistUnicode:杏花
Creator:Shirahane Suou
Version:Expert
Source:推しのラブより恋のラブ
Tags:oshi no love yori koi no oshirabu video game visual novel eroge japanese pop jpop j-pop sukerasomero yuri 百合 ed ending choco souffle soufflé
BeatmapID:4107844
BeatmapSetID:1978624

[Difficulty]
HPDrainRate:5.5
CircleSize:4.2
OverallDifficulty:8.5
ApproachRate:9.2
SliderMultiplier:2
SliderTickRate:1

[Events]
//Background and Video events
0,0,"souffle.jpg",0,0
//Break Periods
//Storyboard Layer 0 (Background)
//Storyboard Layer 1 (Fail)
//Storyboard Layer 2 (Pass)
//Storyboard Layer 3 (Foreground)
//Storyboard Layer 4 (Overlay)
//Storyboard Sound Samples

[TimingPoints]
394,363.636363636364,4,2,1,40,1,0
394,-250,4,2,1,40,0,0
10575,-333.333333333333,4,2,1,40,0,0
11939,-333.333333333333,4,2,1,5,0,0
12030,-333.333333333333,4,2,1,60,0,0
13484,-111.111111111111,4,2,1,70,0,0
25121,-142.857142857143,4,2,1,50,0,0
36757,-125,4,2,1,60,0,0
48394,-181.818181818182,4,2,1,60,0,0
55666,-133.333333333334,4,2,1,60,0,0
60030,-90.9090909090909,4,2,1,80,0,1
71666,-142.857142857143,4,2,1,70,0,0
83303,-111.111111111111,4,2,1,70,0,0
94939,-181.818181818182,4,2,1,50,0,0
100757,-142.857142857143,4,2,1,60,0,0
106575,-125,4,2,1,60,0,0
129848,-90.9090909090909,4,2,1,80,0,1
141484,-142.857142857143,4,2,1,70,0,0
153121,-111.111111111111,4,2,1,80,0,0
163303,-111.111111111111,4,2,1,80,0,1
164757,-100,4,2,1,70,0,0
176394,-333.333333333333,4,2,1,50,0,0
178121,-333.333333333333,4,2,1,5,0,0
178212,-100,4,2,1,70,0,0
179303,-83.3333333333333,4,2,1,80,0,1
190939,-90.9090909090909,4,2,1,80,0,1
202575,-100,4,2,1,80,0,0
226121,-100,4,2,1,5,0,0

[Colours]
Combo1 : 130,221,255
Combo2 : 255,98,125
Combo3 : 255,145,186
Combo4 : 148,171,241

[HitObjects]
383,74,394,6,0,P|370:114|363:168,1,80,2|0,0:2|0:0,0:0:0:0:
302,293,1121,2,0,P|295:253|282:215,1,80,2|0,0:2|0:0,0:0:0:0:
170,97,1848,2,0,P|192:117|247:115,1,80,2|0,0:2|0:0,0:0:0:0:
265,26,2394,2,0,P|242:37|218:42,1,40,2|0,0:2|0:0,0:0:0:0:
105,146,2757,2,0,P|82:135|58:130,1,40,0|0,0:0|0:0,0:0:0:0:
214,314,3303,6,0,P|235:288|234:231,1,80,2|0,0:2|0:0,0:0:0:0:
197,142,3848,2,0,P|188:167|195:187,1,40,2|0,0:2|0:0,0:0:0:0:
129,230,4212,2,0,P|146:250|167:253,1,40,0|0,0:0|0:0,0:0:0:0:
239,243,4575,1,2,0:2:0:0:
139,353,4757,2,0,P|175:336|214:326,1,80,0|0,0:0|0:0,0:0:0:0:
280,169,5484,2,0,P|318:178|355:195,1,80,0|0,0:0|0:0,0:0:0:0:
386,347,6212,6,0,P|362:335|342:276,1,80,2|0,0:2|0:0,0:0:0:0:
458,198,6939,2,0,P|460:224|419:271,1,80,2|0,0:2|0:0,0:0:0:0:
298,384,7666,2,0,P|261:368|221:363,1,80,2|0,0:2|0:0,0:0:0:0:
96,256,8212,2,0,P|78:265|59:270,1,40,2|0,0:2|0:0,0:0:0:0:
141,356,8575,2,0,P|146:336|155:319,1,40,0|0,0:0|0:0,0:0:0:0:
85,115,9121,6,0,P|73:154|54:191,1,80,2|0,0:2|0:0,0:0:0:0:
230,281,9848,2,0,P|212:245|200:206,1,80,2|0,0:2|0:0,0:0:0:0:
112,301,10575,6,0,P|222:320|329:356,1,224.999993133545,2|0,0:2|0:0,0:0:0:0:
401,384,12030,5,4,0:2:0:0:
507,232,12394,5,4,0:2:0:0:
305,115,12757,5,8,0:2:0:0:
285,120,12847,1,8,0:2:0:0:
269,132,12938,1,8,0:2:0:0:
259,150,13029,1,8,0:2:0:0:
258,170,13120,1,8,0:2:0:0:
265,189,13211,1,8,0:2:0:0:
279,204,13302,1,8,0:2:0:0:
298,212,13393,1,8,0:2:0:0:
319,211,13484,6,0,P|338:123|367:38,1,179.999994506836,6|8,3:2|0:2,0:0:0:0:
184,106,14030,1,10,0:2:0:0:
184,106,14121,1,8,0:2:0:0:
184,106,14212,2,0,P|140:96|97:82,1,89.9999972534181,2|0,3:2|3:2,0:0:0:0:
204,213,14575,1,8,0:2:0:0:
276,38,14757,1,2,3:2:0:0:
455,236,14939,6,0,P|464:192|479:149,1,89.9999972534181,2|0,3:2|3:2,0:0:0:0:
311,264,15303,1,8,0:2:0:0:
289,144,15484,1,10,0:2:0:0:
289,144,15575,1,8,0:2:0:0:
289,144,15666,2,0,P|331:158|375:168,1,89.9999972534181,2|0,3:2|3:2,0:0:0:0:
210,320,16030,2,0,P|167:305|123:295,1,89.9999972534181,10|0,0:2|3:2,0:0:0:0:
128,52,16394,6,0,B|183:85|183:85|200:150|134:224,1,179.999994506836,2|8,3:2|0:2,0:0:0:0:
44,366,16939,1,8,0:2:0:0:
44,366,17030,1,8,0:2:0:0:
44,366,17121,2,0,P|33:322|19:279,1,89.9999972534181,0|0,3:2|3:2,0:0:0:0:
86,137,17484,2,0,P|43:151|0:161,1,89.9999972534181,8|0,0:2|3:2,0:0:0:0:
236,251,17848,6,0,P|264:207|243:150,1,89.9999972534181,2|0,3:2|3:2,0:0:0:0:
98,47,18212,1,8,0:2:0:0:
217,11,18394,1,8,0:2:0:0:
217,11,18484,1,8,0:2:0:0:
217,11,18575,2,0,P|202:53|192:97,1,89.9999972534181,0|0,3:2|3:2,0:0:0:0:
359,222,18939,1,8,0:2:0:0:
309,73,19121,1,0,3:2:0:0:
99,177,19303,6,0,B|149:188|203:213|203:213|224:193|268:165,1,179.999994506836,6|8,3:2|0:2,0:0:0:0:
441,60,19848,1,10,0:2:0:0:
441,60,19939,1,8,0:2:0:0:
441,60,20030,2,0,P|422:100|413:144,1,89.9999972534181,2|0,3:2|3:2,0:0:0:0:
293,272,20394,1,8,0:2:0:0:
322,108,20575,1,2,3:2:0:0:
472,228,20757,6,0,P|442:250|382:242,1,89.9999972534181,2|0,3:2|3:2,0:0:0:0:
212,339,21121,1,8,0:2:0:0:
319,358,21303,1,10,0:2:0:0:
319,358,21394,1,8,0:2:0:0:
319,358,21484,2,0,P|308:314|293:271,1,89.9999972534181,2|0,3:2|3:2,0:0:0:0:
118,199,21848,2,0,P|159:234|202:229,1,89.9999972534181,10|0,0:2|3:2,0:0:0:0:
366,89,22212,6,0,P|278:110|192:136,1,179.999994506836,2|8,3:2|0:2,0:0:0:0:
76,308,22757,1,8,0:2:0:0:
76,308,22848,1,8,0:2:0:0:
76,308,22939,2,0,P|119:318|162:331,1,89.9999972534181,0|0,3:2|3:2,0:0:0:0:
280,210,23303,1,8,0:2:0:0:
194,246,23484,1,0,3:2:0:0:
380,225,23666,5,2,3:2:0:0:
192,136,23848,1,0,3:2:0:0:
279,317,24030,2,0,P|345:330|409:350,1,134.999995880127,8|0,0:2|0:0,0:0:0:0:
478,301,24394,5,8,0:2:0:0:
491,270,24484,1,8,0:2:0:0:
487,237,24575,1,8,0:3:0:0:
467,210,24666,1,8,0:3:0:0:
437,197,24757,1,10,0:2:0:0:
407,198,24848,1,8,0:3:0:0:
390,208,24939,1,4,0:3:0:0:
383,217,25030,1,4,0:3:0:0:
380,225,25121,1,6,3:2:0:0:
220,137,25484,5,0,3:2:0:0:
300,77,25666,1,2,0:2:0:0:
300,77,25848,2,0,P|303:111|312:145,1,69.9999978637696,2|0,3:2|0:0,0:0:0:0:
258,223,26212,1,2,3:2:0:0:
414,254,26394,6,0,P|383:237|349:231,1,69.9999978637696,2|0,0:2|3:2,0:0:0:0:
348,323,26757,2,0,P|313:323|280:336,1,69.9999978637696,2|0,0:2|3:2,0:0:0:0:
172,198,27121,2,0,P|142:215|120:242,1,69.9999978637696,2|0,0:2|3:2,0:0:0:0:
209,279,27484,2,0,P|192:309|186:343,1,69.9999978637696,2|0,0:2|3:2,0:0:0:0:
274,217,27848,5,0,0:2:0:0:
274,217,27939,1,0,0:2:0:0:
274,217,28030,2,0,L|240:55,1,139.999995727539,2|2,3:2|3:2,0:0:0:0:
181,18,28575,2,0,P|149:44|109:45,1,69.9999978637696,2|0,0:2|3:2,0:0:0:0:
95,139,28939,2,0,P|56:124|35:90,1,69.9999978637696,2|0,0:2|3:2,0:3:0:0:
37,15,29303,1,2,0:2:0:0:
184,129,29484,5,0,3:2:0:0:
130,249,29848,1,0,3:2:0:0:
266,313,30212,5,0,3:2:0:0:
224,225,30394,1,0,0:0:0:0:
354,271,30575,1,0,3:2:0:0:
312,183,30757,1,0,0:0:0:0:
312,183,30848,1,0,0:0:0:0:
312,183,30939,1,0,3:2:0:0:
451,273,31303,5,0,3:2:0:0:
351,365,31484,1,2,0:2:0:0:
351,365,31666,2,0,P|385:372|417:384,1,69.9999978637696,2|0,3:2|0:0,0:0:0:0:
496,350,32030,1,2,3:2:0:0:
354,271,32212,6,0,P|321:283|287:290,1,69.9999978637696,2|0,0:2|3:2,0:0:0:0:
246,380,32575,2,0,P|218:358|195:332,1,69.9999978637696,2|0,0:2|3:2,0:0:0:0:
57,190,32940,2,0,P|89:177|123:170,1,69.9999978637696,2|0,0:2|3:2,0:0:0:0:
97,340,33303,2,0,P|102:305|113:272,1,69.9999978637696,2|0,0:2|3:2,0:0:0:0:
166,85,33666,5,0,0:2:0:0:
166,85,33757,1,0,0:2:0:0:
166,85,33848,2,0,P|214:132|210:200,1,139.999995727539,2|2,3:2|3:2,0:0:0:0:
271,278,34394,2,0,P|305:285|337:297,1,69.9999978637696,2|0,0:2|3:2,0:0:0:0:
415,240,34757,2,0,P|425:273|431:307,1,69.9999978637696,2|0,0:2|3:2,0:0:0:0:
380,381,35121,1,0,0:0:0:0:
330,196,35303,6,0,L|356:63,1,104.999996795654,2|0,3:2|0:0,0:0:0:0:
341,83,35666,1,10,0:3:0:0:
432,149,35848,1,2,0:2:0:0:
274,18,36030,5,0,3:2:0:0:
267,11,36121,2,0,L|222:26,1,34.9999989318848,0|2,0:0|0:2,0:0:0:0:
89,139,36303,5,8,0:2:0:0:
105,168,36393,1,8,0:2:0:0:
137,182,36484,1,8,0:2:0:0:
170,173,36575,1,8,0:3:0:0:
174,165,36666,1,8,0:3:0:0:
177,155,36757,6,0,P|153:64|136:-28,1,160,4|8,3:2|0:2,0:0:0:0:
266,114,37303,1,2,3:2:0:0:
163,270,37484,1,2,0:2:0:0:
329,231,37666,2,0,P|289:223|251:212,1,80,2|8,3:2|0:2,0:0:0:0:
137,367,38030,6,0,P|175:356|214:348,1,80,2|0,3:2|3:2,0:0:0:0:
95,194,38394,2,0,P|134:186|172:175,1,80,2|8,3:2|0:2,0:0:0:0:
7,306,38757,2,0,L|181:266,1,160,2|2,3:2|3:2,0:0:0:0:
236,109,39303,2,0,P|199:82|157:88,1,80,8|0,0:2|3:2,0:0:0:0:
258,270,39666,6,0,P|266:231|280:191,1,80,2|0,3:2|3:2,0:0:0:0:
432,35,40030,1,10,0:2:0:0:
490,152,40212,2,0,P|413:127|335:111,1,160,2|2,3:2|3:2,0:0:0:0:
283,39,40757,1,8,0:2:0:0:
401,216,40939,5,2,3:2:0:0:
401,216,41030,1,2,0:0:0:0:
401,216,41121,2,0,P|387:253|379:292,1,80,2|0,3:2|3:2,0:0:0:0:
208,164,41484,1,8,0:2:0:0:
164,250,41666,2,0,P|240:258|294:202,1,160,0|0,3:2|3:2,0:0:0:0:
179,354,42212,1,8,0:2:0:0:
88,186,42394,5,2,3:2:0:0:
88,186,42484,1,2,0:0:0:0:
88,186,42575,2,0,B|74:212|52:238|52:238|75:276|104:351,1,160,6|8,3:2|0:2,0:0:0:0:
179,160,43121,1,2,3:2:0:0:
28,113,43303,1,2,0:2:0:0:
142,17,43484,2,0,P|126:53|116:92,1,80,2|8,3:2|0:2,0:0:0:0:
261,134,43848,6,0,P|247:97|213:78,1,80,2|0,3:2|3:2,0:0:0:0:
158,246,44212,2,0,P|196:252|229:232,1,80,2|8,3:2|0:2,0:0:0:0:
364,138,44575,2,0,P|333:212|309:288,1,160,2|2,3:2|3:2,0:0:0:0:
427,384,45121,2,0,P|414:345|399:308,1,80,8|0,0:2|3:2,0:0:0:0:
232,357,45484,6,0,P|271:370|308:385,1,80,2|0,3:2|3:2,0:0:0:0:
435,221,45848,1,10,0:2:0:0:
366,138,46030,2,0,P|340:214|309:288,1,160,2|2,3:2|3:2,0:0:0:0:
399,308,46575,1,8,0:2:0:0:
261,172,46757,5,2,3:2:0:0:
261,172,46848,1,2,0:0:0:0:
261,172,46939,2,0,P|248:134|232:96,1,80,2|0,3:2|3:2,0:0:0:0:
464,125,47303,5,10,0:2:0:0:
309,287,47484,1,2,3:2:0:0:
274,14,47666,5,8,0:2:0:0:
406,200,47848,1,2,3:2:0:0:
163,253,48030,5,8,0:2:0:0:
350,108,48212,1,0,3:2:0:0:
178,5,48394,6,0,P|199:55|216:107,1,110.000003356934,6|0,3:2|0:0,0:0:0:0:
270,182,48939,1,2,3:2:0:0:
137,358,49121,2,0,P|187:336|239:319,1,110.000003356934,10|0,0:2|3:2,0:0:0:0:
320,268,49666,1,8,0:2:0:0:
177,186,49848,1,0,3:2:0:0:
177,186,50212,2,0,P|159:211|147:243,1,55.0000016784668,2|0,3:2|0:0,0:0:0:0:
0,200,50575,2,0,P|16:222|27:247,1,55.0000016784668,10|0,0:2|0:0,0:0:0:0:
72,106,50939,2,0,L|84:180,1,55.0000016784668,2|0,0:2|0:0,0:0:0:0:
39,341,51303,6,0,P|88:319|159:324,1,110.000003356934,2|0,3:2|0:0,0:0:0:0:
217,373,51848,1,2,3:2:0:0:
147,221,52030,2,0,P|197:240|243:293,1,110.000003356934,10|0,0:2|3:2,0:0:0:0:
305,218,52575,1,8,0:2:0:0:
324,384,52757,1,0,3:2:0:0:
324,384,53121,2,0,P|306:344|306:316,1,55.0000016784668,2|0,3:2|3:2,0:0:0:0:
398,241,53484,1,10,0:2:0:0:
226,187,53666,1,0,3:2:0:0:
396,336,53848,1,10,0:3:0:0:
396,336,54212,6,0,P|449:348|500:370,1,110.000003356934,6|0,3:2|0:0,0:0:0:0:
398,241,54757,1,2,3:2:0:0:
284,364,54939,2,0,P|247:328|267:264,1,110.000003356934,10|0,0:2|3:2,0:0:0:0:
314,205,55484,1,8,0:2:0:0:
198,117,55666,6,0,P|215:150|225:186,1,75.0000028610231,2|0,3:2|0:0,0:0:0:0:
368,38,56030,2,0,P|347:69|321:96,1,75.0000028610231,8|2,0:3|0:2,0:0:0:0:
296,110,56303,1,8,0:2:0:0:
296,110,56394,1,10,0:2:0:0:
479,195,56575,1,8,0:3:0:0:
315,311,56757,1,6,0:3:0:0:
363,206,56939,1,4,0:3:0:0:
426,384,57121,5,10,0:2:0:0:
178,306,57303,1,8,0:2:0:0:
258,57,57666,5,8,0:2:0:0:
315,311,57848,1,8,0:2:0:0:
67,233,58030,1,8,0:2:0:0:
121,52,58393,5,8,0:2:0:0:
178,306,58575,1,8,0:2:0:0:
512,203,60030,5,4,3:2:0:0:
512,203,60212,1,0,3:2:0:0:
364,301,60394,2,0,P|312:280|258:271,1,110.000003356934,10|0,0:2|3:2,0:0:0:0:
325,63,60757,2,0,P|333:117|352:168,1,110.000003356934,2|0,3:2|3:2,0:0:0:0:
165,364,61121,2,0,P|156:309|137:258,1,110.000003356934,10|0,0:2|3:2,0:0:0:0:
10,13,61484,5,2,3:2:0:0:
229,131,61666,1,0,3:2:0:0:
0,214,61848,5,10,0:2:0:0:
127,53,62030,1,0,3:2:0:0:
243,254,62212,5,2,3:2:0:0:
111,160,62394,1,0,3:2:0:0:
89,344,62575,5,10,0:2:0:0:
138,259,62757,1,0,3:2:0:0:
373,344,62939,6,0,P|319:355|269:378,1,110.000003356934,2|0,3:2|3:2,0:0:0:0:
397,157,63303,2,0,P|433:195|433:249,1,110.000003356934,10|0,0:2|3:2,0:0:0:0:
201,105,63666,6,0,P|223:54|235:1,1,110.000003356934,2|0,3:2|3:2,0:3:0:0:
325,237,64030,2,0,P|271:237|232:200,1,110.000003356934,10|0,0:2|3:2,0:0:0:0:
123,30,64394,5,0,3:2:0:0:
123,30,64575,1,0,3:2:0:0:
317,124,64757,5,8,0:2:0:0:
147,276,64939,1,0,3:2:0:0:
449,272,65121,5,8,0:2:0:0:
232,200,65303,1,0,3:2:0:0:
510,83,65484,5,8,0:2:0:0:
340,235,65666,1,0,3:2:0:0:
294,12,65848,5,4,3:2:0:0:
294,12,66030,1,0,3:2:0:0:
418,162,66212,2,0,P|427:103|385:54,1,110.000003356934,10|0,0:2|3:2,0:0:0:0:
232,200,66575,2,0,P|253:250|270:302,1,110.000003356934,2|0,3:2|3:2,0:0:0:0:
468,384,66939,2,0,P|485:331|506:281,1,110.000003356934,10|0,0:2|3:2,0:0:0:0:
276,105,67302,5,2,3:2:0:0:
385,318,67484,1,0,3:2:0:0:
160,297,67666,5,10,0:2:0:0:
328,211,67848,1,0,3:2:0:0:
155,66,68030,5,2,3:2:0:0:
217,210,68212,1,0,3:2:0:0:
36,202,68394,5,10,0:2:0:0:
120,158,68576,1,0,3:2:0:0:
385,318,68757,6,0,P|331:329|281:352,1,110.000003356934,2|0,3:2|3:2,0:0:0:0:
412,119,69121,2,0,P|423:172|445:223,1,110.000003356934,10|0,0:2|3:2,0:0:0:0:
230,88,69484,6,0,P|266:49|319:54,1,110.000003356934,2|0,3:2|3:2,0:0:0:0:
157,279,69848,2,0,P|105:266|82:218,1,110.000003356934,10|0,0:2|3:2,0:0:0:0:
348,183,70212,5,0,3:2:0:0:
204,364,70394,1,0,3:2:0:0:
459,326,70575,2,0,P|405:311|353:293,1,110.000003356934,10|0,0:2|0:0,0:0:0:0:
164,123,70939,5,10,0:2:0:0:
201,139,71029,1,8,0:2:0:0:
241,134,71120,1,8,0:2:0:0:
273,108,71211,1,8,0:2:0:0:
288,70,71302,1,10,0:2:0:0:
302,31,71393,1,8,0:2:0:0:
334,6,71484,1,8,0:2:0:0:
374,1,71575,1,8,0:2:0:0:
412,17,71666,6,0,P|437:82|444:151,1,139.999995727539,6|0,3:2|0:0,0:0:0:0:
340,319,72212,1,0,3:2:0:0:
490,260,72394,2,0,P|425:235|356:228,1,139.999995727539,10|0,0:2|3:2,0:0:0:0:
283,165,72939,1,0,3:2:0:0:
182,340,73121,6,0,P|213:325|247:317,1,69.9999978637696,2|0,0:2|3:2,0:0:0:0:
157,253,73484,2,0,P|188:238|222:230,1,69.9999978637696,2|2,3:2|0:2,0:0:0:0:
0,338,73848,1,8,0:2:0:0:
93,365,74030,2,0,P|77:296|47:233,1,139.999995727539,2|0,0:2|0:0,0:0:0:0:
0,96,74575,6,0,P|28:133|123:131,1,139.999995727539,2|2,3:2|0:2,0:0:0:0:
202,109,75121,1,2,3:2:0:0:
48,234,75303,1,8,0:2:0:0:
90,42,75484,2,0,P|158:29|225:7,1,139.999995727539,2|2,0:2|3:2,0:0:0:0:
319,0,76030,5,10,0:2:0:0:
277,170,76212,1,8,0:3:0:0:
446,121,76394,1,4,0:3:0:0:
347,97,76575,5,2,3:2:0:0:
347,97,76939,1,2,3:2:0:0:
240,289,77121,1,8,0:2:0:0:
265,296,77211,1,8,0:2:0:0:
290,304,77302,1,8,0:2:0:0:
315,312,77393,1,8,0:2:0:0:
340,319,77484,6,0,P|364:258|373:162,1,139.999995727539,6|0,3:2|0:0,0:0:0:0:
303,36,78030,1,0,3:2:0:0:
512,60,78212,2,0,P|451:84|355:93,1,139.999995727539,10|0,0:2|3:2,0:0:0:0:
293,138,78757,1,0,3:2:0:0:
156,8,78939,6,0,P|210:47|205:114,1,139.999995727539,2|2,0:2|3:2,0:0:0:0:
133,183,79484,1,2,0:2:0:0:
294,280,79666,1,8,0:2:0:0:
193,337,79848,2,0,P|204:268|225:201,1,139.999995727539,2|0,0:2|0:0,0:0:0:0:
421,125,80394,6,0,P|392:175|307:180,1,139.999995727539,2|0,3:2|0:0,0:0:0:0:
193,337,80939,1,0,3:2:0:0:
309,348,81121,2,0,P|298:314|293:278,1,69.9999978637696,10|0,0:2|0:0,0:0:0:0:
125,188,81484,2,0,P|135:221|140:257,1,69.9999978637696,0|0,3:2|3:2,0:0:0:0:
195,100,81848,5,10,0:2:0:0:
22,234,82030,1,0,3:2:0:0:
193,337,82212,5,8,0:2:0:0:
40,126,82394,1,0,3:2:0:0:
28,123,82484,1,0,3:2:0:0:
17,120,82575,1,10,0:2:0:0:
76,321,82757,5,8,0:3:0:0:
140,256,82939,1,4,0:3:0:0:
116,167,83121,1,4,0:3:0:0:
232,263,83303,6,0,P|301:276|408:313,1,179.999994506836,6|8,3:2|0:2,0:0:0:0:
512,185,83848,1,10,0:2:0:0:
512,185,83939,1,8,0:2:0:0:
512,185,84030,2,0,P|469:200|425:209,1,89.9999972534181,2|0,3:2|3:2,0:0:0:0:
307,373,84394,1,8,0:2:0:0:
496,295,84575,1,2,3:2:0:0:
351,145,84757,6,0,P|335:187|326:231,1,89.9999972534181,2|0,3:2|3:2,0:3:0:0:
448,111,85121,1,8,0:2:0:0:
362,47,85303,1,10,0:2:0:0:
362,47,85394,1,8,0:2:0:0:
362,47,85484,2,0,P|319:62|275:71,1,89.9999972534181,2|0,3:2|3:2,0:3:0:0:
154,248,85848,2,0,P|198:257|240:272,1,89.9999972534181,10|0,0:2|3:2,0:3:0:0:
181,19,86212,6,0,P|166:104|227:166,1,179.999994506836,2|8,3:2|0:2,0:0:0:0:
346,300,86757,1,8,0:2:0:0:
346,300,86848,1,8,0:2:0:0:
346,300,86939,2,0,P|336:255|321:213,1,89.9999972534181,0|0,3:2|3:2,0:3:0:0:
362,47,87303,2,0,P|319:62|275:71,1,89.9999972534181,8|0,0:2|3:2,0:3:0:0:
154,296,87666,6,0,P|196:280|240:271,1,89.9999972534181,2|0,3:2|3:2,0:3:0:0:
90,180,88030,1,8,0:2:0:0:
148,112,88212,1,8,0:2:0:0:
148,112,88303,1,8,0:2:0:0:
148,112,88394,2,0,P|178:143|178:187,1,89.9999972534181,0|0,3:2|3:2,0:0:0:0:
130,384,88757,1,8,0:2:0:0:
63,273,88939,1,0,3:2:0:0:
247,371,89121,6,0,P|271:284|300:199,1,179.999994506836,6|8,3:2|0:2,0:0:0:0:
455,313,89666,1,10,0:2:0:0:
455,313,89757,1,8,0:2:0:0:
455,313,89848,2,0,P|416:344|362:330,1,89.9999972534181,2|0,3:2|3:2,0:0:0:0:
327,114,90212,1,8,0:2:0:0:
488,217,90394,1,2,3:2:0:0:
383,241,90575,6,0,P|395:197|409:155,1,89.9999972534181,2|0,3:2|3:2,0:0:0:0:
324,20,90939,1,8,0:2:0:0:
494,34,91121,1,10,0:2:0:0:
494,34,91212,1,8,0:2:0:0:
494,34,91303,2,0,P|451:48|408:60,1,89.9999972534181,2|0,3:2|3:2,0:0:0:0:
268,183,91666,2,0,P|240:149|245:105,1,89.9999972534181,10|0,0:2|3:2,0:0:0:0:
510,140,92030,6,0,P|480:225|456:311,1,179.999994506836,2|8,3:2|0:2,0:0:0:0:
278,282,92575,1,8,0:2:0:0:
278,282,92666,1,8,0:2:0:0:
278,282,92757,2,0,P|321:269|363:255,1,89.9999972534181,0|0,3:2|3:2,0:0:0:0:
197,361,93121,2,0,P|184:317|170:275,1,89.9999972534181,8|0,0:2|3:2,0:0:0:0:
45,105,93484,5,2,3:2:0:0:
227,193,93666,1,0,3:2:0:0:
56,326,93848,2,0,P|76:252|100:180,1,134.999995880127,8|0,0:2|0:0,0:0:0:0:
150,137,94212,5,8,0:2:0:0:
168,109,94302,1,8,0:2:0:0:
197,92,94393,1,8,0:3:0:0:
230,89,94484,1,8,0:3:0:0:
262,101,94575,1,10,0:2:0:0:
279,118,94666,1,8,0:3:0:0:
294,121,94757,1,4,0:3:0:0:
305,116,94848,1,4,0:3:0:0:
310,108,94939,6,0,P|303:64|284:33,1,55.0000016784668,6|0,3:2|0:0,0:0:0:0:
388,89,95303,2,0,P|381:45|362:14,1,55.0000016784668,0|2,3:2|0:2,0:0:0:0:
435,161,95666,2,0,P|426:187|424:215,1,55.0000016784668,2|0,3:2|0:0,0:0:0:0:
512,180,96030,2,0,P|503:206|501:234,1,55.0000016784668,2|2,3:2|0:2,0:0:0:0:
305,384,96394,6,0,P|330:365|365:369,1,55.0000016784668,0|2,3:2|0:2,0:0:0:0:
382,286,96757,2,0,P|410:298|424:330,1,55.0000016784668,0|2,3:2|0:2,0:3:0:0:
298,288,97121,1,0,3:2:0:0:
424,214,97303,1,2,1:2:0:0:
297,142,97484,1,0,1:0:0:0:
297,142,97848,6,0,P|312:173|313:208,1,55.0000016784668,2|0,3:2|0:0,0:0:0:0:
237,221,98212,2,0,P|222:190|221:155,1,55.0000016784668,2|2,3:2|0:2,0:0:0:0:
150,108,98575,2,0,P|165:77|166:42,1,55.0000016784668,0|2,3:2|0:2,0:0:0:0:
90,29,98939,2,0,P|75:60|74:95,1,55.0000016784668,0|2,3:2|0:2,0:0:0:0:
216,254,99303,5,4,1:2:0:0:
50,168,99848,5,10,0:2:0:0:
216,254,100030,1,2,0:2:0:0:
61,354,100212,1,2,3:2:0:0:
159,162,100394,5,2,3:2:0:0:
1,264,100575,1,10,0:2:0:0:
167,349,100757,6,0,P|235:362|301:384,1,139.999995727539,6|8,3:2|0:2,0:0:0:0:
378,244,101303,1,2,0:2:0:0:
453,313,101484,2,0,P|418:320|386:332,1,69.9999978637696,2|0,3:2|0:2,0:0:0:0:
306,185,101847,1,10,0:2:0:0:
290,283,102030,1,2,0:2:0:0:
458,136,102212,6,0,P|424:147|390:153,1,69.9999978637696,0|2,3:2|0:2,0:0:0:0:
187,178,102575,2,0,P|198:144|204:110,1,69.9999978637696,8|2,0:2|0:2,0:0:0:0:
252,255,102939,1,0,3:2:0:0:
112,122,103121,1,10,0:2:0:0:
295,71,103303,2,0,P|297:123|307:174,1,104.999996795654,8|0,0:2|0:0,0:0:0:0:
324,189,103666,6,0,P|391:182|440:229,1,139.999995727539,2|10,3:2|0:2,0:0:0:0:
341,344,104212,2,0,P|349:310|362:277,1,69.9999978637696,2|0,0:2|3:2,0:0:0:0:
231,186,104575,2,0,P|244:218|252:252,1,69.9999978637696,2|8,0:2|0:2,0:0:0:0:
244,358,104939,1,0,0:0:0:0:
338,188,105121,5,10,0:2:0:0:
155,259,105303,1,0,3:2:0:0:
280,98,105484,5,10,0:2:0:0:
362,277,105666,1,10,0:3:0:0:
357,292,105757,1,8,0:3:0:0:
353,306,105848,1,8,0:2:0:0:
143,160,106030,5,10,0:3:0:0:
148,145,106121,1,8,0:3:0:0:
152,131,106212,1,0,3:2:0:0:
231,186,106394,1,8,0:3:0:0:
30,312,106575,6,0,P|61:262|162:264,1,160,4|8,3:2|0:2,0:0:0:0:
272,384,107121,1,2,3:2:0:0:
247,287,107303,1,2,0:2:0:0:
115,342,107484,2,0,P|154:349|191:363,1,80,2|8,3:2|0:2,0:0:0:0:
488,375,107848,6,0,P|515:339|497:285,1,80,2|0,3:2|3:2,0:0:0:0:
357,245,108212,2,0,P|329:280|347:334,1,80,2|8,3:2|0:2,0:0:0:0:
399,384,108575,2,0,P|422:307|453:233,1,160,2|2,3:2|3:2,0:0:0:0:
485,85,109121,2,0,P|500:121|512:160,1,80,8|0,0:2|3:2,0:0:0:0:
332,313,109484,6,0,P|295:297|256:285,1,80,2|0,3:2|3:2,0:0:0:0:
115,148,109848,1,10,0:2:0:0:
66,261,110030,2,0,P|144:228|225:203,1,160,2|2,3:2|3:2,0:0:0:0:
306,204,110575,1,8,0:2:0:0:
230,45,110757,5,2,3:2:0:0:
230,45,110848,1,2,0:0:0:0:
230,45,110939,2,0,P|214:81|202:120,1,80,2|0,3:2|3:2,0:0:0:0:
53,8,111303,1,8,0:2:0:0:
0,82,111484,2,0,P|75:94|133:42,1,160,0|0,3:2|3:2,0:0:0:0:
203,120,112030,1,8,0:2:0:0:
377,12,112212,5,2,3:2:0:0:
377,12,112303,1,2,0:0:0:0:
377,12,112394,2,0,B|327:4|282:-9|282:-9|267:18|234:47,1,160,6|8,3:2|0:2,0:0:0:0:
418,115,112939,1,2,3:2:0:0:
277,243,113121,1,2,0:2:0:0:
318,94,113303,2,0,P|330:132|337:171,1,80,2|8,3:2|0:2,0:0:0:0:
450,384,113666,6,0,P|411:371|372:364,1,80,2|0,3:2|3:2,0:3:0:0:
496,221,114030,2,0,P|456:213|418:201,1,80,2|8,3:2|0:2,0:3:0:0:
238,329,114394,2,0,B|326:338|301:258|396:282,1,160,2|2,3:2|3:2,0:0:0:0:
267,162,114939,2,0,P|255:200|247:239,1,80,8|0,0:2|3:2,0:0:0:0:
164,384,115303,6,0,P|155:344|144:306,1,80,2|0,3:2|3:2,0:0:0:0:
45,155,115666,1,10,0:2:0:0:
0,239,115848,2,0,P|53:248|135:178,1,160,2|2,3:2|3:2,0:0:0:0:
203,128,116394,1,8,0:2:0:0:
97,22,116575,5,2,3:2:0:0:
97,22,116666,1,2,0:0:0:0:
97,22,116757,2,0,P|109:59|117:99,1,80,2|0,3:2|3:2,0:0:0:0:
216,221,117121,5,10,0:2:0:0:
24,96,117303,1,2,3:2:0:0:
291,112,117484,5,8,0:2:0:0:
86,215,117666,1,2,3:2:0:0:
206,32,117848,5,8,0:2:0:0:
397,158,118030,1,0,3:2:0:0:
261,374,118212,6,0,P|243:296|216:220,1,160,6|8,3:2|0:2,0:0:0:0:
82,116,118757,1,2,3:2:0:0:
205,31,118939,2,0,P|191:69|183:108,1,80,2|0,3:2|3:2,0:0:0:0:
285,286,119303,2,0,P|313:258|314:219,1,80,8|0,0:2|0:0,0:0:0:0:
407,34,119666,6,0,P|361:76|297:66,1,120,0|0,3:2|0:0,0:0:0:0:
298,60,120030,2,0,P|289:98|275:136,1,80,10|0,0:2|3:2,0:0:0:0:
125,206,120394,2,0,P|164:198|202:187,1,80,2|0,3:2|3:2,0:0:0:0:
370,277,120757,2,0,P|340:249|314:219,1,80,10|0,0:2|0:0,0:0:0:0:
82,116,121121,6,0,P|28:165|35:253,1,160,2|8,3:2|0:2,0:0:0:0:
191,284,121666,1,2,3:2:0:0:
77,383,121848,2,0,P|86:345|100:307,1,80,2|0,3:2|3:2,0:0:0:0:
202,186,122212,2,0,P|164:197|125:206,1,80,8|0,0:2|0:0,0:0:0:0:
192,384,122575,6,0,P|259:364|328:350,1,120,0|0,3:2|0:0,0:0:0:0:
324,362,122939,2,0,P|348:324|342:280,1,80,10|0,0:2|3:2,0:0:0:0:
203,187,123303,2,0,P|223:226|265:243,1,80,2|0,3:2|3:2,0:0:0:0:
415,169,123666,2,0,P|370:167|334:194,1,80,10|0,0:2|0:0,0:0:0:0:
173,304,124030,6,0,P|95:282|17:266,1,160,6|8,3:2|0:2,0:0:0:0:
144,132,124575,1,2,3:2:0:0:
81,48,124757,2,0,B|67:88|40:134|40:134|59:157|87:213,1,160,2|8,3:2|0:2,0:0:0:0:
88,318,125303,1,2,0:2:0:0:
214,219,125484,6,0,P|257:234|349:153,1,160,2|8,3:2|0:2,0:0:0:0:
262,140,126030,1,2,3:2:0:0:
247,365,126212,5,10,0:2:0:0:
139,182,126394,1,8,0:3:0:0:
170,326,126575,5,6,0:3:0:0:
214,219,126757,1,4,0:3:0:0:
312,284,126939,5,10,0:2:0:0:
72,368,127121,1,8,0:2:0:0:
212,52,127484,5,8,0:2:0:0:
405,217,127666,1,8,0:2:0:0:
165,301,127848,1,8,0:2:0:0:
359,35,128212,5,8,0:2:0:0:
312,279,128394,1,8,0:2:0:0:
196,68,129848,5,4,3:2:0:0:
196,68,130030,1,0,3:2:0:0:
160,272,130212,2,0,P|134:223|104:177,1,110.000003356934,10|0,0:2|3:2,0:0:0:0:
300,248,130575,2,0,P|307:193|320:140,1,110.000003356934,2|0,3:2|3:2,0:0:0:0:
194,379,130939,2,0,P|240:350|294:353,1,110.000003356934,10|0,0:2|3:2,0:0:0:0:
438,92,131303,5,2,3:2:0:0:
202,189,131484,1,0,3:2:0:0:
483,265,131666,5,10,0:2:0:0:
320,140,131847,1,0,3:2:0:0:
380,363,132030,5,2,3:2:0:0:
401,202,132211,1,0,3:2:0:0:
253,311,132394,5,10,0:2:0:0:
340,276,132575,1,0,3:2:0:0:
235,89,132757,6,0,P|169:77|108:46,1,110.000003356934,2|0,3:2|3:2,0:0:0:0:
59,266,133121,2,0,P|126:250|141:195,1,110.000003356934,10|0,0:2|3:2,0:0:0:0:
0,27,133484,6,0,P|26:74|41:127,1,110.000003356934,2|0,3:2|3:2,0:0:0:0:
253,311,133848,2,0,P|267:258|294:210,1,110.000003356934,10|0,0:2|3:2,0:0:0:0:
453,10,134212,5,0,3:2:0:0:
453,10,134394,1,0,3:2:0:0:
249,113,134575,5,8,0:2:0:0:
481,204,134757,1,0,3:2:0:0:
197,248,134939,5,8,0:2:0:0:
391,92,135121,1,0,3:2:0:0:
287,360,135303,5,8,0:2:0:0:
249,114,135485,1,0,3:2:0:0:
430,338,135666,5,4,3:2:0:0:
430,338,135848,1,0,3:2:0:0:
197,248,136030,2,0,P|253:234|330:203,1,110.000003356934,10|0,0:2|3:2,0:0:0:0:
98,333,136394,2,0,P|147:356|194:384,1,110.000003356934,2|0,3:2|3:2,0:0:0:0:
63,201,136757,2,0,P|104:165|142:124,1,110.000003356934,10|0,0:2|3:2,0:0:0:0:
422,96,137121,5,2,3:2:0:0:
174,21,137303,1,0,3:2:0:0:
345,260,137484,5,10,0:2:0:0:
297,58,137666,1,0,3:2:0:0:
205,270,137848,5,2,3:2:0:0:
321,159,138030,1,0,3:2:0:0:
347,384,138212,5,10,0:2:0:0:
276,327,138394,1,0,3:2:0:0:
480,191,138575,6,0,P|456:244|436:330,1,110.000003356934,2|0,3:2|3:2,0:0:0:0:
241,96,138939,2,0,P|345:64|367:85,1,110.000003356934,10|0,0:2|3:2,0:0:0:0:
168,349,139303,6,0,P|115:324|29:305,1,110.000003356934,2|0,3:2|3:2,0:0:0:0:
38,40,139666,2,0,P|22:92|0:142,1,110.000003356934,10|0,0:2|3:2,0:0:0:0:
271,268,140030,5,0,3:2:0:0:
153,40,140212,1,0,3:2:0:0:
0,250,140394,2,0,P|48:222|102:211,1,110.000003356934,10|0,0:2|0:0,0:0:0:0:
339,338,140757,5,10,0:2:0:0:
302,357,140847,1,8,0:2:0:0:
262,361,140938,1,8,0:2:0:0:
223,348,141029,1,8,0:2:0:0:
192,321,141120,1,10,0:2:0:0:
174,285,141211,1,8,0:2:0:0:
172,244,141302,1,8,0:2:0:0:
186,205,141393,1,8,0:2:0:0:
214,175,141484,6,0,P|229:106|240:37,1,139.999995727539,6|0,3:2|0:0,0:0:0:0:
121,141,142030,1,0,3:2:0:0:
271,268,142212,2,0,P|339:252|408:241,1,139.999995727539,10|0,0:2|3:2,0:0:0:0:
482,191,142757,1,0,3:2:0:0:
325,56,142939,6,0,P|317:90|311:124,1,69.9999978637696,2|0,0:2|3:2,0:0:0:0:
411,71,143303,2,0,P|403:105|397:139,1,69.9999978637696,2|2,3:2|0:2,0:0:0:0:
213,275,143666,1,8,0:2:0:0:
293,316,143848,2,0,P|305:249|263:196,1,139.999995727539,2|0,0:2|0:0,0:0:0:0:
57,151,144394,6,0,P|108:195|175:185,1,139.999995727539,2|2,3:2|0:2,0:0:0:0:
239,33,144939,1,2,3:2:0:0:
138,100,145121,1,8,0:2:0:0:
263,196,145303,2,0,P|248:145|237:123,1,69.9999978637696,2|0,0:2|3:2,0:0:0:0:
150,15,145666,1,2,3:2:0:0:
328,82,145848,5,10,0:2:0:0:
176,185,146030,1,8,0:3:0:0:
342,266,146212,1,4,0:3:0:0:
190,369,146394,5,2,3:2:0:0:
190,369,146757,1,2,3:2:0:0:
73,206,146939,1,8,0:2:0:0:
61,229,147029,1,8,0:2:0:0:
53,254,147120,1,8,0:2:0:0:
49,280,147211,1,8,0:2:0:0:
47,306,147303,6,0,P|114:288|189:279,1,139.999995727539,6|0,3:2|0:0,0:0:0:0:
250,136,147848,1,0,3:2:0:0:
399,252,148030,2,0,P|329:242|261:225,1,139.999995727539,10|0,0:2|3:2,0:0:0:0:
176,188,148575,1,0,3:2:0:0:
289,55,148757,6,0,P|320:75|329:128,1,69.9999978637696,2|0,0:2|3:2,0:0:0:0:
422,100,149121,2,0,P|420:137|378:171,1,69.9999978637696,2|2,3:2|0:2,0:0:0:0:
266,304,149484,1,8,0:2:0:0:
357,326,149666,2,0,P|340:257|314:192,1,139.999995727539,2|0,0:2|0:0,0:0:0:0:
105,121,150212,6,0,P|74:151|-2:138,1,104.999996795654,2|0,3:2|0:0,0:0:0:0:
4,136,150575,2,0,P|16:103|25:69,1,69.9999978637696,2|0,0:2|3:2,0:0:0:0:
176,188,150939,1,10,0:2:0:0:
121,297,151121,2,0,P|112:263|99:230,1,69.9999978637696,2|0,0:2|3:2,0:0:0:0:
202,99,151484,6,0,P|234:111|268:120,1,69.9999978637696,2|4,3:2|0:2,0:0:0:0:
280,293,151848,2,0,P|247:280|213:271,1,69.9999978637696,2|8,3:2|0:2,0:0:0:0:
339,199,152212,5,2,3:2:0:0:
343,209,152303,1,8,0:2:0:0:
347,219,152394,1,10,0:2:0:0:
236,384,152575,1,8,0:3:0:0:
232,374,152666,1,8,0:3:0:0:
228,364,152757,1,4,0:3:0:0:
169,200,152939,1,4,0:3:0:0:
368,332,153121,6,0,P|409:310|458:302,1,89.9999972534181,6|0,3:2|3:2,0:0:0:0:
352,90,153484,2,0,P|310:111|261:119,1,89.9999972534181,8|0,0:2|3:2,0:0:0:0:
177,310,153848,2,0,P|135:288|86:280,1,89.9999972534181,0|0,3:2|3:2,0:0:0:0:
188,67,154212,5,10,0:2:0:0:
0,129,154394,2,0,P|65:185|154:167,1,179.999994506836,2|0,3:2|3:2,0:0:0:0:
64,8,154939,2,0,P|80:49|91:93,1,89.9999972534181,10|0,0:2|3:2,0:0:0:0:
241,233,155303,2,0,P|251:189|268:147,1,89.9999972534181,2|0,3:2|3:2,0:0:0:0:
120,366,155666,2,0,P|109:322|92:280,1,89.9999972534181,10|0,0:2|3:2,0:0:0:0:
358,224,156030,5,2,3:2:0:0:
200,330,156212,1,2,3:2:0:0:
268,147,156394,1,10,0:2:0:0:
446,305,156575,2,0,B|394:315|341:341|341:341|316:315|263:282,1,179.999994506836,2|0,3:2|3:2,0:0:0:0:
207,230,157121,1,8,0:2:0:0:
339,15,157303,5,2,3:2:0:0:
168,136,157484,1,2,3:2:0:0:
358,224,157666,1,2,3:2:0:0:
289,124,157848,1,8,0:2:0:0:
101,219,158030,1,2,3:2:0:0:
6,31,158212,5,10,0:2:0:0:
168,136,158394,1,0,3:2:0:0:
0,234,158575,1,10,0:2:0:0:
115,37,158757,2,0,P|159:29|202:15,1,89.9999972534181,2|4,3:2|3:2,0:0:0:0:
221,237,159121,5,2,3:2:0:0:
50,325,159303,1,8,0:2:0:0:
59,132,159484,1,2,3:2:0:0:
110,231,159666,1,0,3:2:0:0:
281,143,159848,1,2,3:2:0:0:
272,336,160030,1,10,0:2:0:0:
166,130,160212,6,0,P|184:88|193:44,1,89.9999972534181,2|0,3:2|3:2,0:0:0:0:
351,223,160575,1,2,3:2:0:0:
164,321,160757,1,8,0:2:0:0:
281,143,160939,6,0,P|262:184|253:228,1,89.9999972534181,2|0,3:2|3:2,0:0:0:0:
368,373,161303,1,2,3:2:0:0:
436,196,161484,2,0,P|391:204|350:223,1,89.9999972534181,8|0,0:2|3:2,0:0:0:0:
110,261,161848,5,0,3:2:0:0:
227,384,162030,2,0,P|217:340|199:299,1,89.9999972534181,2|8,3:2|0:2,0:0:0:0:
45,197,162394,1,2,3:2:0:0:
218,125,162575,2,0,P|199:165|190:209,1,89.9999972534181,2|0,3:2|3:2,0:0:0:0:
38,379,162939,2,0,P|78:360|122:351,1,89.9999972534181,8|0,0:2|3:2,0:0:0:0:
292,244,163303,5,2,3:2:0:0:
311,253,163393,1,2,0:2:0:0:
332,253,163484,1,2,3:2:0:0:
351,243,163575,1,2,0:2:0:0:
365,225,163666,1,10,0:2:0:0:
370,204,163757,1,2,0:2:0:0:
364,180,163848,1,2,0:2:0:0:
341,160,163939,1,2,0:2:0:0:
355,117,164030,5,10,0:2:0:0:
325,131,164120,1,10,0:2:0:0:
291,129,164211,1,10,0:2:0:0:
263,111,164302,1,10,0:2:0:0:
248,82,164394,1,10,0:2:0:0:
225,39,164485,1,10,0:2:0:0:
185,13,164576,1,10,0:2:0:0:
137,10,164667,1,10,0:2:0:0:
94,31,164757,6,0,P|72:82|74:156,1,100,6|0,3:2|3:2,0:0:0:0:
172,312,165121,2,0,P|194:261|192:187,1,100,8|0,0:2|3:2,0:0:0:0:
0,268,165484,6,0,P|55:247|125:248,1,100,2|0,3:2|3:2,0:0:0:0:
273,123,165848,2,0,P|223:118|177:99,1,100,8|0,0:2|3:2,0:0:0:0:
278,334,166212,6,0,P|300:283|298:209,1,100,2|0,3:2|3:2,0:0:0:0:
451,63,166575,1,10,0:2:0:0:
343,0,166757,2,0,L|389:206,1,200,2|2,3:2|3:2,0:0:0:0:
465,384,167303,2,0,P|414:362|340:364,1,100,8|0,0:2|3:2,0:0:0:0:
201,184,167666,6,0,P|151:188|106:209,1,100,2|0,3:2|3:2,0:0:0:0:
269,337,168030,1,10,0:2:0:0:
154,376,168212,2,0,P|170:323|180:268,1,100,2|0,3:2|3:2,0:0:0:0:
320,144,168575,2,0,P|303:196|293:251,1,100,2|8,3:2|0:2,0:0:0:0:
215,99,168939,1,2,3:2:0:0:
399,66,169121,5,0,3:2:0:0:
399,66,169303,1,0,3:2:0:0:
427,173,169484,5,8,0:2:0:0:
293,37,169666,1,0,3:2:0:0:
436,183,169848,5,8,0:2:0:0:
251,231,170030,1,0,3:2:0:0:
445,193,170212,5,8,0:2:0:0:
394,377,170394,1,0,3:2:0:0:
321,155,170575,6,0,P|340:201|352:249,1,100,6|0,3:2|3:2,0:0:0:0:
212,384,170939,2,0,P|192:337|180:289,1,100,8|0,0:2|3:2,0:0:0:0:
69,87,171303,6,0,P|123:128|169:115,1,100,2|0,3:2|3:2,0:0:0:0:
0,286,171666,2,0,P|26:244|73:233,1,100,8|0,0:2|3:2,0:0:0:0:
249,0,172030,6,0,P|202:18|153:27,1,100,2|0,3:2|3:2,0:0:0:0:
321,238,172394,1,10,0:2:0:0:
209,302,172575,2,0,L|255:97,1,200,2|2,3:2|3:2,0:0:0:0:
369,0,173121,2,0,L|347:97,1,100,8|0,0:2|3:2,0:0:0:0:
140,197,173484,6,0,P|90:181|43:174,1,100,2|0,3:2|3:2,0:0:0:0:
209,302,173848,2,0,P|258:286|305:279,1,100,8|0,0:2|3:2,0:0:0:0:
87,384,174212,6,0,P|102:336|109:287,1,100,2|0,3:2|3:2,0:0:0:0:
219,98,174575,2,0,P|225:147|241:194,1,100,8|0,0:2|3:2,0:0:0:0:
418,384,174939,6,0,P|447:345|441:297,1,100,2|0,3:2|3:2,0:0:0:0:
373,100,175303,2,0,P|353:173|327:243,1,150,8|0,0:2|0:0,0:0:0:0:
343,326,175666,5,10,0:2:0:0:
317,338,175756,1,8,0:2:0:0:
290,344,175847,1,8,0:2:0:0:
262,342,175938,1,8,0:2:0:0:
235,334,176029,1,8,0:2:0:0:
211,319,176120,1,8,0:2:0:0:
192,299,176211,1,8,0:2:0:0:
178,274,176302,1,8,0:2:0:0:
171,247,176394,6,0,P|309:216|444:170,1,284.999991302491,2|0,3:2|0:0,0:0:0:0:
512,128,178212,6,0,P|483:88|431:91,1,100,8|0,0:2|0:0,0:0:0:0:
348,7,178484,6,0,P|327:51|356:94,1,100,8|0,0:3|0:0,0:0:0:0:
366,169,178757,5,8,0:2:0:0:
432,3,178939,1,8,0:2:0:0:
236,34,179121,5,8,0:2:0:0:
229,42,179212,1,8,0:2:0:0:
223,51,179303,2,0,P|250:104|266:170,1,119.999996337891,4|0,3:2|3:2,0:0:0:0:
430,366,179666,6,0,P|386:327|329:336,1,119.999996337891,10|0,0:2|3:2,0:0:0:0:
158,145,180030,2,0,P|102:163|82:217,1,119.999996337891,2|0,3:2|3:2,0:0:0:0:
218,384,180394,2,0,P|229:325|252:270,1,119.999996337891,10|0,0:2|3:2,0:0:0:0:
512,95,180757,5,2,3:2:0:0:
437,336,180939,1,0,3:2:0:0:
331,61,181121,5,10,0:2:0:0:
475,216,181303,1,0,3:2:0:0:
255,172,181484,5,2,3:2:0:0:
402,138,181666,1,0,3:2:0:0:
359,301,181848,5,10,0:2:0:0:
341,211,182030,1,0,3:2:0:0:
191,331,182212,6,0,P|249:344|304:367,1,119.999996337891,2|0,3:2|3:2,0:0:0:0:
153,125,182575,2,0,P|115:188|152:251,1,119.999996337891,10|0,0:2|3:2,0:0:0:0:
0,370,182939,6,0,P|50:337|106:315,1,119.999996337891,2|0,3:2|3:2,0:0:0:0:
243,141,183303,2,0,P|253:198|217:244,1,119.999996337891,10|0,0:2|3:2,0:0:0:0:
49,27,183666,5,0,3:2:0:0:
49,27,183848,1,0,3:2:0:0:
263,57,184031,5,8,0:2:0:0:
128,228,184212,1,0,3:2:0:0:
363,136,184394,5,8,0:2:0:0:
147,104,184575,1,0,3:2:0:0:
112,354,184757,5,8,0:2:0:0:
247,183,184938,1,0,3:2:0:0:
32,152,185121,5,4,3:2:0:0:
32,152,185303,1,0,3:2:0:0:
187,304,185484,2,0,P|169:246|137:195,1,119.999996337891,10|0,0:2|3:2,0:0:0:0:
0,24,185848,2,0,P|55:45|114:54,1,119.999996337891,2|0,3:2|3:2,0:0:0:0:
361,152,186212,2,0,P|302:161|247:183,1,119.999996337891,10|0,0:2|3:2,0:0:0:0:
44,222,186575,5,2,3:2:0:0:
278,295,186757,1,0,3:2:0:0:
115,54,186939,5,10,0:2:0:0:
161,259,187121,1,0,3:2:0:0:
251,54,187303,5,2,3:2:0:0:
138,157,187485,1,0,3:2:0:0:
293,205,187666,5,10,0:2:0:0:
228,141,187848,1,0,3:2:0:0:
78,332,188030,6,0,P|136:344|193:364,1,119.999996337891,2|0,3:2|3:2,0:0:0:0:
396,258,188394,2,0,P|354:310|291:308,1,119.999996337891,10|0,0:2|3:2,0:0:0:0:
88,185,188758,6,0,P|75:126|55:69,1,119.999996337891,2|0,3:2|3:2,0:0:0:0:
302,209,189121,2,0,P|244:225|189:248,1,119.999996337891,10|0,0:2|3:2,0:0:0:0:
417,283,189484,5,0,3:2:0:0:
218,123,189666,1,0,3:2:0:0:
456,0,189848,2,0,P|423:84|399:170,1,179.999994506836,10|0,0:2|0:0,0:0:0:0:
339,225,190212,5,10,0:2:0:0:
302,209,190302,1,8,0:2:0:0:
262,214,190393,1,8,0:2:0:0:
230,240,190484,1,8,0:2:0:0:
215,278,190575,1,10,0:2:0:0:
201,317,190666,1,8,0:2:0:0:
169,342,190757,1,8,0:2:0:0:
129,347,190848,1,8,0:2:0:0:
90,330,190939,6,0,P|68:257|6:122,1,220.000006713867,6|8,3:2|0:2,0:0:0:0:
200,16,191484,1,0,3:2:0:0:
200,16,191575,1,8,0:2:0:0:
200,16,191666,2,0,P|176:65|159:117,1,110.000003356934,2|0,3:2|0:0,0:0:0:0:
306,331,192030,2,0,P|371:287|370:207,1,165.000005035401,8|0,0:2|0:0,0:0:0:0:
424,152,192394,6,0,P|318:181|215:221,1,220.000006713867,2|10,3:2|0:2,0:0:0:0:
6,133,192939,1,2,2:0:0:0:
56,340,193121,2,0,P|70:287|90:235,1,110.000003356934,0|2,3:2|2:0,0:0:0:0:
263,92,193484,1,8,0:2:0:0:
195,326,193666,1,8,0:2:0:0:
475,242,193848,6,0,P|422:227|370:207,1,110.000003356934,2|0,3:2|0:0,0:0:0:0:
159,141,194212,1,10,0:2:0:0:
366,63,194394,1,2,3:2:0:0:
366,63,194484,1,8,0:2:0:0:
366,63,194575,1,0,3:2:0:0:
295,282,194757,2,0,P|254:219|270:177,1,110.000003356934,2|8,2:0|0:2,0:0:0:0:
371,207,195121,1,2,2:0:0:0:
217,348,195303,5,10,0:2:0:0:
159,141,195484,1,8,0:3:0:0:
8,295,195666,1,4,0:3:0:0:
127,261,195848,5,2,3:2:0:0:
127,261,196212,1,2,3:2:0:0:
80,50,196394,1,8,0:2:0:0:
54,65,196484,1,8,0:2:0:0:
39,91,196575,1,8,0:2:0:0:
35,120,196666,1,8,0:2:0:0:
44,148,196757,6,0,P|151:171|255:206,1,220.000006713867,6|8,3:2|0:2,0:0:0:0:
419,87,197303,1,0,3:2:0:0:
419,87,197394,1,8,0:2:0:0:
419,87,197484,2,0,P|402:140|390:193,1,110.000003356934,2|0,3:2|0:0,0:0:0:0:
189,375,197848,2,0,P|170:294|145:216,1,165.000005035401,8|0,0:2|0:0,0:0:0:0:
64,201,198212,6,0,B|134:188|199:155|199:155|219:184|266:213,1,220.000006713867,2|10,3:2|0:2,0:0:0:0:
463,308,198757,1,2,2:0:0:0:
419,87,198939,2,0,P|402:140|390:193,1,110.000003356934,0|2,3:2|2:0,0:0:0:0:
189,298,199303,1,8,0:2:0:0:
296,115,199484,1,8,0:2:0:0:
0,83,199666,6,0,P|37:161|176:145,1,220.000006713867,2|8,3:2|0:2,0:0:0:0:
314,0,200212,1,0,3:2:0:0:
314,0,200303,1,8,0:2:0:0:
314,0,200394,2,0,P|260:13|210:35,1,110.000003356934,2|0,3:2|0:0,0:0:0:0:
63,254,200757,2,0,P|117:267|167:289,1,110.000003356934,8|0,0:2|0:0,0:0:0:0:
440,114,201121,5,10,0:2:0:0:
400,105,201211,1,8,0:2:0:0:
364,123,201302,1,8,0:3:0:0:
349,160,201393,1,8,0:3:0:0:
320,208,201484,5,8,0:2:0:0:
360,212,201575,1,8,0:2:0:0:
387,242,201666,1,0,3:2:0:0:
387,283,201756,1,0,3:2:0:0:
409,324,201848,5,10,0:3:0:0:
385,323,201938,1,8,0:3:0:0:
361,325,202029,1,8,0:3:0:0:
338,329,202120,1,8,0:3:0:0:
316,336,202211,1,4,0:3:0:0:
294,345,202302,1,4,0:3:0:0:
274,357,202393,1,4,0:3:0:0:
255,370,202484,1,4,0:3:0:0:
240,384,202575,6,0,P|213:278|164:177,1,200,6|8,3:2|0:2,0:0:0:0:
19,73,203121,1,0,3:2:0:0:
19,73,203212,1,0,3:0:0:0:
19,73,203303,2,0,P|64:93|113:105,1,100,2|0,3:2|3:2,0:0:0:0:
284,200,203666,1,8,0:2:0:0:
120,278,203848,1,0,3:2:0:0:
219,90,204030,6,0,B|280:77|337:57|337:57|360:90|393:116,1,200,2|8,3:2|0:2,0:0:0:0:
316,298,204575,1,0,3:2:0:0:
495,252,204757,2,0,P|445:242|400:223,1,100,2|0,3:2|3:2,0:0:0:0:
208,318,205121,1,8,0:2:0:0:
226,123,205303,5,2,3:2:0:0:
42,63,205484,1,2,3:2:0:0:
178,215,205666,1,2,3:2:0:0:
2,192,205848,2,0,P|47:168|106:154,1,100,8|0,0:2|3:2,0:0:0:0:
134,87,206121,1,0,3:0:0:0:
134,87,206212,2,0,P|182:99|226:123,1,100,0|0,3:2|3:2,0:0:0:0:
331,277,206575,2,0,P|309:232|299:183,1,100,10|0,0:2|3:2,0:0:0:0:
480,10,206939,6,0,P|434:103|413:205,1,200,2|8,3:2|0:2,0:0:0:0:
324,382,207484,1,0,3:2:0:0:
512,262,207666,5,10,0:2:0:0:
299,183,207848,1,0,3:2:0:0:
163,374,208030,5,10,0:2:0:0:
376,295,208212,1,0,3:2:0:0:
160,87,208394,6,0,P|194:180|219:283,1,200,6|8,3:2|0:2,0:0:0:0:
370,104,208939,1,0,3:2:0:0:
370,104,209030,1,0,3:0:0:0:
370,104,209121,2,0,P|321:92|274:74,1,100,2|0,3:2|3:2,0:0:0:0:
109,227,209484,2,0,P|62:209|13:197,1,100,8|0,0:2|3:2,0:0:0:0:
192,384,209848,6,0,P|239:366|288:354,1,100,2|0,3:2|3:2,0:0:0:0:
480,222,210212,2,0,P|439:182|377:198,1,100,8|0,0:2|3:2,0:0:0:0:
376,384,210575,2,0,P|384:334|404:289,1,100,2|0,3:2|3:2,0:0:0:0:
189,169,210939,2,0,P|209:214|217:263,1,100,8|0,0:2|3:2,0:0:0:0:
435,92,211303,5,0,3:2:0:0:
315,224,211484,1,2,3:2:0:0:
261,55,211666,1,10,0:2:0:0:
434,194,211848,1,2,3:2:0:0:
434,194,211939,1,0,3:0:0:0:
434,193,212030,2,0,P|416:239|403:288,1,100,2|0,3:2|3:2,0:0:0:0:
187,359,212394,2,0,P|204:312|217:263,1,100,10|0,0:2|3:2,0:0:0:0:
29,117,212757,5,2,3:2:0:0:
109,288,212939,1,2,3:2:0:0:
218,134,213121,1,10,0:2:0:0:
3,241,213303,1,2,2:0:0:0:
187,359,213484,5,8,0:2:0:0:
223,367,213574,1,8,0:2:0:0:
260,362,213665,1,8,0:2:0:0:
292,345,213756,1,8,0:2:0:0:
317,316,213847,1,10,0:2:0:0:
329,281,213938,1,8,0:2:0:0:
328,244,214029,1,8,0:2:0:0:
313,209,214120,1,8,0:2:0:0:
287,183,214212,6,0,P|180:151|83:138,1,200,6|8,3:2|0:2,0:0:0:0:
285,44,214757,1,0,3:2:0:0:
285,44,214848,1,0,3:0:0:0:
285,44,214939,2,0,P|338:60|387:66,1,100,2|0,3:2|3:2,0:0:0:0:
512,249,215303,2,0,P|462:255|414:270,1,100,8|0,0:2|3:2,0:0:0:0:
227,384,215666,6,0,B|279:359|279:359|311:272|232:216,1,200,2|8,3:2|0:2,0:0:0:0:
101,113,216212,1,0,3:2:0:0:
255,38,216394,2,0,P|232:82|214:129,1,100,2|0,3:2|3:2,0:0:0:0:
83,261,216757,2,0,P|129:278|174:301,1,100,8|0,0:2|3:2,0:0:0:0:
331,129,217121,6,0,P|400:113|500:203,1,200,2|8,3:2|0:2,0:0:0:0:
355,320,217666,1,2,3:2:0:0:
355,320,217757,1,0,3:0:0:0:
355,320,217848,2,0,P|369:272|389:226,1,100,0|0,3:2|3:2,0:0:0:0:
231,106,218212,1,10,0:2:0:0:
407,23,218394,1,2,3:2:0:0:
243,225,218575,6,0,P|197:205|149:190,1,100,2|0,3:2|3:2,0:0:0:0:
0,76,218939,2,0,P|47:61|93:41,1,100,10|0,0:2|3:2,0:0:0:0:
72,266,219303,2,0,P|57:218|37:172,1,100,10|0,0:2|3:2,0:0:0:0:
219,1,219666,2,0,P|199:46|184:94,1,100,10|0,0:2|3:2,0:0:0:0:
237,285,220030,6,0,P|333:271|406:333,1,200,6|8,3:2|0:2,0:0:0:0:
511,163,220575,1,0,3:2:0:0:
511,163,220666,1,0,3:0:0:0:
511,163,220757,2,0,P|466:183|418:198,1,100,2|0,3:2|3:2,0:0:0:0:
250,384,221121,2,0,P|204:363|156:348,1,100,8|0,0:2|3:2,0:0:0:0:
17,156,221484,6,0,P|91:167|186:87,1,200,2|8,3:2|0:2,0:0:0:0:
357,8,222030,1,0,3:2:0:0:
332,198,222212,2,0,P|318:149|300:103,1,100,2|0,3:2|3:2,0:0:0:0:
252,3,222575,1,8,0:2:0:0:
80,132,222757,5,2,3:2:0:0:
260,312,222939,1,2,3:2:0:0:
184,93,223121,1,2,3:2:0:0:
91,344,223303,5,10,0:2:0:0:
216,199,223485,1,2,3:2:0:0:
3,245,223666,5,0,3:2:0:0:
154,272,223848,1,2,3:2:0:0:
80,132,224030,5,10,0:2:0:0:
90,216,224212,1,2,3:2:0:0:
282,341,224394,6,0,P|351:313|424:294,1,150,2|0,3:2|0:0,0:0:0:0:
421,284,224757,2,0,P|348:302|278:330,1,150,10|0,0:2|0:0,0:0:0:0:
212,372,225121,5,10,0:2:0:0:
177,384,225211,1,8,0:2:0:0:
139,384,225302,1,8,0:2:0:0:
105,370,225393,1,8,0:2:0:0:
77,345,225484,1,8,0:2:0:0:
60,312,225575,1,8,0:2:0:0:
56,275,225666,1,8,0:2:0:0:
66,239,225757,1,8,0:2:0:0:
88,209,225848,5,6,3:2:0:0:
256,192,226030,12,0,231666,0:0:0:0:
