osu file format v14

[General]
AudioFilename: audio.mp3
AudioLeadIn: 0
PreviewTime: 67094
Countdown: 0
SampleSet: None
StackLeniency: 0.3
Mode: 3
LetterboxInBreaks: 0
SpecialStyle: 0
WidescreenStoryboard: 0

[Editor]
Bookmarks: 14863,17632,22555,25017,33632,34863,39171,42247,43478,48401,59478,67094,68094,69017
DistanceSpacing: 1.3
BeatDivisor: 4
GridSize: 4
TimelineZoom: 2.2

[Metadata]
Title:Anzu no Uta
TitleUnicode:あんずのうた
Artist:Anzu Futaba (CV: Hiromi Igarashi)
ArtistUnicode:双葉杏 (CV: 五十嵐裕美)
Creator:Tomori Maru
Version:MASTER
Source:アイドルマスターシンデレラガールズ
Tags:idolmaster cinderella girls
BeatmapID:1524799
BeatmapSetID:722243

[Difficulty]
HPDrainRate:6.4
CircleSize:4
OverallDifficulty:7.2
ApproachRate:5
SliderMultiplier:1.4
SliderTickRate:1

[Events]
//Background and Video events
0,0,"BG.jpg",0,0
//Break Periods
2,53524,59201
//Storyboard Layer 0 (Background)
//Storyboard Layer 1 (Fail)
//Storyboard Layer 2 (Pass)
//Storyboard Layer 3 (Foreground)
//Storyboard Sound Samples

[TimingPoints]
4094,615.384615384615,4,2,0,40,1,0
4094,-200,4,2,0,40,0,0
5325,-181.818181818182,4,2,0,40,0,0
6555,-166.666666666667,4,2,0,40,0,0
7786,-153.846153846154,4,2,0,40,0,0
10863,-133.333333333333,4,2,0,40,0,0
14863,-117.647058823529,4,2,0,40,0,0
15170,-100,4,2,0,40,0,0
15171,307.692307692308,4,2,0,40,1,0
34863,-133.333333333333,4,2,0,40,0,0
39171,-200,4,2,0,40,0,0
42247,-181.818181818182,4,2,0,40,0,0
42401,-166.666666666667,4,2,0,40,0,0
42555,-153.846153846154,4,2,0,40,0,0
42709,-142.857142857143,4,2,0,40,0,0
42863,-133.333333333333,4,2,0,40,0,0
43017,-125,4,2,0,40,0,0
43171,-117.647058823529,4,2,0,40,0,0
43324,-111.111111111111,4,2,0,40,0,0
43478,-100,4,2,0,40,0,0
53324,-133.333333333333,4,2,0,40,0,0
60401,-83.3333333333333,4,2,0,40,0,0
60478,-100,4,2,0,40,0,0
60555,-133.333333333333,4,2,0,40,0,0
60709,-200,4,2,0,40,0,0
61017,-181.818181818182,4,2,0,40,0,0
61632,-166.666666666667,4,2,0,40,0,0
61940,-153.846153846154,4,2,0,40,0,0
62247,-142.857142857143,4,2,0,40,0,0
62555,-133.333333333333,4,2,0,40,0,0
62863,-125,4,2,0,40,0,0
63171,-117.647058823529,4,2,0,40,0,0
63478,-111.111111111111,4,2,0,40,0,0
63786,-105.263157894737,4,2,0,40,0,0
64094,-100,4,2,0,40,0,0
64401,-95.2380952380952,4,2,0,40,0,0
64709,-90.9090909090909,4,2,0,40,0,0
65017,-83.3333333333333,4,2,0,40,0,0
65094,-100,4,2,0,40,0,0
65171,-76.9230769230769,4,2,0,40,0,0
65247,-100,4,2,0,40,0,0
65324,-71.4285714285714,4,2,0,40,0,0
65401,-100,4,2,0,40,0,0
65478,-66.6666666666667,4,2,0,40,0,0
65555,-100,4,2,0,40,0,0
65632,-111.111111111111,4,2,0,40,0,0
65940,-125,4,2,0,40,0,0
66247,-142.857142857143,4,2,0,40,0,0
66401,-153.846153846154,4,2,0,40,0,0
66555,-166.666666666667,4,2,0,40,0,0
66709,-181.818181818182,4,2,0,40,0,0
66863,-200,4,2,0,40,0,0
67324,-250,4,2,0,40,0,0
68094,-80,4,2,0,40,0,1
90247,-100,4,2,0,40,0,0
92709,-80,4,2,0,40,0,0
101324,-100,4,2,0,40,0,0
101940,-105.263157894737,4,2,0,40,0,0
102555,-117.647058823529,4,2,0,40,0,0
106863,-100,4,2,0,40,0,0
107478,-66.6666666666667,4,2,0,40,0,0
107632,-100,4,2,0,40,0,0
107786,-66.6666666666667,4,2,0,40,0,0
107940,-100,4,2,0,40,0,0
108094,-66.6666666666667,4,2,0,40,0,0
108247,-100,4,2,0,40,0,0
108401,-66.6666666666667,4,2,0,40,0,0
108555,-100,4,2,0,40,0,0
108709,-66.6666666666667,4,2,0,40,0,0
108863,-100,4,2,0,40,0,0
109017,-66.6666666666667,4,2,0,40,0,0
109171,-100,4,2,0,40,0,0
109324,-66.6666666666667,4,2,0,40,0,0
109478,-100,4,2,0,40,0,0
109632,-66.6666666666667,4,2,0,40,0,0
109786,-100,4,2,0,40,0,0
109940,-90.9090909090909,4,2,0,40,0,0
111786,-66.6666666666667,4,2,0,40,0,0
111940,-100,4,2,0,40,0,0
112094,-66.6666666666667,4,2,0,40,0,0
112247,-100,4,2,0,40,0,0

[HitObjects]
64,192,4093,128,0,14863:0:0:0:0:
192,192,5324,128,0,14863:0:0:0:0:
320,192,6555,128,0,14863:0:0:0:0:
448,192,7786,128,0,14863:0:0:0:0:
64,192,15171,1,2,0:0:0:0:
320,192,15247,1,0,0:0:0:0:
192,192,15324,1,2,0:0:0:0:
448,192,15401,1,0,0:0:0:0:
192,192,15478,1,0,0:0:0:0:
320,192,15632,1,0,0:0:0:0:
64,192,15632,1,0,0:0:0:0:
192,192,15786,1,0,0:0:0:0:
448,192,15786,1,0,0:0:0:0:
192,192,15940,128,2,16247:0:0:0:0:
64,192,15940,1,2,0:0:0:0:
320,192,16247,1,2,0:0:0:0:
448,192,16247,128,2,16555:0:0:0:0:
64,192,16401,128,2,16555:0:0:0:0:
320,192,16555,1,2,0:0:0:0:
64,192,16709,128,0,16863:0:0:0:0:
192,192,16709,1,0,0:0:0:0:
448,192,16863,1,0,0:0:0:0:
448,192,17017,128,2,17324:0:0:0:0:
320,192,17017,1,0,0:0:0:0:
64,192,17094,1,0,0:0:0:0:
320,192,17171,1,0,0:0:0:0:
64,192,17247,1,0,0:0:0:0:
320,192,17324,128,2,17632:0:0:0:0:
192,192,17324,128,0,17401:0:0:0:0:
64,192,17401,128,0,17478:0:0:0:0:
448,192,17478,128,0,17555:0:0:0:0:
192,192,17555,128,0,17632:0:0:0:0:
192,192,17709,1,0,0:0:0:0:
64,192,17786,1,0,0:0:0:0:
192,192,17863,1,0,0:0:0:0:
320,192,17940,1,0,0:0:0:0:
448,192,17940,128,0,18094:0:0:0:0:
320,192,18094,1,0,0:0:0:0:
192,192,18247,128,0,18401:0:0:0:0:
64,192,18247,1,0,0:0:0:0:
448,192,18401,128,2,18709:0:0:0:0:
64,192,18401,1,0,0:0:0:0:
320,192,18709,1,2,0:0:0:0:
320,192,18863,1,0,0:0:0:0:
192,192,18940,1,0,0:0:0:0:
64,192,19017,1,0,0:0:0:0:
320,192,19017,128,0,19171:0:0:0:0:
320,192,19171,1,0,0:0:0:0:
192,192,19247,1,0,0:0:0:0:
64,192,19324,1,0,0:0:0:0:
448,192,19324,128,0,19478:0:0:0:0:
320,192,19478,1,0,0:0:0:0:
64,192,19632,128,0,19786:0:0:0:0:
192,192,19632,1,0,0:0:0:0:
448,192,19786,128,0,19863:0:0:0:0:
192,192,19863,128,0,19940:0:0:0:0:
64,192,19940,128,0,20094:0:0:0:0:
320,192,20094,1,0,0:0:0:0:
192,192,20171,1,0,0:0:0:0:
64,192,20171,1,0,0:0:0:0:
320,192,20247,1,0,0:0:0:0:
64,192,20324,1,0,0:0:0:0:
192,192,20324,1,0,0:0:0:0:
320,192,20401,1,0,0:0:0:0:
320,192,20555,1,0,0:0:0:0:
448,192,20555,1,0,0:0:0:0:
192,192,20709,1,0,0:0:0:0:
320,192,20709,1,0,0:0:0:0:
64,192,20863,128,0,21171:0:0:0:0:
192,192,20863,128,0,21171:0:0:0:0:
320,192,21324,1,0,0:0:0:0:
448,192,21401,1,0,0:0:0:0:
320,192,21478,128,0,21632:0:0:0:0:
192,192,21632,1,0,0:0:0:0:
64,192,21709,1,0,0:0:0:0:
192,192,21786,128,0,21940:0:0:0:0:
320,192,21940,128,0,22247:0:0:0:0:
448,192,22247,128,0,22555:0:0:0:0:
192,192,22247,128,0,22555:0:0:0:0:
64,192,22555,1,0,0:0:0:0:
64,192,22709,1,0,0:0:0:0:
64,192,22863,1,0,0:0:0:0:
320,192,22863,1,0,0:0:0:0:
192,192,23017,1,0,0:0:0:0:
64,192,23171,1,0,0:0:0:0:
320,192,23171,1,0,0:0:0:0:
64,192,23324,128,0,23478:0:0:0:0:
320,192,23324,128,0,23478:0:0:0:0:
64,192,23632,128,0,24247:0:0:0:0:
192,192,23786,1,0,0:0:0:0:
320,192,23863,1,0,0:0:0:0:
448,192,23940,1,0,0:0:0:0:
320,192,24017,1,0,0:0:0:0:
192,192,24094,1,0,0:0:0:0:
320,192,24171,1,0,0:0:0:0:
448,192,24247,1,0,0:0:0:0:
320,192,24401,1,0,0:0:0:0:
448,192,24401,1,0,0:0:0:0:
192,192,24555,1,0,0:0:0:0:
320,192,24555,1,0,0:0:0:0:
448,192,24555,1,0,0:0:0:0:
64,192,24709,1,0,0:0:0:0:
192,192,24709,1,0,0:0:0:0:
320,192,24709,1,0,0:0:0:0:
448,192,24709,1,0,0:0:0:0:
64,192,24863,1,0,0:0:0:0:
192,192,24863,1,0,0:0:0:0:
320,192,24863,1,0,0:0:0:0:
64,192,25017,1,0,0:0:0:0:
192,192,25017,1,0,0:0:0:0:
192,192,25171,1,0,0:0:0:0:
320,192,25324,1,0,0:0:0:0:
448,192,25324,1,0,0:0:0:0:
192,192,25478,1,0,0:0:0:0:
320,192,25632,128,0,25786:0:0:0:0:
448,192,25632,128,0,25786:0:0:0:0:
192,192,25940,1,0,0:0:0:0:
64,192,26094,128,0,26401:0:0:0:0:
192,192,26401,1,0,0:0:0:0:
320,192,26555,1,0,0:0:0:0:
448,192,26555,1,0,0:0:0:0:
192,192,26709,1,0,0:0:0:0:
320,192,26863,128,0,27171:0:0:0:0:
448,192,26863,128,0,27171:0:0:0:0:
64,192,27171,128,0,27478:0:0:0:0:
192,192,27171,128,0,27478:0:0:0:0:
448,192,27478,128,0,27555:0:0:0:0:
320,192,27632,1,0,0:0:0:0:
448,192,27632,128,0,27709:0:0:0:0:
192,192,27786,1,0,0:0:0:0:
448,192,27786,128,0,27863:0:0:0:0:
64,192,27940,1,0,0:0:0:0:
448,192,27940,128,0,28017:0:0:0:0:
448,192,28094,1,0,0:0:0:0:
320,192,28094,1,0,0:0:0:0:
320,192,28247,1,0,0:0:0:0:
192,192,28401,1,0,0:0:0:0:
64,192,28555,1,0,0:0:0:0:
64,192,28709,1,0,0:0:0:0:
64,192,29017,1,0,0:0:0:0:
192,192,29017,1,0,0:0:0:0:
64,192,29324,1,0,0:0:0:0:
192,192,29324,1,0,0:0:0:0:
320,192,29324,1,0,0:0:0:0:
64,192,29632,1,0,0:0:0:0:
192,192,29632,1,0,0:0:0:0:
448,192,29632,1,0,0:0:0:0:
320,192,29632,1,0,0:0:0:0:
320,192,29940,1,0,0:0:0:0:
448,192,29940,1,0,0:0:0:0:
320,192,30094,1,0,0:0:0:0:
192,192,30247,1,0,0:0:0:0:
320,192,30247,1,0,0:0:0:0:
192,192,30401,1,0,0:0:0:0:
64,192,30555,128,0,30863:0:0:0:0:
192,192,30555,128,0,30709:0:0:0:0:
192,192,30863,1,0,0:0:0:0:
320,192,31017,1,0,0:0:0:0:
448,192,31017,128,0,31324:0:0:0:0:
192,192,31324,5,0,0:0:0:0:
448,192,31478,1,0,0:0:0:0:
320,192,31786,1,0,0:0:0:0:
448,192,31786,1,0,0:0:0:0:
192,192,32094,1,0,0:0:0:0:
320,192,32094,1,0,0:0:0:0:
448,192,32094,1,0,0:0:0:0:
64,192,32401,128,0,32478:0:0:0:0:
448,192,32401,1,0,0:0:0:0:
192,192,32555,128,0,32632:0:0:0:0:
320,192,32555,1,0,0:0:0:0:
64,192,32709,128,0,32786:0:0:0:0:
320,192,32709,1,0,0:0:0:0:
192,192,32863,128,0,32940:0:0:0:0:
448,192,32863,1,0,0:0:0:0:
320,192,33017,128,0,33324:0:0:0:0:
448,192,33017,1,0,0:0:0:0:
192,192,33324,1,0,0:0:0:0:
64,192,33478,128,0,33940:0:0:0:0:
192,192,33478,1,0,0:0:0:0:
448,192,33632,1,0,0:0:0:0:
320,192,33709,1,0,0:0:0:0:
192,192,33786,1,0,0:0:0:0:
320,192,33863,1,0,0:0:0:0:
448,192,33940,1,0,0:0:0:0:
64,192,34094,1,0,0:0:0:0:
64,192,34247,1,0,0:0:0:0:
192,192,34247,1,0,0:0:0:0:
64,192,34401,1,0,0:0:0:0:
64,192,34555,1,0,0:0:0:0:
320,192,34555,1,0,0:0:0:0:
64,192,34709,1,0,0:0:0:0:
64,192,34863,1,0,0:0:0:0:
448,192,34863,1,0,0:0:0:0:
320,192,39171,5,0,0:0:0:0:
320,192,39786,1,0,0:0:0:0:
320,192,40401,1,0,0:0:0:0:
320,192,41017,1,0,0:0:0:0:
320,192,41632,1,0,0:0:0:0:
320,192,41786,1,0,0:0:0:0:
320,192,41940,1,0,0:0:0:0:
448,192,41940,1,0,0:0:0:0:
320,192,42094,1,0,0:0:0:0:
448,192,42247,1,0,0:0:0:0:
320,192,42247,1,0,0:0:0:0:
64,192,42401,1,0,0:0:0:0:
192,192,42401,1,0,0:0:0:0:
320,192,42555,1,0,0:0:0:0:
448,192,42555,1,0,0:0:0:0:
64,192,42709,1,0,0:0:0:0:
192,192,42709,1,0,0:0:0:0:
320,192,42863,128,0,42940:0:0:0:0:
448,192,42863,128,0,42940:0:0:0:0:
320,192,43017,128,0,43094:0:0:0:0:
448,192,43017,128,0,43094:0:0:0:0:
64,192,43171,128,0,43247:0:0:0:0:
192,192,43171,128,0,43247:0:0:0:0:
192,192,43324,128,0,43401:0:0:0:0:
64,192,43324,128,0,43401:0:0:0:0:
448,192,43478,1,0,0:0:0:0:
64,192,43555,1,0,0:0:0:0:
192,192,43555,1,0,0:0:0:0:
320,192,43632,1,0,0:0:0:0:
448,192,43709,1,0,0:0:0:0:
192,192,43709,1,0,0:0:0:0:
320,192,43786,1,0,0:0:0:0:
64,192,43786,128,0,43940:0:0:0:0:
192,192,43940,1,0,0:0:0:0:
320,192,43940,1,0,0:0:0:0:
192,192,44094,1,0,0:0:0:0:
448,192,44094,128,0,44247:0:0:0:0:
64,192,44247,128,0,44555:0:0:0:0:
320,192,44247,1,0,0:0:0:0:
448,192,44555,1,0,0:0:0:0:
192,192,44555,128,0,44863:0:0:0:0:
320,192,44863,1,0,0:0:0:0:
448,192,44863,1,0,0:0:0:0:
448,192,45017,1,0,0:0:0:0:
320,192,45171,1,0,0:0:0:0:
448,192,45171,1,0,0:0:0:0:
448,192,45324,1,0,0:0:0:0:
448,192,45478,128,0,45786:0:0:0:0:
320,192,45478,1,0,0:0:0:0:
320,192,45709,1,0,0:0:0:0:
192,192,45747,1,0,0:0:0:0:
64,192,45786,1,0,0:0:0:0:
320,192,45824,1,0,0:0:0:0:
192,192,45863,1,0,0:0:0:0:
64,192,45901,1,0,0:0:0:0:
320,192,45940,1,0,0:0:0:0:
448,192,45940,1,0,0:0:0:0:
192,192,46017,1,0,0:0:0:0:
64,192,46017,1,0,0:0:0:0:
320,192,46094,1,0,0:0:0:0:
448,192,46094,1,0,0:0:0:0:
64,192,46171,1,0,0:0:0:0:
192,192,46171,1,0,0:0:0:0:
448,192,46247,1,0,0:0:0:0:
320,192,46247,1,0,0:0:0:0:
192,192,46401,1,0,0:0:0:0:
64,192,46401,1,0,0:0:0:0:
192,192,46555,1,0,0:0:0:0:
448,192,46555,1,0,0:0:0:0:
320,192,46709,128,0,47017:0:0:0:0:
192,192,46709,1,0,0:0:0:0:
192,192,47017,1,0,0:0:0:0:
448,192,47017,1,0,0:0:0:0:
192,192,47171,1,0,0:0:0:0:
320,192,47247,1,0,0:0:0:0:
448,192,47324,128,0,47478:0:0:0:0:
64,192,47324,128,0,47478:0:0:0:0:
320,192,47478,1,0,0:0:0:0:
192,192,47555,1,0,0:0:0:0:
64,192,47632,128,0,47786:0:0:0:0:
448,192,47632,128,0,47786:0:0:0:0:
320,192,47632,1,0,0:0:0:0:
192,192,47940,128,0,48247:0:0:0:0:
320,192,47940,1,0,0:0:0:0:
320,192,48094,1,0,0:0:0:0:
448,192,48171,1,0,0:0:0:0:
320,192,48247,128,0,48401:0:0:0:0:
192,192,48401,1,0,0:0:0:0:
448,192,48478,1,0,0:0:0:0:
64,192,48478,1,0,0:0:0:0:
192,192,48555,1,0,0:0:0:0:
320,192,48555,1,0,0:0:0:0:
64,192,48632,1,0,0:0:0:0:
448,192,48632,1,0,0:0:0:0:
192,192,48709,1,0,0:0:0:0:
320,192,48709,1,0,0:0:0:0:
64,192,48863,1,0,0:0:0:0:
448,192,48863,1,0,0:0:0:0:
192,192,49017,1,0,0:0:0:0:
320,192,49017,1,0,0:0:0:0:
192,192,49171,128,0,49478:0:0:0:0:
448,192,49171,128,0,49478:0:0:0:0:
320,192,49171,1,0,0:0:0:0:
64,192,49478,128,0,49786:0:0:0:0:
320,192,49478,128,0,49632:0:0:0:0:
192,192,49632,1,0,0:0:0:0:
320,192,49709,1,0,0:0:0:0:
448,192,49786,1,0,0:0:0:0:
448,192,49940,128,0,50094:0:0:0:0:
320,192,49940,1,0,0:0:0:0:
192,192,50017,1,0,0:0:0:0:
64,192,50094,1,0,0:0:0:0:
192,192,50247,128,0,50555:0:0:0:0:
448,192,50247,128,0,50555:0:0:0:0:
320,192,50555,128,0,50863:0:0:0:0:
64,192,50863,128,0,51171:0:0:0:0:
192,192,50863,1,0,0:0:0:0:
192,192,51017,1,0,0:0:0:0:
448,192,51171,128,0,51478:0:0:0:0:
320,192,51171,1,0,0:0:0:0:
320,192,51324,1,0,0:0:0:0:
320,192,51478,1,0,0:0:0:0:
192,192,51632,1,0,0:0:0:0:
448,192,51632,1,0,0:0:0:0:
448,192,51940,128,0,53324:0:0:0:0:
192,192,52094,1,0,0:0:0:0:
320,192,52094,128,0,52247:0:0:0:0:
64,192,52171,1,0,0:0:0:0:
192,192,52247,1,0,0:0:0:0:
320,192,52401,128,0,52555:0:0:0:0:
192,192,52401,1,0,0:0:0:0:
64,192,52478,1,0,0:0:0:0:
192,192,52555,1,0,0:0:0:0:
192,192,52709,1,0,0:0:0:0:
320,192,52709,128,0,52863:0:0:0:0:
64,192,52863,1,0,0:0:0:0:
192,192,53017,1,0,0:0:0:0:
320,192,53017,128,0,53171:0:0:0:0:
64,192,53171,1,0,0:0:0:0:
192,192,53324,1,0,0:0:0:0:
448,192,60401,132,0,60453:0:0:0:0:
320,192,60453,128,0,60504:0:0:0:0:
192,192,60504,128,0,60555:0:0:0:0:
64,192,60555,128,0,60606:0:0:0:0:
64,192,60709,1,0,0:0:0:0:
64,192,61017,1,0,0:0:0:0:
64,192,61324,1,0,0:0:0:0:
64,192,61632,1,0,0:0:0:0:
64,192,61940,1,0,0:0:0:0:
192,192,61940,1,0,0:0:0:0:
64,192,62247,1,0,0:0:0:0:
192,192,62247,1,0,0:0:0:0:
64,192,62555,1,0,0:0:0:0:
192,192,62555,1,0,0:0:0:0:
64,192,62863,1,0,0:0:0:0:
192,192,62863,1,0,0:0:0:0:
64,192,63171,1,0,0:0:0:0:
192,192,63171,1,0,0:0:0:0:
320,192,63171,1,0,0:0:0:0:
64,192,63478,1,0,0:0:0:0:
192,192,63478,1,0,0:0:0:0:
320,192,63478,1,0,0:0:0:0:
64,192,63786,1,0,0:0:0:0:
192,192,63786,1,0,0:0:0:0:
320,192,63786,1,0,0:0:0:0:
64,192,64094,1,0,0:0:0:0:
192,192,64094,1,0,0:0:0:0:
320,192,64094,1,0,0:0:0:0:
64,192,64401,1,0,0:0:0:0:
192,192,64401,1,0,0:0:0:0:
320,192,64401,1,0,0:0:0:0:
448,192,64401,1,0,0:0:0:0:
64,192,64709,1,0,0:0:0:0:
192,192,64709,1,0,0:0:0:0:
320,192,64709,1,0,0:0:0:0:
448,192,64709,1,0,0:0:0:0:
320,192,65017,128,0,65171:0:0:0:0:
192,192,65017,128,0,65171:0:0:0:0:
448,192,65171,128,0,65324:0:0:0:0:
64,192,65171,128,0,65324:0:0:0:0:
320,192,65324,128,0,65478:0:0:0:0:
192,192,65324,128,0,65478:0:0:0:0:
64,192,65478,128,0,65632:0:0:0:0:
448,192,65478,128,0,65632:0:0:0:0:
320,192,65632,128,0,67094:0:0:0:0:
320,192,68094,1,0,0:0:0:0:
448,192,68094,1,0,0:0:0:0:
64,192,68094,128,0,68247:0:0:0:0:
192,192,68171,1,0,0:0:0:0:
320,192,68247,1,0,0:0:0:0:
448,192,68247,1,0,0:0:0:0:
192,192,68324,1,0,0:0:0:0:
320,192,68401,1,0,0:0:0:0:
448,192,68401,1,0,0:0:0:0:
192,192,68478,1,0,0:0:0:0:
320,192,68555,1,0,0:0:0:0:
448,192,68555,1,0,0:0:0:0:
64,192,68555,128,0,68863:0:0:0:0:
192,192,68632,1,0,0:0:0:0:
320,192,68709,1,0,0:0:0:0:
448,192,68709,1,0,0:0:0:0:
320,192,68863,1,0,0:0:0:0:
448,192,69017,1,0,0:0:0:0:
448,192,69171,128,0,69478:0:0:0:0:
192,192,69171,128,0,69478:0:0:0:0:
64,192,69171,1,0,0:0:0:0:
192,192,69632,128,0,69940:0:0:0:0:
448,192,69632,1,0,0:0:0:0:
320,192,69940,1,0,0:0:0:0:
320,192,70094,1,0,0:0:0:0:
448,192,70094,1,0,0:0:0:0:
192,192,70247,1,0,0:0:0:0:
320,192,70401,1,0,0:0:0:0:
448,192,70401,1,0,0:0:0:0:
64,192,70555,128,0,70709:0:0:0:0:
192,192,70606,1,0,0:0:0:0:
320,192,70658,1,0,0:0:0:0:
448,192,70709,1,0,0:0:0:0:
64,192,70863,128,0,71017:0:0:0:0:
192,192,70914,1,0,0:0:0:0:
320,192,70965,1,0,0:0:0:0:
448,192,71017,128,0,71324:0:0:0:0:
320,192,71324,1,0,0:0:0:0:
192,192,71478,1,0,0:0:0:0:
320,192,71632,128,0,71940:0:0:0:0:
448,192,71632,1,0,0:0:0:0:
192,192,71940,1,0,0:0:0:0:
320,192,72094,128,0,72247:0:0:0:0:
448,192,72094,128,0,72247:0:0:0:0:
320,192,72401,1,0,0:0:0:0:
192,192,72401,1,0,0:0:0:0:
448,192,72478,1,0,0:0:0:0:
64,192,72478,1,0,0:0:0:0:
320,192,72555,1,0,0:0:0:0:
192,192,72555,1,0,0:0:0:0:
64,192,72632,1,0,0:0:0:0:
448,192,72632,1,0,0:0:0:0:
320,192,72709,1,0,0:0:0:0:
448,192,72709,1,0,0:0:0:0:
64,192,72786,1,0,0:0:0:0:
192,192,72786,1,0,0:0:0:0:
320,192,72863,1,0,0:0:0:0:
448,192,72863,1,0,0:0:0:0:
64,192,72940,1,0,0:0:0:0:
192,192,72940,1,0,0:0:0:0:
448,192,73017,1,0,0:0:0:0:
320,192,73094,1,0,0:0:0:0:
448,192,73171,128,0,73247:0:0:0:0:
192,192,73324,1,0,0:0:0:0:
320,192,73401,1,0,0:0:0:0:
64,192,73478,128,0,73555:0:0:0:0:
320,192,73632,1,0,0:0:0:0:
192,192,73709,1,0,0:0:0:0:
64,192,73786,128,0,73863:0:0:0:0:
192,192,73940,1,0,0:0:0:0:
448,192,74017,1,0,0:0:0:0:
320,192,74094,128,0,74171:0:0:0:0:
64,192,74247,1,0,0:0:0:0:
448,192,74247,1,0,0:0:0:0:
192,192,74324,1,0,0:0:0:0:
320,192,74401,1,0,0:0:0:0:
448,192,74555,1,0,0:0:0:0:
320,192,74555,1,0,0:0:0:0:
192,192,74632,1,0,0:0:0:0:
320,192,74709,1,0,0:0:0:0:
64,192,74863,1,0,0:0:0:0:
320,192,74863,1,0,0:0:0:0:
192,192,74940,1,0,0:0:0:0:
448,192,75017,1,0,0:0:0:0:
320,192,75171,1,0,0:0:0:0:
448,192,75171,1,0,0:0:0:0:
64,192,75247,1,0,0:0:0:0:
320,192,75324,1,0,0:0:0:0:
64,192,75478,128,0,75632:0:0:0:0:
448,192,75478,128,0,75632:0:0:0:0:
192,192,75632,1,0,0:0:0:0:
64,192,75940,128,0,76094:0:0:0:0:
448,192,75940,128,0,76094:0:0:0:0:
320,192,76094,1,0,0:0:0:0:
192,192,76401,128,0,76555:0:0:0:0:
320,192,76401,128,0,76555:0:0:0:0:
64,192,76555,128,0,77017:0:0:0:0:
448,192,76555,128,0,77017:0:0:0:0:
192,192,76863,1,0,0:0:0:0:
320,192,77017,1,0,0:0:0:0:
320,192,77171,1,0,0:0:0:0:
64,192,77324,1,0,0:0:0:0:
192,192,77401,1,0,0:0:0:0:
320,192,77478,1,0,0:0:0:0:
448,192,77555,1,0,0:0:0:0:
64,192,77632,1,0,0:0:0:0:
192,192,77709,1,0,0:0:0:0:
320,192,77786,1,0,0:0:0:0:
448,192,77863,1,0,0:0:0:0:
64,192,77940,1,0,0:0:0:0:
320,192,77940,128,0,78094:0:0:0:0:
192,192,78017,1,0,0:0:0:0:
64,192,78094,1,0,0:0:0:0:
192,192,78171,1,0,0:0:0:0:
64,192,78247,1,0,0:0:0:0:
448,192,78247,128,0,78401:0:0:0:0:
192,192,78324,1,0,0:0:0:0:
64,192,78401,1,0,0:0:0:0:
320,192,78401,128,0,78709:0:0:0:0:
192,192,78478,1,0,0:0:0:0:
64,192,78555,1,0,0:0:0:0:
192,192,78709,1,0,0:0:0:0:
320,192,78863,1,0,0:0:0:0:
320,192,79017,128,0,79324:0:0:0:0:
448,192,79017,128,0,79324:0:0:0:0:
192,192,79324,1,0,0:0:0:0:
64,192,79478,128,0,79632:0:0:0:0:
320,192,79478,128,0,79632:0:0:0:0:
192,192,79786,1,0,0:0:0:0:
320,192,79786,1,0,0:0:0:0:
448,192,79786,1,0,0:0:0:0:
64,192,79940,1,0,0:0:0:0:
192,192,79940,1,0,0:0:0:0:
320,192,79940,1,0,0:0:0:0:
192,192,80094,1,0,0:0:0:0:
320,192,80094,1,0,0:0:0:0:
448,192,80094,1,0,0:0:0:0:
64,192,80247,1,0,0:0:0:0:
192,192,80247,1,0,0:0:0:0:
320,192,80247,1,0,0:0:0:0:
64,192,80401,128,0,80555:0:0:0:0:
192,192,80453,1,0,0:0:0:0:
320,192,80504,1,0,0:0:0:0:
448,192,80555,1,0,0:0:0:0:
192,192,80709,128,0,80863:0:0:0:0:
320,192,80760,1,0,0:0:0:0:
448,192,80812,1,0,0:0:0:0:
64,192,80863,128,0,81171:0:0:0:0:
320,192,81017,1,0,0:0:0:0:
448,192,81171,1,0,0:0:0:0:
192,192,81324,1,0,0:0:0:0:
64,192,81324,1,0,0:0:0:0:
320,192,81478,128,0,81786:0:0:0:0:
448,192,81478,128,0,81632:0:0:0:0:
192,192,81478,1,0,0:0:0:0:
64,192,81786,1,0,0:0:0:0:
192,192,81940,128,0,82247:0:0:0:0:
320,192,81940,1,0,0:0:0:0:
448,192,82247,1,0,0:0:0:0:
64,192,82324,1,0,0:0:0:0:
448,192,82401,1,0,0:0:0:0:
192,192,82478,1,0,0:0:0:0:
448,192,82555,1,0,0:0:0:0:
320,192,82632,1,0,0:0:0:0:
448,192,82709,1,0,0:0:0:0:
192,192,82786,1,0,0:0:0:0:
448,192,82863,1,0,0:0:0:0:
64,192,82863,128,0,83171:0:0:0:0:
448,192,83171,128,0,83324:0:0:0:0:
320,192,83324,128,0,83478:0:0:0:0:
192,192,83478,128,0,83786:0:0:0:0:
448,192,83786,128,0,83940:0:0:0:0:
64,192,83940,128,0,84247:0:0:0:0:
192,192,84247,128,0,84401:0:0:0:0:
320,192,84401,128,0,84555:0:0:0:0:
448,192,84555,128,0,84709:0:0:0:0:
64,192,84709,128,0,85017:0:0:0:0:
192,192,85017,1,0,0:0:0:0:
64,192,85324,1,0,0:0:0:0:
320,192,85324,1,0,0:0:0:0:
192,192,85478,1,0,0:0:0:0:
320,192,85478,1,0,0:0:0:0:
448,192,85478,1,0,0:0:0:0:
320,192,85786,1,0,0:0:0:0:
448,192,85786,1,0,0:0:0:0:
64,192,85940,1,0,0:0:0:0:
192,192,85940,1,0,0:0:0:0:
320,192,85940,1,0,0:0:0:0:
320,192,86247,1,0,0:0:0:0:
192,192,86247,1,0,0:0:0:0:
192,192,86401,1,0,0:0:0:0:
448,192,86401,1,0,0:0:0:0:
64,192,86401,1,0,0:0:0:0:
320,192,86709,1,0,0:0:0:0:
192,192,86709,1,0,0:0:0:0:
448,192,86863,1,0,0:0:0:0:
320,192,86863,1,0,0:0:0:0:
64,192,86863,1,0,0:0:0:0:
64,192,87171,128,0,87786:0:0:0:0:
448,192,87171,128,0,87786:0:0:0:0:
192,192,87786,128,0,88401:0:0:0:0:
64,192,88401,128,0,89017:0:0:0:0:
320,192,88401,128,0,89017:0:0:0:0:
448,192,89017,128,0,89632:0:0:0:0:
192,192,89017,128,0,89632:0:0:0:0:
448,192,89940,1,0,0:0:0:0:
192,192,89940,1,0,0:0:0:0:
192,192,92094,128,0,92171:0:0:0:0:
320,192,92709,1,0,0:0:0:0:
448,192,92709,1,0,0:0:0:0:
64,192,92863,1,0,0:0:0:0:
192,192,92863,1,0,0:0:0:0:
320,192,93017,1,0,0:0:0:0:
448,192,93017,1,0,0:0:0:0:
64,192,93171,1,0,0:0:0:0:
192,192,93171,1,0,0:0:0:0:
192,192,93324,1,0,0:0:0:0:
320,192,93324,1,0,0:0:0:0:
320,192,93478,1,0,0:0:0:0:
448,192,93478,1,0,0:0:0:0:
64,192,93632,1,0,0:0:0:0:
448,192,93632,1,0,0:0:0:0:
192,192,93786,1,0,0:0:0:0:
64,192,93786,1,0,0:0:0:0:
192,192,93940,1,0,0:0:0:0:
320,192,93940,1,0,0:0:0:0:
320,192,94094,1,0,0:0:0:0:
448,192,94094,1,0,0:0:0:0:
192,192,94247,1,0,0:0:0:0:
320,192,94247,1,0,0:0:0:0:
64,192,94401,1,0,0:0:0:0:
192,192,94401,1,0,0:0:0:0:
320,192,94555,1,0,0:0:0:0:
192,192,94555,1,0,0:0:0:0:
320,192,94709,1,0,0:0:0:0:
448,192,94709,1,0,0:0:0:0:
192,192,94863,1,0,0:0:0:0:
320,192,94863,1,0,0:0:0:0:
320,192,95017,128,0,95094:0:0:0:0:
64,192,95017,128,0,95094:0:0:0:0:
192,192,95171,128,0,95247:0:0:0:0:
448,192,95171,128,0,95247:0:0:0:0:
320,192,95324,128,0,95401:0:0:0:0:
64,192,95324,128,0,95401:0:0:0:0:
192,192,95478,128,0,95555:0:0:0:0:
448,192,95478,128,0,95555:0:0:0:0:
320,192,95632,128,0,95786:0:0:0:0:
64,192,95632,128,0,95786:0:0:0:0:
320,192,95940,128,0,96094:0:0:0:0:
448,192,95940,128,0,96094:0:0:0:0:
64,192,96094,128,0,96401:0:0:0:0:
448,192,96401,128,0,96478:0:0:0:0:
320,192,96401,1,0,0:0:0:0:
192,192,96555,128,0,96632:0:0:0:0:
64,192,96555,1,0,0:0:0:0:
448,192,96709,128,0,96786:0:0:0:0:
320,192,96709,1,0,0:0:0:0:
192,192,96863,128,0,96940:0:0:0:0:
64,192,96863,1,0,0:0:0:0:
448,192,97017,128,0,97094:0:0:0:0:
320,192,97017,1,0,0:0:0:0:
320,192,97171,128,0,97247:0:0:0:0:
192,192,97171,1,0,0:0:0:0:
192,192,97324,128,0,97401:0:0:0:0:
64,192,97324,1,0,0:0:0:0:
64,192,97478,128,0,97940:0:0:0:0:
448,192,97478,128,0,97940:0:0:0:0:
192,192,98094,1,0,0:0:0:0:
320,192,98094,1,0,0:0:0:0:
448,192,98247,1,0,0:0:0:0:
320,192,98247,1,0,0:0:0:0:
64,192,98401,1,0,0:0:0:0:
192,192,98401,1,0,0:0:0:0:
192,192,98555,1,0,0:0:0:0:
320,192,98555,1,0,0:0:0:0:
320,192,98709,1,0,0:0:0:0:
448,192,98709,1,0,0:0:0:0:
320,192,98863,1,0,0:0:0:0:
320,192,99017,1,0,0:0:0:0:
448,192,99017,1,0,0:0:0:0:
320,192,99171,1,0,0:0:0:0:
320,192,99324,1,0,0:0:0:0:
448,192,99324,1,0,0:0:0:0:
320,192,99478,1,0,0:0:0:0:
192,192,99478,1,0,0:0:0:0:
64,192,99632,1,0,0:0:0:0:
192,192,99632,1,0,0:0:0:0:
192,192,99786,1,0,0:0:0:0:
320,192,99786,1,0,0:0:0:0:
320,192,99940,1,0,0:0:0:0:
448,192,99940,1,0,0:0:0:0:
448,192,100094,1,0,0:0:0:0:
320,192,100247,1,0,0:0:0:0:
192,192,100401,1,0,0:0:0:0:
64,192,100555,1,0,0:0:0:0:
64,192,100709,1,0,0:0:0:0:
192,192,100863,1,0,0:0:0:0:
320,192,101017,1,0,0:0:0:0:
448,192,101171,1,0,0:0:0:0:
448,192,101324,1,0,0:0:0:0:
64,192,101478,1,0,0:0:0:0:
448,192,101632,1,0,0:0:0:0:
64,192,101786,1,0,0:0:0:0:
320,192,101940,1,0,0:0:0:0:
448,192,101940,1,0,0:0:0:0:
64,192,102017,1,0,0:0:0:0:
192,192,102017,1,0,0:0:0:0:
320,192,102094,1,0,0:0:0:0:
448,192,102094,1,0,0:0:0:0:
64,192,102171,1,0,0:0:0:0:
192,192,102171,1,0,0:0:0:0:
320,192,102247,1,0,0:0:0:0:
448,192,102247,1,0,0:0:0:0:
64,192,102324,1,0,0:0:0:0:
192,192,102324,1,0,0:0:0:0:
320,192,102401,1,0,0:0:0:0:
448,192,102401,1,0,0:0:0:0:
64,192,102478,1,0,0:0:0:0:
192,192,102478,1,0,0:0:0:0:
320,192,102555,1,0,0:0:0:0:
448,192,102555,1,0,0:0:0:0:
64,192,102555,1,0,0:0:0:0:
192,192,102632,1,0,0:0:0:0:
64,192,102709,1,0,0:0:0:0:
192,192,102786,1,0,0:0:0:0:
64,192,102863,1,0,0:0:0:0:
192,192,102940,1,0,0:0:0:0:
64,192,103017,1,0,0:0:0:0:
192,192,103094,1,0,0:0:0:0:
64,192,103171,1,0,0:0:0:0:
192,192,104401,128,0,104555:0:0:0:0:
448,192,104401,128,0,104555:0:0:0:0:
192,192,104709,128,0,104863:0:0:0:0:
448,192,104709,128,0,104863:0:0:0:0:
448,192,105017,1,0,0:0:0:0:
320,192,105068,1,0,0:0:0:0:
192,192,105119,1,0,0:0:0:0:
64,192,105171,1,0,0:0:0:0:
448,192,105324,1,0,0:0:0:0:
320,192,105376,1,0,0:0:0:0:
192,192,105427,1,0,0:0:0:0:
64,192,105478,1,0,0:0:0:0:
320,192,106863,5,0,0:0:0:0:
192,192,106940,1,0,0:0:0:0:
320,192,107017,1,0,0:0:0:0:
192,192,107094,1,0,0:0:0:0:
64,192,107171,1,0,0:0:0:0:
448,192,107247,1,0,0:0:0:0:
64,192,107324,1,0,0:0:0:0:
448,192,107401,1,0,0:0:0:0:
64,192,107478,1,0,0:0:0:0:
192,192,107529,1,0,0:0:0:0:
320,192,107581,1,0,0:0:0:0:
448,192,107632,1,0,0:0:0:0:
448,192,107786,1,0,0:0:0:0:
320,192,107837,1,0,0:0:0:0:
192,192,107888,1,0,0:0:0:0:
64,192,107940,1,0,0:0:0:0:
192,192,108094,1,0,0:0:0:0:
320,192,108145,1,0,0:0:0:0:
448,192,108196,1,0,0:0:0:0:
320,192,108247,1,0,0:0:0:0:
320,192,108401,1,0,0:0:0:0:
192,192,108453,1,0,0:0:0:0:
64,192,108504,1,0,0:0:0:0:
192,192,108555,1,0,0:0:0:0:
64,192,108709,1,0,0:0:0:0:
192,192,108760,1,0,0:0:0:0:
64,192,108812,1,0,0:0:0:0:
192,192,108863,1,0,0:0:0:0:
448,192,109017,1,0,0:0:0:0:
320,192,109068,1,0,0:0:0:0:
448,192,109119,1,0,0:0:0:0:
320,192,109171,1,0,0:0:0:0:
64,192,109324,1,0,0:0:0:0:
192,192,109376,1,0,0:0:0:0:
448,192,109427,1,0,0:0:0:0:
320,192,109478,1,0,0:0:0:0:
448,192,109632,1,0,0:0:0:0:
320,192,109683,1,0,0:0:0:0:
64,192,109735,1,0,0:0:0:0:
192,192,109786,1,0,0:0:0:0:
448,192,109940,1,0,0:0:0:0:
320,192,109940,1,0,0:0:0:0:
320,192,110094,1,0,0:0:0:0:
64,192,110094,1,0,0:0:0:0:
192,192,110401,1,0,0:0:0:0:
320,192,110401,1,0,0:0:0:0:
448,192,110555,1,0,0:0:0:0:
192,192,110555,1,0,0:0:0:0:
192,192,110863,1,0,0:0:0:0:
448,192,110863,1,0,0:0:0:0:
320,192,111017,1,0,0:0:0:0:
192,192,111017,1,0,0:0:0:0:
64,192,111324,1,0,0:0:0:0:
448,192,111324,1,0,0:0:0:0:
192,192,111478,1,0,0:0:0:0:
64,192,111478,1,0,0:0:0:0:
448,192,111786,128,0,111940:0:0:0:0:
320,192,111786,1,0,0:0:0:0:
64,192,111940,128,0,112094:0:0:0:0:
192,192,111940,1,0,0:0:0:0:
448,192,112094,128,0,112247:0:0:0:0:
320,192,112094,1,0,0:0:0:0:
64,192,112247,128,0,112401:0:0:0:0:
192,192,112247,1,0,0:0:0:0:
448,192,112401,128,0,114555:0:0:0:0:
320,192,113017,128,0,114555:0:0:0:0:
192,192,113632,128,0,114555:0:0:0:0:
64,192,114247,128,0,114555:0:0:0:0:
448,192,117324,1,0,0:0:0:0:
320,192,117324,1,0,0:0:0:0:
192,192,117401,1,0,0:0:0:0:
64,192,117401,1,0,0:0:0:0:
320,192,117478,1,0,0:0:0:0:
448,192,117478,1,0,0:0:0:0:
64,192,117555,1,0,0:0:0:0:
192,192,117555,1,0,0:0:0:0:
320,192,117632,1,0,0:0:0:0:
448,192,117632,1,0,0:0:0:0:
64,192,117786,1,0,0:0:0:0:
192,192,117786,1,0,0:0:0:0:
320,192,117940,1,0,0:0:0:0:
448,192,117940,1,0,0:0:0:0:
320,192,118094,1,0,0:0:0:0:
448,192,118094,128,0,118401:0:0:0:0:
320,192,118401,1,0,0:0:0:0:
192,192,118709,1,0,0:0:0:0:
64,192,118863,1,0,0:0:0:0:
192,192,119017,1,0,0:0:0:0:
320,192,119171,1,0,0:0:0:0:
320,192,119478,1,0,0:0:0:0:
320,192,119786,128,0,121017:0:0:0:0:
