osu file format v14

[General]
AudioFilename: audio.mp3
AudioLeadIn: 0
PreviewTime: 14899
Countdown: 0
SampleSet: Normal
StackLeniency: 0.7
Mode: 0
LetterboxInBreaks: 0
EpilepsyWarning: 1
WidescreenStoryboard: 1

[Editor]
DistanceSpacing: 1.5
BeatDivisor: 16
GridSize: 8
TimelineZoom: 1.7

[Metadata]
Title:Marcianito Descubierto 100% real No fake 1 link No survey Mega No steam
TitleUnicode:Marcianito Descubierto 100% real No fake 1 link No survey Mega No steam
Artist:Antonio Rios
ArtistUnicode:Antonio Rios
Creator:MisterJeton
Version:Hard
Source:
Tags:100 real no fake,
BeatmapID:1006174
BeatmapSetID:470168

[Difficulty]
HPDrainRate:6
CircleSize:4
OverallDifficulty:5
ApproachRate:7.6
SliderMultiplier:2.4
SliderTickRate:2

[Events]
//Background and Video events
Video,0,"Marciano descubierto! 100% real no fake 1 link megaupload 2014 oficial.mp4"
0,0,"descarga.jpg",0,0
//Break Periods
//Storyboard Layer 0 (Background)
//Storyboard Layer 1 (Fail)
//Storyboard Layer 2 (Pass)
//Storyboard Layer 3 (Foreground)
//Storyboard Sound Samples

[TimingPoints]
286,573.065902578797,4,3,0,75,1,0
572,-100,4,3,0,75,0,0
859,573.065902578797,4,3,0,75,1,0
1288,-100,4,1,0,50,0,0
2578,-100,4,1,0,100,0,0
2614,-100,4,1,0,50,0,0
3151,-100,4,1,0,65,0,0
6159,-100,4,3,0,65,0,0
6303,-100,4,1,0,65,0,0
14326,-100,4,3,0,75,0,0
14994,-100,4,1,0,50,0,0
16904,-100,4,1,0,100,0,1
19913,-100,4,3,0,100,0,1
20056,-100,4,1,0,100,0,1
21919,-100,4,1,0,50,0,1
22635,-100,4,1,0,100,0,1
23924,-100,4,1,0,50,0,1
24354,-100,4,1,0,75,0,0
27220,-100,4,1,0,100,0,0
27363,-100,4,3,0,100,0,0
27506,-100,4,1,0,100,0,0
28079,-100,4,3,0,100,0,0
28795,-100,4,1,0,50,0,0
30658,-100,4,1,0,75,0,1
33667,-100,4,3,0,75,0,0
33953,-100,4,1,0,75,0,0
35529,-100,4,1,0,25,0,0
36389,-100,4,1,0,75,0,0
37821,-100,4,1,0,25,0,0
38251,-100,4,1,0,50,0,0

[Colours]
Combo1 : 10,72,0
Combo2 : 0,202,0
Combo3 : 87,255,79
Combo4 : 47,118,3

[HitObjects]
120,120,572,6,8,L|72:80,2,60
113,299,1288,1,0,0:0:0:0:
179,333,1467,1,0,0:0:0:0:
251,257,1718,1,0,0:0:0:0:
288,321,1897,2,0,P|324:266|314:220,1,105
216,254,2399,1,0,0:0:0:0:
152,99,2578,6,0,P|140:160|160:203,1,105,8|0,0:0|0:0,0:0:0:0:
231,147,2972,2,0,P|264:112|295:99,1,75,0|8,0:0|0:0,0:0:0:0:
459,47,3437,1,0,0:0:0:0:
404,119,3581,1,0,0:0:0:0:
434,203,3724,2,0,B|458:267|458:267|442:323,1,120,8|0,0:0|0:0,0:0:0:0:
326,322,4154,6,0,B|294:282|238:298|214:314,1,120,8|0,0:0|0:0,0:0:0:0:
71,204,4727,2,0,L|47:148,1,60,0|8,0:0|0:0,0:0:0:0:
132,120,5013,2,0,L|100:56,1,60
191,39,5300,1,0,0:0:0:0:
272,76,5443,2,0,P|312:60|408:76,1,120,8|0,0:0|0:0,0:0:0:0:
251,184,6016,6,0,P|276:167|303:134,2,60,8|0|0,0:0|0:0|0:0,0:0:0:0:
83,147,6589,6,0,P|59:187|59:219,1,60,8|0,0:0|0:0,0:0:0:0:
61,289,6876,2,0,P|68:318|86:342,1,60
150,279,7162,2,0,P|213:266|269:290,1,120,8|0,0:0|0:0,0:0:0:0:
343,327,7592,2,0,P|398:348|456:334,1,120,8|0,0:0|0:0,0:0:0:0:
401,261,8022,2,0,L|412:185,2,60,0|0|8,0:0|0:0|0:0,0:0:0:0:
261,146,8595,1,0,0:0:0:0:
112,247,8881,6,0,P|95:213|93:175,1,60,8|0,0:0|0:0,0:0:0:0:
68,104,9168,1,0,0:0:0:0:
148,63,9311,1,0,0:0:0:0:
229,100,9454,6,0,P|245:168|291:198,1,120,8|0,0:0|0:0,0:0:0:0:
311,116,9884,2,0,P|255:180|218:202,1,120,8|0,0:0|0:0,0:0:0:0:
155,254,10314,2,0,L|115:206,2,60,0|0|8,0:0|0:0|0:0,0:0:0:0:
149,344,10744,6,0,L|213:344,1,60
287,300,11030,1,0,0:0:0:0:
368,338,11174,2,0,L|352:178,1,120,8|0,0:0|0:0,0:0:0:0:
119,88,11890,2,0,L|143:160,1,60
88,219,12176,2,0,L|80:291,1,60,0|8,0:0|0:0,0:0:0:0:
256,192,12463,12,8,14326,0:0:0:0:
72,64,15042,5,0,0:0:0:0:
51,151,15185,1,0,0:0:0:0:
158,295,15472,1,0,0:0:0:0:
171,206,15615,2,0,P|235:166|275:190,1,120
397,56,16188,5,0,0:0:0:0:
429,139,16331,2,0,L|445:203,1,60
398,247,16582,2,0,L|382:319,1,60
275,329,16904,5,8,0:0:0:0:
94,333,17191,1,0,0:0:0:0:
46,256,17334,1,0,0:0:0:0:
135,248,17477,2,0,B|143:200|143:200|119:120,1,120,8|0,0:0|0:0,0:0:0:0:
189,70,17907,2,0,L|229:190,1,120,8|0,0:0|0:0,0:0:0:0:
363,65,18480,6,0,P|355:105|355:129,1,60,0|8,0:0|0:0,0:0:0:0:
425,180,18767,2,0,P|423:209|416:239,1,60
326,246,19053,1,0,0:0:0:0:
282,325,19197,2,0,P|218:301|170:325,2,120,8|0|8,0:0|0:0|0:0,0:0:0:0:
371,327,19913,1,8,0:0:0:0:
337,243,20056,1,0,0:0:0:0:
460,111,20343,6,0,P|435:88|399:78,1,60,8|0,0:0|0:0,0:0:0:0:
329,116,20629,2,0,P|326:169|329:182,1,60
399,151,20916,2,0,B|402:175|402:175|434:186|462:208|472:246,1,120,8|0,0:0|0:0,0:0:0:0:
381,259,21346,2,0,B|338:288|296:280|296:280|277:315,1,120,8|0,0:0|0:0,0:0:0:0:
142,106,22635,6,0,P|147:58|131:26,1,60,8|0,0:0|0:0,0:0:0:0:
99,162,22922,2,0,P|53:190|36:220,1,60
171,170,23208,2,0,P|235:194|303:146,1,120,8|0,0:0|0:0,0:0:0:0:
342,110,23638,2,0,P|276:86|229:107,1,120,8|0,0:0|0:0,0:0:0:0:
47,64,24497,6,0,P|79:56|119:64,1,60
193,81,24784,1,0,0:0:0:0:
280,103,24927,2,0,B|368:127|472:79|472:79|468:99|480:127,1,240
409,180,25644,1,0,0:0:0:0:
463,251,25787,2,0,L|471:315,1,60
381,324,26073,6,0,B|321:259|235:323|235:323|231:191|231:191|146:273|62:200,1,480
183,66,27506,1,0,0:0:0:0:
355,119,27793,1,0,0:0:0:0:
236,253,28079,1,8,0:0:0:0:
257,73,28366,1,8,0:0:0:0:
80,72,28795,5,0,0:0:0:0:
54,158,28939,2,0,B|70:206|70:206|62:270,1,105
143,340,29369,2,0,L|159:212,1,120
256,56,29942,5,0,0:0:0:0:
316,122,30085,2,0,P|349:119|367:108,1,45
420,47,30336,2,0,P|440:38|484:39,1,60
468,149,30658,6,0,P|449:196|473:260,1,120,8|0,0:0|0:0,0:0:0:0:
381,247,31088,1,0,0:0:0:0:
397,335,31231,2,0,B|333:327|333:327|272:343,1,120,8|0,0:0|0:0,0:0:0:0:
195,306,31661,2,0,L|133:322,2,60,0|8|0,0:0|0:0|0:0,0:0:0:0:
239,227,32091,2,0,L|301:211,2,60,0|0|8,0:0|0:0|0:0,0:0:0:0:
166,173,32520,2,0,L|104:189,2,60
210,94,32950,1,8,0:0:0:0:
144,144,34096,6,0,P|123:119|96:104,1,60,8|0,0:0|0:0,0:0:0:0:
208,184,34383,2,0,P|243:180|273:165,1,60
144,216,34669,2,0,P|105:255|104:320,1,120,8|0,0:0|0:0,0:0:0:0:
190,292,35099,2,0,B|242:317|242:317|267:314|282:301|282:301|306:309,1,120,8|0,0:0|0:0,0:0:0:0:
440,64,36389,6,0,L|368:64,1,60,8|0,0:0|0:0,0:0:0:0:
321,132,36675,1,0,0:0:0:0:
244,85,36818,2,0,L|172:85,1,60,0|8,0:0|0:0,0:0:0:0:
112,192,37248,5,0,0:0:0:0:
112,192,37391,2,0,B|88:240|88:240|96:312,1,120,8|0,0:0|0:0,0:0:0:0:
384,328,38251,6,0,P|400:296|400:264,1,60
400,181,38538,1,0,0:0:0:0:
327,234,38681,2,8,B|247:184|247:184|175:231|175:231|175:186|166:170,1,240
89,127,39397,2,0,P|65:164|55:186,1,60
63,271,39684,1,0,0:0:0:0:
63,271,39827,2,0,B|135:279|167:327|167:327|247:271|247:271|335:327|335:327|375:263|471:271,1,480,8|8,0:0|0:0,0:0:0:0:
441,186,41116,6,0,L|417:122,1,60
256,53,41546,2,0,L|256:181,1,120,8|0,0:0|0:0,0:0:0:0:
256,353,42119,1,4,0:0:0:0:
