osu file format v14

[General]
AudioFilename: audio.mp3
AudioLeadIn: 0
PreviewTime: 21584
Countdown: 0
SampleSet: Soft
StackLeniency: 0.3
Mode: 0
LetterboxInBreaks: 0
WidescreenStoryboard: 1

[Editor]
Bookmarks: 2459,6459,14459,22459,28459,30459
DistanceSpacing: 0.6
BeatDivisor: 4
GridSize: 32
TimelineZoom: 2.8

[Metadata]
Title:Fearless Hero (Cut Ver.)
TitleUnicode:Fearless Hero (Cut Ver.)
Artist:Antonio Banderas & Heitor Pereira
ArtistUnicode:Antonio Banderas & Heitor Pereira
Creator:defreeyay
Version:Renumi's Insane
Source:Puss in Boots: The Last Wish
Tags:el gato con botas dreamworks english pop folk country acoustic original soundtrack ost movie film animation male vocal vocalist cat short version aqilmanuar Renumi Ralsei hewwo dopaminos LimeTwist Kirishima-
BeatmapID:4003832
BeatmapSetID:1936670

[Difficulty]
HPDrainRate:5
CircleSize:3.7
OverallDifficulty:7
ApproachRate:8.5
SliderMultiplier:2.3
SliderTickRate:1

[Events]
//Background and Video events
Video,-1063,"video.mp4"
0,0,"bgmain.jpg",0,0
//Break Periods
//Storyboard Layer 0 (Background)
//Storyboard Layer 1 (Fail)
//Storyboard Layer 2 (Pass)
//Storyboard Layer 3 (Foreground)
//Storyboard Layer 4 (Overlay)
//Storyboard Sound Samples

[TimingPoints]
-1541,500,4,2,1,40,1,0
2459,-111.111111111111,4,2,1,40,0,0
10459,-111.111111111111,4,2,1,40,0,0
12459,-83.3333333333333,4,2,12,50,0,0
14459,-100,4,2,1,50,0,0
16209,-83.3333333333333,4,2,1,50,0,0
16459,-83.3333333333333,4,2,1,50,0,0
16834,-100,4,2,1,50,0,0
18209,-83.3333333333333,4,2,1,50,0,0
18459,-100,4,2,1,50,0,0
20209,-83.3333333333333,4,2,1,50,0,0
20834,-100,4,2,1,50,0,0
28459,-83.3333333333333,4,2,12,50,0,0
30459,-100,4,2,1,50,0,0
32209,-83.3333333333333,4,2,10,50,0,0
32459,-100,4,2,1,50,0,0
34209,-83.3333333333333,4,2,1,50,0,0
34709,-100,4,2,1,50,0,0
35209,-100,4,2,11,50,0,0
35459,-100,4,2,1,50,0,0
36209,-100,4,2,11,50,0,0
36459,-100,4,2,1,50,0,0
37709,-100,4,2,11,50,0,0
37834,-100,4,2,1,50,0,0
38209,-100,4,2,11,50,0,0
38334,-100,4,2,1,50,0,0
38459,480,4,2,2,55,1,0
38459,-83.3333333333333,4,2,2,55,0,0
39179,-83.3333333333333,4,2,12,55,0,0
39299,-83.3333333333333,4,2,2,55,0,0
40139,-83.3333333333333,4,2,12,55,0,0
40259,-83.3333333333333,4,2,2,55,0,0
41099,-83.3333333333333,4,2,12,55,0,0
41219,-83.3333333333333,4,2,2,55,0,0
42059,-83.3333333333333,4,2,12,55,0,0
42179,-83.3333333333333,4,2,2,55,0,0
42299,-83.3333333333333,4,2,2,60,0,1
43019,-83.3333333333333,4,2,12,60,0,1
43139,-83.3333333333333,4,2,2,60,0,1
43979,-83.3333333333333,4,2,12,60,0,1
44099,-83.3333333333333,4,2,2,60,0,1
44939,-83.3333333333333,4,2,12,60,0,1
45059,-83.3333333333333,4,2,2,60,0,1
45899,-83.3333333333333,4,2,12,60,0,1
46019,-83.3333333333333,4,2,2,60,0,1
46859,-83.3333333333333,4,2,12,60,0,1
46979,-83.3333333333333,4,2,2,60,0,1
47819,-83.3333333333333,4,2,12,60,0,1
48539,-83.3333333333333,4,2,2,60,0,1
48779,-83.3333333333333,4,2,12,60,0,1
49019,-83.3333333333333,4,2,2,60,0,1
49739,-83.3333333333333,4,2,12,60,0,1
49859,-83.3333333333333,4,2,2,60,0,1
50699,-83.3333333333333,4,2,12,60,0,1
50819,-83.3333333333333,4,2,2,60,0,1
51899,-100,4,2,2,55,0,0
52619,-100,4,2,12,55,0,0
52739,-100,4,2,2,55,0,0
53579,-100,4,2,12,55,0,0
53699,-100,4,2,2,55,0,0
54539,-100,4,2,12,55,0,0
54659,-100,4,2,2,55,0,0
55259,-83.3333333333333,4,2,2,55,0,0
55499,-83.3333333333333,4,2,12,55,0,0
55619,-83.3333333333333,4,2,2,55,0,0
55739,-83.3333333333333,4,2,2,60,0,1
56459,-83.3333333333333,4,2,12,60,0,1
56579,-83.3333333333333,4,2,2,60,0,1
57419,-83.3333333333333,4,2,12,60,0,1
57539,-83.3333333333333,4,2,2,60,0,1
57659,-76.9230769230769,4,2,2,60,0,1
58379,-76.9230769230769,4,2,12,60,0,1
58499,-76.9230769230769,4,2,2,60,0,1
58859,-76.9230769230769,4,2,12,60,0,1
58979,-76.9230769230769,4,2,2,60,0,1
59339,-76.9230769230769,4,2,12,60,0,1
59459,-76.9230769230769,4,2,2,60,0,1
59579,-500,4,2,2,60,0,0
60539,-500,4,2,2,40,0,0
61499,-500,4,2,2,20,0,0
62459,-500,4,2,2,10,0,0
63419,-500,4,2,2,5,0,0

[Colours]
Combo1 : 148,206,70
Combo2 : 240,185,211
Combo3 : 247,232,179
Combo4 : 215,116,59
Combo5 : 199,75,39
Combo6 : 158,160,209

[HitObjects]
80,216,1709,5,2,0:0:0:0:
80,216,1959,1,2,0:0:0:0:
80,216,2209,1,2,0:0:0:0:
215,91,2459,6,0,P|270:82|354:75,1,103.499996841431,2|0,0:0|0:0,0:0:0:0:
436,137,2834,2,0,P|461:143|496:155,1,51.7499984207154,2|0,0:0|0:0,0:0:0:0:
382,243,3084,1,2,0:0:0:0:
382,243,3334,2,0,P|327:234|243:227,1,103.499996841431,2|0,0:0|0:0,0:0:0:0:
197,301,3709,1,2,0:0:0:0:
197,301,3959,1,2,0:0:0:0:
197,301,4209,1,2,0:0:0:0:
31,131,4459,6,0,P|51:90|91:43,1,103.499996841431,2|0,0:0|0:0,0:0:0:0:
215,91,4834,2,0,P|231:115|245:153,1,51.7499984207154,2|0,0:0|0:0,0:0:0:0:
131,244,5084,1,2,0:0:0:0:
131,244,5334,2,0,P|85:247|24:236,1,103.499996841431,2|0,0:0|0:0,0:0:0:0:
136,142,5709,1,2,0:0:0:0:
136,142,5959,2,0,P|166:141|197:146,1,51.7499984207154,2|0,0:0|0:0,0:0:0:0:
271,179,6209,2,0,P|292:200|309:226,1,51.7499984207154,2|0,0:0|0:0,0:0:0:0:
356,317,6459,6,0,P|372:273|407:225,1,103.499996841431,2|0,0:0|0:0,0:0:0:0:
460,217,6834,1,0,0:0:0:0:
460,217,6959,2,0,L|450:87,1,103.499996841431,2|0,0:0|0:0,0:0:0:0:
280,39,7459,2,0,L|266:149,1,103.499996841431,2|0,0:0|0:0,0:0:0:0:
427,93,7959,1,2,0:0:0:0:
427,93,8209,1,0,0:0:0:0:
277,185,8459,6,0,P|238:219|201:273,1,103.499996841431,2|0,0:0|0:0,0:0:0:0:
201,313,8834,1,2,0:0:0:0:
201,313,8959,2,0,L|216:369,1,51.7499984207154
91,195,9209,1,2,0:0:0:0:
91,195,9709,1,2,0:0:0:0:
43,85,9959,2,0,P|76:76|117:70,1,51.7499984207154,2|0,0:0|0:0,0:0:0:0:
202,78,10209,2,0,P|227:83|252:90,1,51.7499984207154,2|0,0:0|0:0,0:0:0:0:
353,141,10459,5,2,0:0:0:0:
353,141,10959,1,2,0:0:0:0:
339,313,11459,1,2,0:0:0:0:
339,313,11959,1,2,0:0:0:0:
353,141,12459,6,0,P|318:55|313:-7,1,137.999995788574,2|0,3:2|0:0,0:0:0:0:
159,243,12834,2,0,P|194:329|199:391,1,137.999995788574,2|0,3:2|0:0,0:0:0:0:
255,192,13209,2,0,P|252:173|244:146,8,34.4999989471436,6|0|0|0|0|0|0|0|0,3:2|0:0|0:0|0:0|0:0|0:0|0:0|0:0|0:0,0:0:0:0:
289,229,13834,1,0,3:2:0:0:
236,322,13959,2,0,P|187:347|164:360,1,68.9999978942872,0|0,3:2|0:0,0:0:0:0:
109,233,14209,2,0,P|78:216|47:201,1,68.9999978942872,0|0,3:2|0:0,0:0:0:0:
11,82,14459,5,0,3:2:0:0:
11,82,14584,2,0,P|46:74|100:64,1,57.5,2|8,0:0|0:2,0:0:0:0:
185,28,14834,2,0,P|229:43|295:60,1,115,2|2,3:2|0:0,0:0:0:0:
397,11,15209,1,8,0:2:0:0:
420,123,15334,2,0,P|372:147|314:182,1,115,2|2,0:0|0:0,0:0:0:0:
241,249,15709,2,0,P|207:189|189:159,1,57.5,10|0,0:2|3:2,0:0:0:0:
73,311,15959,1,2,0:0:0:0:
73,311,16209,6,0,P|91:276|111:243,1,68.9999978942872,10|0,0:2|0:0,0:0:0:0:
195,61,16459,6,0,L|214:211,1,137.999995788574,0|8,3:2|0:2,0:0:0:0:
276,318,16834,2,0,P|331:280|393:266,1,115,0|0,3:2|0:0,0:0:0:0:
494,242,17209,1,8,0:2:0:0:
494,242,17459,2,0,P|450:193|432:178,1,57.5,0|0,3:2|0:0,0:0:0:0:
367,142,17709,1,10,0:2:0:0:
380,365,17959,1,2,0:0:0:0:
367,142,18209,2,0,P|411:93|433:74,1,68.9999978942872,8|0,0:2|0:0,0:0:0:0:
261,71,18459,5,0,3:2:0:0:
261,71,18584,2,0,L|179:56,1,57.5,2|8,0:0|0:2,0:0:0:0:
113,136,18834,2,0,P|56:144|-20:154,2,115,2|2|2,3:2|0:0|0:0,0:0:0:0:
233,170,19459,2,0,P|245:195|257:221,1,57.5,2|2,3:2|0:0,0:0:0:0:
353,289,19709,2,0,P|338:314|328:340,1,57.5,10|0,0:2|3:2,0:0:0:0:
153,286,19959,1,2,0:0:0:0:
153,286,20209,6,0,P|167:311|185:348,1,68.9999978942872,10|0,0:2|0:0,0:0:0:0:
9,254,20459,6,0,L|39:86,1,137.999995788574,0|8,3:2|0:2,0:0:0:0:
143,41,20834,2,0,P|164:98|186:166,1,115,0|0,3:2|0:0,0:0:0:0:
298,161,21209,1,8,0:2:0:0:
298,161,21459,2,0,L|390:146,1,57.5,0|0,3:2|0:0,0:0:0:0:
480,209,21709,1,10,0:2:0:0:
456,293,21834,1,0,3:2:0:0:
367,291,21959,2,0,P|295:315|273:326,1,57.5,2|0,0:0|0:0,0:0:0:0:
195,367,22209,2,0,P|167:357|140:350,1,57.5,10|0,0:2|0:0,0:0:0:0:
10,285,22459,6,0,P|81:266|147:236,1,115,2|8,3:2|0:2,0:0:0:0:
199,191,22834,1,0,3:2:0:0:
135,122,22959,1,2,3:2:0:0:
135,122,23459,2,0,P|206:141|272:171,1,115,2|8,0:0|0:2,0:0:0:0:
337,200,23834,1,0,0:0:0:0:
260,268,23959,1,2,0:0:0:0:
260,268,24459,6,0,L|246:390,1,115,2|8,3:2|0:2,0:0:0:0:
352,383,24834,1,2,3:2:0:0:
369,281,24959,2,0,P|364:248|356:211,1,57.5,0|0,3:2|0:0,0:0:0:0:
316,129,25209,1,10,0:2:0:0:
316,129,25709,1,10,0:2:0:0:
88,105,25959,1,2,0:0:0:0:
223,71,26209,1,10,0:2:0:0:
216,233,26459,6,0,P|155:226|85:215,1,115,2|8,3:2|0:2,0:0:0:0:
5,268,26834,1,0,3:2:0:0:
58,363,26959,1,2,3:2:0:0:
58,363,27459,2,0,P|123:324|177:311,1,115,2|8,0:0|0:2,0:0:0:0:
257,305,27834,1,0,0:0:0:0:
321,376,27959,1,2,0:0:0:0:
321,376,28459,6,0,P|331:312|336:231,1,137.999995788574,2|0,3:2|0:0,0:0:0:0:
384,72,28834,2,0,P|323:95|250:131,1,137.999995788574,2|0,3:2|0:0,0:0:0:0:
163,200,29209,2,0,P|134:180|107:159,1,68.9999978942872,2|0,3:2|0:0,0:0:0:0:
128,312,29459,6,0,P|188:288|261:252,1,137.999995788574,4|0,3:2|0:0,0:0:0:0:
342,192,29834,1,0,3:2:0:0:
420,254,29959,2,0,P|446:319|454:351,1,68.9999978942872,0|0,3:2|0:0,0:0:0:0:
484,170,30209,2,0,P|495:137|509:106,1,68.9999978942872,0|0,3:2|0:0,0:0:0:0:
363,44,30459,5,0,3:2:0:0:
363,44,30584,2,0,L|241:27,1,115,2|2,0:0|3:2,0:0:0:0:
131,31,30959,1,2,3:2:0:0:
85,119,31084,1,2,0:0:0:0:
148,183,31209,2,0,P|180:178|223:172,1,57.5,10|0,0:2|0:0,0:0:0:0:
314,289,31459,2,0,P|274:275|233:266,1,57.5,10|8,3:3|0:3,0:0:0:0:
157,334,31709,1,10,0:2:0:0:
157,334,31834,1,8,3:0:0:0:
68,267,31959,1,10,3:0:0:0:
68,267,32209,6,0,P|49:298|34:331,1,68.9999978942872,8|0,0:2|0:0,0:0:0:0:
148,183,32459,5,8,3:3:0:0:
148,183,32584,2,0,L|127:94,1,57.5,10|8,0:3|0:2,0:0:0:0:
257,24,32834,2,0,P|241:80|236:104,1,57.5,10|8,3:0|3:0,0:0:0:0:
243,194,33084,2,0,P|310:166|390:171,1,115,2|8,0:0|0:3,0:0:0:0:
351,163,33459,2,0,P|378:172|404:184,1,57.5,2|8,3:2|0:3,0:0:0:0:
512,274,33709,2,0,P|484:283|458:295,1,57.5,10|8,0:2|0:3,0:0:0:0:
332,375,33959,1,10,3:0:0:0:
332,375,34209,6,0,P|348:302|359:268,1,68.9999978942872,8|0,0:2|0:0,0:0:0:0:
192,181,34459,5,4,3:3:0:0:
196,185,34709,1,8,0:0:0:0:
196,185,34834,2,0,P|208:227|219:308,1,115,2|2,3:0|0:0,0:0:0:0:
154,368,35209,1,10,0:0:0:0:
73,162,35459,1,6,3:3:0:0:
0,341,35709,1,10,0:0:0:0:
0,341,35834,1,2,3:0:0:0:
0,341,35959,2,0,L|71:334,1,57.5,2|0,3:0|0:0,0:0:0:0:
176,289,36209,1,8,0:0:0:0:
330,201,36459,6,0,P|372:194|416:192,2,76.6666666666667,4|4|4,3:0|0:3|0:3,0:0:0:0:
186,197,36959,6,0,P|191:171|195:140,1,57.5,6|0,3:0|0:0,0:0:0:0:
276,282,37209,1,10,0:0:0:0:
276,282,37459,1,6,3:0:0:0:
304,283,37584,1,6,0:3:0:0:
332,292,37709,1,10,0:0:0:0:
356,307,37834,1,4,0:3:0:0:
389,332,37959,1,6,3:0:0:0:
381,292,38084,1,4,0:3:0:0:
373,252,38209,1,8,0:0:0:0:
366,213,38334,1,4,0:3:0:0:
358,173,38459,5,12,3:2:0:0:
358,173,38579,2,0,P|413:132|473:98,1,137.999995788574,8|8,3:0|3:0,0:0:0:0:
292,64,38939,2,0,P|190:43|152:27,1,137.999995788574,8|8,3:0|0:0,0:0:0:0:
4,183,39419,1,8,3:0:0:0:
4,183,39539,2,0,L|39:342,1,137.999995788574,8|8,3:0|3:0,0:0:0:0:
165,135,39899,2,0,P|153:167|144:200,1,68.9999978942872,8|0,3:0|0:0,0:0:0:0:
165,307,40139,1,8,0:0:0:0:
375,233,40379,5,8,3:0:0:0:
375,233,40499,2,0,L|528:257,1,137.999995788574,8|8,3:0|3:0,0:0:0:0:
512,134,40859,2,0,P|465:138|420:148,1,68.9999978942872,8|0,3:0|0:0,0:0:0:0:
415,34,41099,1,8,0:0:0:0:
415,34,41339,2,0,L|426:-13,2,34.4999989471436,8|8|8,3:0|3:0|3:0,0:0:0:0:
316,89,41579,1,10,0:0:0:0:
316,89,41699,1,8,3:0:0:0:
316,89,41819,2,0,P|307:50|294:3,1,68.9999978942872,10|0,3:0|0:0,0:0:0:0:
150,64,42059,2,0,P|180:81|210:98,1,68.9999978942872,10|0,0:0|0:0,0:0:0:0:
93,173,42299,5,10,3:0:0:0:
93,173,42419,2,0,P|81:243|72:336,1,137.999995788574,8|8,3:0|3:0,0:0:0:0:
217,382,42779,2,0,P|229:312|238:219,1,137.999995788574,10|8,3:0|0:0,0:0:0:0:
236,245,43259,2,0,P|311:265|340:275,1,68.9999978942872,10|8,3:0|3:0,0:0:0:0:
403,182,43499,2,0,P|395:148|385:115,1,68.9999978942872,8|8,0:0|3:0,0:0:0:0:
290,19,43739,1,10,3:0:0:0:
290,19,43979,1,8,0:0:0:0:
275,129,44099,1,0,0:0:0:0:
185,75,44219,5,10,3:0:0:0:
185,75,44339,2,0,P|86:59|23:58,1,137.999995788574,8|10,3:0|3:0,0:0:0:0:
142,176,44699,2,0,P|207:186|248:187,1,68.9999978942872,8|0,3:0|0:0,0:0:0:0:
325,241,44939,2,0,P|321:275|314:309,1,68.9999978942872,10|0,0:0|0:0,0:0:0:0:
124,348,45179,1,8,3:0:0:0:
124,348,45299,1,8,3:0:0:0:
124,348,45419,2,0,P|127:313|134:279,1,68.9999978942872,10|8,0:0|3:0,0:0:0:0:
242,204,45659,2,0,P|236:169|229:136,1,68.9999978942872,10|0,3:0|0:0,0:0:0:0:
149,62,45899,1,10,0:0:0:0:
149,62,46139,6,0,P|89:74|-1:42,1,137.999995788574,10|8,3:0|0:0,0:0:0:0:
3,159,46499,1,8,3:0:0:0:
115,168,46619,1,14,3:0:0:0:
115,168,47099,2,0,P|161:241|175:299,1,137.999995788574,10|8,3:0|0:0,0:0:0:0:
248,381,47459,1,8,3:0:0:0:
309,288,47579,1,14,3:0:0:0:
309,288,48059,6,0,P|395:290|475:305,1,137.999995788574,2|0,3:0|0:0,0:0:0:0:
297,161,48419,2,0,P|211:159|131:144,1,137.999995788574,2|0,3:0|0:0,0:0:0:0:
384,203,48779,2,0,P|393:134|393:37,2,137.999995788574,2|0|8,3:0|3:0|0:0,0:0:0:0:
345,229,49379,1,8,3:0:0:0:
345,229,49499,2,0,P|308:289|294:317,1,68.9999978942872,8|0,3:0|0:0,0:0:0:0:
209,346,49739,2,0,L|101:337,1,68.9999978942872,8|0,0:0|3:0,0:0:0:0:
0,259,49979,6,0,P|89:241|149:229,1,137.999995788574,8|8,3:0|0:0,0:0:0:0:
199,124,50339,1,8,3:0:0:0:
199,124,50459,2,0,P|131:116|43:113,1,137.999995788574,8|8,3:0|0:0,0:0:0:0:
318,157,50939,2,0,P|309:88|294:21,1,137.999995788574,8|8,3:0|0:0,0:0:0:0:
400,0,51298,1,8,3:0:0:0:
400,0,51418,2,0,P|419:28|434:61,1,68.9999978942872
473,161,51659,1,8,0:0:0:0:
200,124,51899,5,8,3:0:0:0:
207,241,52139,1,8,0:0:0:0:
207,241,52259,1,8,0:3:0:0:
207,241,52379,1,0,3:0:0:0:
210,354,52619,1,8,0:0:0:0:
210,354,52739,1,0,0:0:0:0:
210,354,52859,1,8,3:0:0:0:
87,328,53099,2,0,P|80:358|72:400,1,57.5,8|8,0:0|3:0,0:0:0:0:
14,214,53339,6,0,P|38:199|63:184,1,57.5
96,83,53579,2,0,P|120:97|145:112,1,57.5,8|0,0:0|0:0,0:0:0:0:
251,173,53819,1,8,3:0:0:0:
251,173,53939,1,0,0:0:0:0:
251,173,54059,2,0,P|263:139|286:90,1,57.5,8|8,0:0|0:3,0:0:0:0:
356,41,54299,2,0,L|348:-5,2,38.3333333333333,8|0|0,3:0|0:0|0:0,0:0:0:0:
447,99,54539,1,8,0:0:0:0:
447,99,54659,2,0,L|470:228,1,115
391,301,55019,1,8,0:0:0:0:
391,301,55259,2,0,P|337:262|314:251,1,68.9999978942872
207,242,55499,2,0,P|177:260|151:282,1,68.9999978942872,8|0,0:0|0:0,0:0:0:0:
14,270,55739,6,0,L|198:286,1,137.999995788574,8|8,3:0|0:0,0:0:0:0:
263,251,56099,1,8,3:0:0:0:
204,155,56219,2,0,P|128:169|54:188,1,137.999995788574,8|8,3:0|0:0,0:0:0:0:
1,281,56579,1,0,0:0:0:0:
96,345,56699,2,0,P|172:331|246:312,1,137.999995788574,8|8,3:0|0:0,0:0:0:0:
327,242,57059,1,8,3:0:0:0:
425,300,57179,1,8,3:0:0:0:
425,300,57419,2,0,P|451:331|475:368,1,68.9999978942872,8|0,0:0|0:0,0:0:0:0:
511,177,57659,6,0,P|445:167|332:140,1,149.499993156433,0|8,3:0|0:0,0:0:0:0:
284,49,58019,1,8,3:0:0:0:
220,157,58139,2,0,P|183:166|146:172,1,74.7499965782167,8|0,3:0|0:0,0:0:0:0:
0,81,58379,2,0,P|72:64|146:53,1,149.499993156433,8|0,0:0|3:0,0:0:0:0:
146,53,58859,2,0,L|182:154,1,74.7499965782167,8|0,0:0|0:0,0:0:0:0:
242,279,59099,2,0,P|280:207|300:185,1,74.7499965782167,0|8,3:0|0:3,0:0:0:0:
439,157,59339,1,8,0:0:0:0:
73,227,59579,5,4,3:2:0:0:
256,192,60539,12,0,64379,0:0:0:0:
