osu file format v14

[General]
AudioFilename: audio.mp3
AudioLeadIn: 0
PreviewTime: 21584
Countdown: 0
SampleSet: Soft
StackLeniency: 0.7
Mode: 0
LetterboxInBreaks: 0
WidescreenStoryboard: 1

[Editor]
DistanceSpacing: 0.6
BeatDivisor: 8
GridSize: 32
TimelineZoom: 2.26

[Metadata]
Title:Fearless Hero (Cut Ver.)
TitleUnicode:Fearless Hero (Cut Ver.)
Artist:Antonio Banderas & Heitor Pereira
ArtistUnicode:Antonio Banderas & Heitor Pereira
Creator:defreeyay
Version:Legendary Puss
Source:Puss in Boots: The Last Wish
Tags:el gato con botas dreamworks english pop folk country acoustic original soundtrack ost movie film animation male vocal vocalist cat short version aqilmanuar Renumi Ralsei hewwo dopaminos LimeTwist Kirishima-
BeatmapID:4160211
BeatmapSetID:1936670

[Difficulty]
HPDrainRate:5
CircleSize:4
OverallDifficulty:8.4
ApproachRate:9.1
SliderMultiplier:2.8
SliderTickRate:1

[Events]
//Background and Video events
Video,-1063,"video.mp4"
0,0,"bgsword.jpg",0,0
//Break Periods
//Storyboard Layer 0 (Background)
//Storyboard Layer 1 (Fail)
//Storyboard Layer 2 (Pass)
//Storyboard Layer 3 (Foreground)
//Storyboard Layer 4 (Overlay)
//Storyboard Sound Samples

[TimingPoints]
-1541,500,4,2,1,40,1,0
2459,-125,4,2,1,40,0,0
3334,-142.857142857143,4,2,1,40,0,0
3709,-125,4,2,1,40,0,0
5334,-142.857142857143,4,2,1,40,0,0
6459,-111.111111111111,4,2,1,40,0,0
8459,-105.263157894737,4,2,1,40,0,0
8834,-200,4,2,1,40,0,0
10459,-111.111111111111,4,2,1,40,0,0
12459,-66.6666666666667,4,2,12,50,0,0
13209,-100,4,2,12,50,0,0
14459,-100,4,2,1,50,0,0
16209,-76.9230769230769,4,2,1,50,0,0
16396,-76.9230769230769,4,2,1,5,0,0
16459,-100,4,2,1,50,0,0
16646,-100,4,2,1,5,0,0
16709,-100,4,2,1,50,0,0
17709,-76.9230769230769,4,2,1,50,0,0
17896,-76.9230769230769,4,2,1,5,0,0
17959,-76.9230769230769,4,2,1,50,0,0
18209,-76.9230769230769,4,2,1,50,0,0
18396,-76.9230769230769,4,2,1,5,0,0
18459,-100,4,2,1,50,0,0
19959,-76.9230769230769,4,2,1,50,0,0
20459,-100,4,2,1,50,0,0
20646,-100,4,2,1,5,0,0
20709,-100,4,2,1,50,0,0
22459,-83.3333333333333,4,2,1,50,0,0
22959,-90.9090909090909,4,2,1,50,0,0
24459,-76.9230769230769,4,2,1,50,0,0
25209,-90.9090909090909,4,2,1,50,0,0
26459,-83.3333333333333,4,2,1,50,0,0
26959,-90.9090909090909,4,2,1,50,0,0
28459,-66.6666666666667,4,2,12,50,0,0
29209,-58.8235294117647,4,2,12,50,0,0
29459,-55.5555555555556,4,2,12,50,0,0
30459,-95.2380952380952,4,2,1,50,0,0
32209,-76.9230769230769,4,2,10,50,0,0
32396,-76.9230769230769,4,2,10,5,0,0
32459,-95.2380952380952,4,2,1,50,0,0
34209,-76.9230769230769,4,2,1,50,0,0
34396,-76.9230769230769,4,2,1,5,0,0
34459,-90.9090909090909,4,2,1,50,0,0
34709,-95.2380952380952,4,2,1,50,0,0
35209,-76.9230769230769,4,2,11,50,0,0
35396,-76.9230769230769,4,2,11,5,0,0
35459,-76.9230769230769,4,2,1,50,0,0
35709,-95.2380952380952,4,2,1,50,0,0
36209,-76.9230769230769,4,2,11,50,0,0
36396,-76.9230769230769,4,2,11,5,0,0
36459,-95.2380952380952,4,2,1,50,0,0
37709,-95.2380952380952,4,2,11,50,0,0
37834,-95.2380952380952,4,2,1,50,0,0
38209,-95.2380952380952,4,2,11,50,0,0
38334,-95.2380952380952,4,2,1,50,0,0
38459,480,4,2,2,55,1,0
38459,-100,4,2,2,55,0,0
39179,-100,4,2,12,55,0,0
39299,-100,4,2,2,55,0,0
40139,-100,4,2,12,55,0,0
40259,-100,4,2,2,55,0,0
41099,-100,4,2,12,55,0,0
41219,-100,4,2,2,55,0,0
41819,-90.9090909090909,4,2,2,55,0,0
42059,-86.9565217391304,4,2,12,55,0,0
42179,-86.9565217391304,4,2,2,55,0,0
42299,-76.9230769230769,4,2,2,60,0,1
42659,-83.3333333333333,4,2,2,60,0,1
43019,-83.3333333333333,4,2,12,60,0,1
43139,-83.3333333333333,4,2,2,60,0,1
43979,-83.3333333333333,4,2,12,60,0,1
44099,-83.3333333333333,4,2,2,60,0,1
44939,-83.3333333333333,4,2,12,60,0,1
45059,-83.3333333333333,4,2,2,60,0,1
45899,-83.3333333333333,4,2,12,60,0,1
46019,-83.3333333333333,4,2,2,60,0,1
46139,-76.9230769230769,4,2,2,60,0,1
46859,-76.9230769230769,4,2,12,60,0,1
46979,-76.9230769230769,4,2,2,60,0,1
47099,-83.3333333333333,4,2,2,60,0,1
47579,-71.4285714285714,4,2,2,60,0,1
47819,-71.4285714285714,4,2,12,60,0,1
48059,-66.6666666666667,4,2,12,60,0,1
48539,-66.6666666666667,4,2,2,60,0,1
48779,-76.9230769230769,4,2,12,60,0,1
49019,-76.9230769230769,4,2,2,60,0,1
49259,-83.3333333333333,4,2,2,60,0,1
49739,-83.3333333333333,4,2,12,60,0,1
49859,-83.3333333333333,4,2,2,60,0,1
50459,-90.9090909090909,4,2,2,60,0,1
50699,-90.9090909090909,4,2,12,60,0,1
50819,-90.9090909090909,4,2,2,60,0,1
50939,-100,4,2,2,60,0,1
51419,-111.111111111111,4,2,2,60,0,1
51899,-100,4,2,2,55,0,0
52619,-100,4,2,12,55,0,0
52739,-100,4,2,2,55,0,0
53519,-100,4,2,2,5,0,0
53579,-100,4,2,12,55,0,0
53699,-100,4,2,2,55,0,0
53759,-100,4,2,2,5,0,0
53819,-100,4,2,2,55,0,0
54539,-100,4,2,12,55,0,0
54659,-100,4,2,2,55,0,0
55499,-100,4,2,12,55,0,0
55619,-100,4,2,2,55,0,0
55739,-76.9230769230769,4,2,2,60,0,1
56459,-76.9230769230769,4,2,12,60,0,1
56579,-76.9230769230769,4,2,2,60,0,1
57419,-76.9230769230769,4,2,12,60,0,1
57539,-76.9230769230769,4,2,2,60,0,1
57659,-66.6666666666667,4,2,2,60,0,1
58379,-76.9230769230769,4,2,12,60,0,1
58499,-76.9230769230769,4,2,2,60,0,1
58859,-76.9230769230769,4,2,12,60,0,1
58979,-76.9230769230769,4,2,2,60,0,1
59339,-76.9230769230769,4,2,12,60,0,1
59459,-76.9230769230769,4,2,2,60,0,1
59579,-500,4,2,2,60,0,0
60539,-500,4,2,2,40,0,0
61499,-500,4,2,2,20,0,0
62459,-500,4,2,2,10,0,0
63419,-500,4,2,2,5,0,0

[Colours]
Combo1 : 158,160,209
Combo2 : 240,185,211
Combo3 : 247,232,179
Combo4 : 215,116,59
Combo5 : 199,75,39
Combo6 : 139,73,115

[HitObjects]
120,326,1709,5,2,0:0:0:0:
41,278,1959,1,2,0:0:0:0:
88,183,2209,1,2,0:0:0:0:
214,280,2459,6,0,L|283:270,1,56,2|0,0:0|0:0,0:0:0:0:
346,335,2709,1,0,0:0:0:0:
346,335,2834,2,0,L|404:340,1,56,2|0,0:0|0:0,0:0:0:0:
474,268,3084,2,0,P|485:239|473:198,1,56,2|0,0:0|0:0,0:0:0:0:
339,171,3334,6,0,P|344:201|401:229,1,97.9999970092774,2|0,0:0|0:0,0:0:0:0:
465,119,3709,1,2,0:0:0:0:
465,119,3959,1,2,0:0:0:0:
374,47,4209,1,2,0:0:0:0:
264,112,4459,6,0,P|233:112|192:94,1,56,2|0,0:0|0:0,0:0:0:0:
115,52,4709,1,0,0:0:0:0:
115,52,4834,2,0,P|110:80|103:106,1,56,2|0,0:0|0:0,0:0:0:0:
35,191,5084,2,0,P|40:219|46:245,1,56,2|0,0:0|0:0,0:0:0:0:
117,341,5334,6,0,P|187:322|262:312,1,146.999995513916,2|2,0:0|0:0,0:0:0:0:
420,361,5959,1,2,0:0:0:0:
367,275,6209,1,2,0:0:0:0:
441,156,6459,6,0,B|466:167|486:196|486:196|520:156|521:73|447:23,2,251.999992309571,2|2|2,0:0|0:0|0:0,0:0:0:0:
280,122,7709,1,0,0:0:0:0:
280,122,7834,1,0,0:0:0:0:
280,122,7959,1,2,0:0:0:0:
374,75,8209,1,0,0:0:0:0:
289,237,8459,6,0,B|251:218|209:229|224:247|185:252|151:235,1,132.999996448517,2|0,0:0|0:0,0:0:0:0:
141,327,8834,2,0,P|170:333|214:341,1,70,2|0,0:0|0:0,0:0:0:0:
291,353,9209,1,2,0:0:0:0:
33,260,9709,5,2,0:0:0:0:
86,188,9959,1,2,0:0:0:0:
50,108,10209,1,2,0:0:0:0:
129,15,10459,6,0,B|281:3|215:83|372:75,1,251.999992309571,2|2,0:0|0:0,0:0:0:0:
466,266,11459,2,0,B|314:254|380:334|223:326,1,251.999992309571,2|2,0:0|0:0,0:0:0:0:
160,103,12459,6,0,B|141:74|84:100|87:203|178:151|183:263,1,210.000008010865,2|0,3:2|0:0,0:0:0:0:
246,90,12834,2,0,B|255:59|316:68|342:168|241:143|263:235,1,210.000008010865,2|0,3:2|0:0,0:0:0:0:
194,35,13209,6,0,L|190:0,8,35,6|0|0|0|0|0|0|0|0,3:2|0:0|0:0|0:0|0:0|0:0|0:0|0:0|0:0,0:0:0:0:
38,122,13834,1,0,3:2:0:0:
87,42,13959,1,0,3:2:0:0:
16,214,14209,1,0,3:2:0:0:
111,327,14459,5,0,3:2:0:0:
133,344,14584,2,0,B|191:340|191:340|210:354|210:354|270:350,1,140,2|2,0:0|3:2,0:0:0:0:
425,309,14959,1,0,0:0:0:0:
360,251,15084,2,0,P|365:211|370:171,1,70,2|8,0:0|0:2,0:0:0:0:
414,31,15334,5,2,0:0:0:0:
375,48,15459,1,0,3:2:0:0:
333,49,15584,1,2,0:0:0:0:
293,34,15709,2,0,P|255:22|207:32,1,70,10|0,0:2|3:2,0:0:0:0:
203,176,15959,2,0,P|232:149|247:102,1,70,2|0,0:0|0:0,0:0:0:0:
99,55,16209,6,0,B|72:30|31:69|58:117|96:94|98:154,1,136.499993751526,10|0,0:2|0:0,0:0:0:0:
103,179,16459,6,0,P|91:231|70:297,1,105,0|0,3:2|0:0,0:0:0:0:
66,314,16709,1,8,0:2:0:0:
191,207,16834,2,0,P|179:259|146:366,1,140,0|0,3:2|0:0,0:0:0:0:
285,278,17209,6,0,P|320:280|359:308,1,70,8|0,0:2|0:0,0:0:0:0:
329,379,17459,2,0,P|292:375|254:348,1,70,0|0,3:2|0:0,0:0:0:0:
283,178,17709,6,0,P|327:191|422:218,1,136.499993751526,10|0,0:2|0:0,0:0:0:0:
458,226,17959,2,0,B|447:181|447:181|469:139,1,90.9999958343508,2|0,0:0|0:0,0:0:0:0:
388,8,18209,6,0,B|415:-17|456:22|429:70|391:47|389:107,1,136.499993751526,8|0,0:2|0:0,0:0:0:0:
373,123,18459,5,0,3:2:0:0:
303,60,18584,2,0,B|269:39|228:53|242:69|199:76|165:54,1,140,2|2,0:0|3:2,0:0:0:0:
57,169,18959,1,2,0:0:0:0:
32,82,19084,2,0,P|17:132|4:231,1,140,2|2,0:0|0:0,0:0:0:0:
111,342,19459,5,2,3:2:0:0:
141,312,19584,1,2,0:0:0:0:
152,271,19709,2,0,P|118:254|68:256,1,70,10|0,0:2|3:2,0:0:0:0:
220,355,19959,6,0,B|287:338|287:338|250:120,1,272.999987503052,2|0,0:0|0:0,0:0:0:0:
402,16,20459,6,0,P|356:5|305:30,1,105,0|0,3:2|0:0,0:0:0:0:
283,58,20709,1,8,0:2:0:0:
433,103,20834,2,0,B|452:96|466:83|466:83|443:188,1,140,0|0,3:2|0:0,0:0:0:0:
337,271,21209,6,0,P|300:267|262:240,1,70,8|0,0:2|0:0,0:0:0:0:
296,165,21459,2,0,P|331:167|370:195,1,70,0|0,3:2|0:0,0:0:0:0:
171,228,21709,5,10,0:2:0:0:
116,231,21834,1,0,3:2:0:0:
61,235,21959,1,2,0:0:0:0:
219,122,22209,1,10,0:2:0:0:
369,342,22459,6,0,B|395:348|435:318|431:253|376:257|420:183,1,167.999994873047,2|8,3:2|0:2,0:0:0:0:
297,80,22834,1,0,3:2:0:0:
409,38,22959,2,0,P|304:29|161:15,1,231.000007049561,2|0,3:2|0:0,0:0:0:0:
0,5,23459,6,0,B|57:-48|141:26|87:146|1:69|10:210,1,308.000009399414,2|2,0:0|0:0,0:0:0:0:
164,359,24209,1,8,0:2:0:0:
177,371,24334,1,0,0:0:0:0:
256,250,24459,6,0,B|214:235|174:260|174:260|169:256|169:256|126:283|82:274,1,181.999991668702,2|8,3:2|0:2,0:0:0:0:
263,372,24834,1,2,3:2:0:0:
276,349,24959,2,0,P|320:355|366:359,1,90.9999958343508,0|0,3:2|0:0,0:0:0:0:
506,211,25209,6,0,B|466:206|466:206|441:237|441:237|457:311|473:386,1,231.000007049561,10|0,0:2|0:0,0:0:0:0:
256,250,25709,6,0,B|266:229|262:208|262:208|276:225|303:230,1,77.0000023498536,10|0,0:2|0:0,0:0:0:0:
117,298,25959,2,0,B|107:277|111:256|111:256|97:273|70:278,1,77.0000023498536,2|0,0:0|0:0,0:0:0:0:
137,138,26209,2,0,B|147:117|143:96|143:96|157:113|184:118,1,77.0000023498536,10|0,0:2|0:0,0:0:0:0:
202,328,26459,6,0,B|242:352|288:338|276:320|322:312|363:335,1,167.999994873047,2|8,3:2|0:2,0:0:0:0:
507,234,26834,1,0,3:2:0:0:
485,128,26959,2,0,B|428:155|363:129|382:105|318:86|258:114,1,231.000007049561,2|0,3:2|0:0,0:0:0:0:
77,205,27459,6,0,B|126:265|219:203|182:77|86:141|115:3,1,308.000009399414,2|2,0:0|0:0,0:0:0:0:
7,252,28209,1,8,0:2:0:0:
0,270,28334,1,0,0:0:0:0:
143,330,28459,6,0,B|208:321|188:382|254:410|330:343|276:279|233:285,1,210.000008010865,2|0,3:2|0:0,0:0:0:0:
403,180,28834,2,0,B|399:168|352:126|289:189|320:252|375:234|373:302,1,210.000008010865,2|0,3:2|0:0,0:0:0:0:
234,197,29209,6,0,P|241:138|280:94,1,119.000002269745,2|0,3:2|0:0,0:0:0:0:
461,4,29459,6,0,B|488:45|488:45|371:8|263:14,1,251.999992309571,4|0,3:2|0:0,0:0:0:0:
106,77,29834,1,0,3:2:0:0:
200,117,29959,1,0,3:2:0:0:
40,229,30209,1,0,3:2:0:0:
174,328,30459,5,0,3:2:0:0:
187,302,30584,2,0,P|224:300|262:318,1,73.4999977569581,2|8,0:0|0:2,0:0:0:0:
425,369,30834,1,2,3:2:0:0:
393,337,30959,1,2,3:2:0:0:
382,294,31084,1,2,0:0:0:0:
398,253,31209,2,0,P|411:213|402:171,1,73.4999977569581,10|0,0:2|0:0,0:0:0:0:
300,51,31459,5,10,3:3:0:0:
384,20,31584,2,0,L|461:12,1,73.4999977569581,8|10,0:3|0:2,0:0:0:0:
315,136,31834,1,8,3:0:0:0:
230,103,31959,2,0,L|153:95,1,73.4999977569581,10|0,3:0|0:0,0:0:0:0:
38,11,32209,6,0,B|51:45|32:76|32:76|26:79|26:79|7:107|13:140,1,136.499993751526,8|0,0:2|0:0,0:0:0:0:
18,178,32459,5,8,3:3:0:0:
97,238,32584,2,0,P|109:196|115:151,1,73.4999977569581,10|8,0:3|0:2,0:0:0:0:
14,296,32834,1,10,3:0:0:0:
86,358,32959,2,0,L|169:345,1,73.4999977569581,8|2,3:0|0:0,0:0:0:0:
314,282,33209,1,8,0:2:0:0:
232,258,33334,1,8,0:3:0:0:
307,194,33459,6,0,P|343:200|385:231,1,73.4999977569581,2|8,3:2|0:3,0:0:0:0:
244,329,33709,2,0,P|231:294|237:242,1,73.4999977569581,10|8,0:2|0:3,0:0:0:0:
396,326,33959,2,0,P|372:354|324:375,1,73.4999977569581,10|0,3:0|0:0,0:0:0:0:
307,194,34209,6,0,B|322:163|315:131|315:131|311:125|311:125|305:91|325:60,1,136.499993751526,8|0,0:2|0:0,0:0:0:0:
347,30,34459,6,0,P|421:46|504:58,1,154.000004699707,4|8,3:3|0:0,0:0:0:0:
384,238,34834,1,2,3:0:0:0:
347,262,34959,1,0,3:0:0:0:
303,270,35084,1,2,0:0:0:0:
259,259,35209,6,0,P|210:216|138:216,1,136.499993751526,10|0,0:0|0:0,0:0:0:0:
76,250,35459,6,0,P|92:202|79:152,1,90.9999958343508,6|0,3:3|0:0,0:0:0:0:
0,332,35709,1,10,0:0:0:0:
52,339,35834,1,2,3:0:0:0:
103,347,35959,2,0,L|195:354,1,73.4999977569581,2|0,3:0|0:0,0:0:0:0:
303,270,36209,6,0,B|275:245|235:286|264:333|301:309|305:368,1,136.499993751526,8|0,0:0|0:0,0:0:0:0:
325,383,36459,5,4,3:0:0:0:
465,273,36625,1,4,0:3:0:0:
505,377,36792,1,4,0:3:0:0:
303,270,36959,2,0,L|313:173,1,73.4999977569581,6|0,3:0|0:0,0:0:0:0:
451,118,37209,2,0,L|458:191,1,73.4999977569581,10|0,0:0|0:0,0:0:0:0:
327,61,37459,5,6,3:0:0:0:
276,38,37584,1,6,0:3:0:0:
221,34,37709,1,10,0:0:0:0:
162,52,37834,1,4,0:3:0:0:
110,92,37959,5,6,3:0:0:0:
73,151,38084,1,4,0:3:0:0:
67,222,38209,1,8,0:0:0:0:
99,291,38334,1,4,0:3:0:0:
165,342,38459,5,12,3:2:0:0:
165,342,38579,1,8,3:0:0:0:
365,338,38819,5,8,3:0:0:0:
365,338,38939,1,8,3:0:0:0:
401,136,39179,5,8,0:0:0:0:
401,136,39419,5,8,3:0:0:0:
321,153,39539,1,8,3:0:0:0:
242,171,39659,1,8,0:0:0:0:
160,188,39779,1,8,3:0:0:0:
78,206,39899,5,8,3:0:0:0:
223,70,40139,1,8,0:0:0:0:
223,70,40379,5,8,3:0:0:0:
223,70,40499,1,8,3:0:0:0:
262,274,40739,5,8,3:0:0:0:
262,274,40859,1,8,3:0:0:0:
456,328,41099,5,8,0:0:0:0:
456,328,41339,6,0,L|464:372,2,35,8|8|8,3:0|3:0|3:0,0:0:0:0:
405,253,41579,1,10,0:0:0:0:
476,198,41699,1,8,3:0:0:0:
429,116,41819,6,0,P|412:73|416:26,1,77.0000023498536,10|0,3:0|0:0,0:0:0:0:
221,0,42059,2,0,P|219:38|203:78,1,80.5000015354157,10|0,0:0|0:0,0:0:0:0:
31,207,42299,6,0,B|74:183|116:210|116:210|121:219|121:219|161:246|201:229,1,181.999991668702,10|8,3:0|0:0,0:0:0:0:
357,331,42659,1,8,3:0:0:0:
255,375,42779,2,0,L|270:277,1,83.9999974365235,10|0,3:0|0:0,0:0:0:0:
414,145,43019,2,0,P|370:148|329:128,1,83.9999974365235,8|0,0:0|0:0,0:0:0:0:
143,25,43259,5,10,3:0:0:0:
184,77,43379,1,8,3:0:0:0:
172,143,43499,1,8,0:0:0:0:
121,187,43619,1,8,3:0:0:0:
53,186,43739,2,0,P|40:102|116:104,1,167.999994873047,10|8,3:0|0:0,0:0:0:0:
172,143,44099,1,0,0:0:0:0:
349,50,44219,5,10,3:0:0:0:
362,67,44339,2,0,P|405:62|464:58,1,83.9999974365235,8|8,3:0|0:0,0:0:0:0:
293,208,44579,5,10,3:0:0:0:
280,225,44699,2,0,P|237:220|178:216,1,83.9999974365235,8|0,3:0|0:0,0:0:0:0:
381,353,44939,2,0,B|410:317|401:274|392:278|380:233|410:188,1,167.999994873047,10|8,0:0|3:0,0:0:0:0:
271,48,45299,1,8,3:0:0:0:
211,79,45419,1,10,0:0:0:0:
144,69,45539,1,8,3:0:0:0:
93,24,45659,6,0,P|90:65|82:109,1,83.9999974365235,10|0,3:0|0:0,0:0:0:0:
197,291,45899,2,0,P|200:249|207:207,1,83.9999974365235,10|0,0:0|0:0,0:0:0:0:
384,47,46139,6,0,B|421:42|421:42|444:71|444:71|426:130|420:186,1,181.999991668702,10|8,3:0|0:0,0:0:0:0:
313,322,46499,1,8,3:0:0:0:
457,266,46619,2,0,B|413:286|356:268|379:248|323:227|281:244,1,181.999991668702,14|8,3:0|0:0,0:0:0:0:
111,333,46979,1,0,0:0:0:0:
43,272,47099,6,0,P|46:230|53:188,1,83.9999974365235,10|0,3:0|0:0,0:0:0:0:
157,28,47339,1,8,0:0:0:0:
214,83,47459,1,8,3:0:0:0:
178,158,47579,6,0,B|112:192|153:291|278:280|235:178|359:230,1,293.999991027832,14|0,3:0|0:0,0:0:0:0:
484,71,48059,6,0,B|527:101|488:167|403:142|423:83|347:100,1,210.000008010865,2|0,3:0|0:0,0:0:0:0:
81,48,48419,1,2,3:0:0:0:
178,158,48539,2,0,L|191:51,1,105.000004005432,8|0,0:0|0:0,0:0:0:0:
11,0,48779,6,0,B|-33:179|40:74|-3:279,1,272.999987503052,2|0,3:0|0:0,0:0:0:0:
164,367,49259,1,8,0:0:0:0:
175,320,49379,1,8,3:0:0:0:
186,273,49499,2,0,P|228:275|274:287,1,83.9999974365235,8|0,3:0|0:0,0:0:0:0:
392,384,49739,2,0,P|377:346|372:299,1,83.9999974365235,8|0,0:0|3:0,0:0:0:0:
499,226,49979,6,0,B|435:231|435:231|397:211|397:211|323:219,1,167.999994873047,8|8,3:0|0:0,0:0:0:0:
147,191,50339,1,8,3:0:0:0:
154,155,50459,6,0,B|208:159|208:159|239:142|239:142|302:149,1,154.000004699707,8|8,3:0|0:0,0:0:0:0:
463,110,50819,1,0,0:0:0:0:
458,80,50939,6,0,B|405:84|405:84|375:68|375:68|314:74,1,140,8|8,3:0|0:0,0:0:0:0:
167,34,51299,1,8,3:0:0:0:
173,7,51419,6,0,B|219:11|219:11|246:-3|246:-3|300:2,1,125.999996154785,0|8,0:0|0:0,0:0:0:0:
74,76,51899,5,8,3:0:0:0:
28,202,52139,1,8,0:0:0:0:
28,202,52259,1,8,0:3:0:0:
28,202,52379,1,0,3:0:0:0:
120,316,52619,1,8,0:0:0:0:
120,316,52739,1,0,0:0:0:0:
120,316,52859,1,8,3:0:0:0:
248,249,53099,1,8,0:0:0:0:
330,307,53219,5,8,3:0:0:0:
336,288,53279,1,0,0:0:0:0:
343,268,53339,2,0,P|374:226|364:165,1,105
343,153,53579,2,0,P|320:105|336:44,1,105,8|0,0:0|0:0,0:0:0:0:
345,22,53819,5,8,3:0:0:0:
303,17,53939,1,0,0:0:0:0:
263,32,54059,1,8,0:0:0:0:
241,68,54179,1,8,0:3:0:0:
234,110,54299,6,0,L|243:171,2,46.6666666666667,8|0|0,3:0|0:0|0:0,0:0:0:0:
145,61,54539,1,8,0:0:0:0:
67,141,54659,2,0,B|50:119|28:106|28:106|47:57|58:4,1,140
170,239,55019,5,8,0:0:0:0:
122,251,55139,1,8,3:0:0:0:
76,264,55259,2,0,L|-2:280,1,70
257,371,55499,5,8,0:0:0:0:
412,336,55619,1,0,0:0:0:0:
340,374,55739,6,0,B|318:328|343:289|343:289|352:284|352:284|377:243|362:204,1,181.999991668702,8|8,3:0|0:0,0:0:0:0:
293,46,56099,1,8,3:0:0:0:
406,22,56219,6,0,B|360:44|321:19|321:19|316:10|316:10|275:-15|236:0,1,181.999991668702,8|8,3:0|0:0,0:0:0:0:
98,150,56579,1,0,0:0:0:0:
49,51,56699,6,0,B|95:29|134:54|134:54|139:63|139:63|180:88|219:73,1,181.999991668702,8|8,3:0|0:0,0:0:0:0:
366,223,57059,1,8,3:0:0:0:
415,125,57179,6,0,B|369:103|330:128|330:128|325:137|325:137|284:162|245:147,1,181.999991668702,8|8,3:0|0:0,0:0:0:0:
79,264,57539,1,0,0:0:0:0:
162,365,57659,6,0,B|175:397|236:382|252:280|153:314|169:203,1,210.000008010865,0|8,3:0|0:0,0:0:0:0:
49,51,58019,1,8,3:0:0:0:
188,6,58139,2,0,L|166:117,1,105.000004005432,8|0,3:0|0:0,0:0:0:0:
280,271,58379,6,0,B|299:154|299:154|330:121|330:121|349:10,1,272.999987503052,8|0,0:0|0:0,0:0:0:0:
464,220,58859,6,0,P|419:208|355:193,1,90.9999958343508,8|0,0:0|0:0,0:0:0:0:
167,108,59099,2,0,P|212:96|276:81,1,90.9999958343508,0|8,3:0|0:3,0:0:0:0:
512,22,59339,2,0,P|467:10|403:-5,1,90.9999958343508,8|0,0:0|0:0,0:0:0:0:
298,160,59579,6,0,L|279:279,1,112,4|0,3:2|0:0,0:0:0:0:
256,192,60659,12,0,64379,0:0:0:0:
