osu file format v14

[General]
AudioFilename: audio.mp3
AudioLeadIn: 0
PreviewTime: 21584
Countdown: 0
SampleSet: Soft
StackLeniency: 0.2
Mode: 0
LetterboxInBreaks: 0
WidescreenStoryboard: 1

[Editor]
Bookmarks: 2459,14459,22459,30459,38459,51899,59579,62939
DistanceSpacing: 0.3
BeatDivisor: 4
GridSize: 32
TimelineZoom: 2.8

[Metadata]
Title:Fearless Hero (Cut Ver.)
TitleUnicode:Fearless Hero (Cut Ver.)
Artist:Antonio Banderas & Heitor Pereira
ArtistUnicode:Antonio Banderas & Heitor Pereira
Creator:defreeyay
Version:Kirishima-'s Extra
Source:Puss in Boots: The Last Wish
Tags:el gato con botas dreamworks english pop folk country acoustic original soundtrack ost movie film animation male vocal vocalist cat short version aqilmanuar Renumi Ralsei hewwo dopaminos LimeTwist Kirishima-
BeatmapID:4038277
BeatmapSetID:1936670

[Difficulty]
HPDrainRate:5
CircleSize:3.8
OverallDifficulty:8
ApproachRate:9
SliderMultiplier:2.5
SliderTickRate:1

[Events]
//Background and Video events
Video,-1063,"video.mp4"
0,0,"bgkiri.jpg",0,0
//Break Periods
//Storyboard Layer 0 (Background)
//Storyboard Layer 1 (Fail)
//Storyboard Layer 2 (Pass)
//Storyboard Layer 3 (Foreground)
//Storyboard Layer 4 (Overlay)
//Storyboard Sound Samples

[TimingPoints]
-1541,500,4,2,1,40,1,0
1709,-500,4,2,1,40,0,0
2459,-111.111111111111,4,2,1,40,0,0
5709,-200,4,2,1,40,0,0
6459,-111.111111111111,4,2,1,40,0,0
9709,-200,4,2,1,40,0,0
10459,-100,4,2,1,40,0,0
11459,-200,4,2,1,40,0,0
11896,-200,4,2,1,5,0,0
11959,-500,4,2,1,40,0,0
12459,-66.6666666666667,4,2,12,50,0,0
13209,-66.6666666666667,4,2,12,50,0,1
14459,-100,4,2,1,50,0,0
16209,-66.6666666666667,4,2,1,50,0,1
16396,-66.6666666666667,4,2,1,5,0,1
16459,-100,4,2,1,50,0,0
18209,-66.6666666666667,4,2,1,50,0,1
18396,-66.6666666666667,4,2,1,5,0,1
18459,-100,4,2,1,50,0,0
20209,-66.6666666666667,4,2,1,50,0,1
20396,-66.6666666666667,4,2,1,5,0,1
20459,-100,4,2,1,50,0,0
22459,-83.3333333333333,4,2,1,50,0,0
28459,-66.6666666666667,4,2,12,50,0,0
29459,-50,4,2,12,50,0,1
29959,-66.6666666666667,4,2,12,50,0,1
30396,-66.6666666666667,4,2,12,5,0,1
30459,-100,4,2,1,50,0,0
32209,-66.6666666666667,4,2,10,50,0,1
32396,-66.6666666666667,4,2,10,5,0,1
32459,-100,4,2,1,50,0,0
34209,-66.6666666666667,4,2,1,50,0,1
34396,-66.6666666666667,4,2,1,5,0,1
34459,-100,4,2,1,50,0,0
35209,-100,4,2,11,50,0,0
35459,-100,4,2,1,50,0,0
36209,-66.6666666666667,4,2,11,50,0,1
36396,-66.6666666666667,4,2,11,5,0,1
36459,-100,4,2,1,50,0,0
37709,-100,4,2,11,50,0,0
37834,-100,4,2,1,50,0,0
38209,-100,4,2,11,50,0,0
38334,-100,4,2,1,50,0,0
38459,480,4,2,2,55,1,1
38459,-83.3333333333333,4,2,2,55,0,1
39179,-83.3333333333333,4,2,12,55,0,1
39299,-83.3333333333333,4,2,2,55,0,1
40139,-83.3333333333333,4,2,12,55,0,1
40259,-83.3333333333333,4,2,2,55,0,1
41099,-83.3333333333333,4,2,12,55,0,1
41219,-83.3333333333333,4,2,2,55,0,1
42059,-83.3333333333333,4,2,12,55,0,1
42179,-83.3333333333333,4,2,2,55,0,1
42299,-83.3333333333333,4,2,2,60,0,1
43019,-83.3333333333333,4,2,12,60,0,1
43139,-83.3333333333333,4,2,2,60,0,1
43979,-83.3333333333333,4,2,12,60,0,1
44099,-83.3333333333333,4,2,2,60,0,1
44939,-83.3333333333333,4,2,12,60,0,1
45059,-83.3333333333333,4,2,2,60,0,1
45899,-83.3333333333333,4,2,12,60,0,1
46019,-83.3333333333333,4,2,2,60,0,1
46859,-83.3333333333333,4,2,12,60,0,1
46979,-83.3333333333333,4,2,2,60,0,1
47819,-83.3333333333333,4,2,12,60,0,1
47999,-83.3333333333333,4,2,12,60,0,0
48059,-66.6666666666667,4,2,12,60,0,1
48539,-66.6666666666667,4,2,2,60,0,1
48779,-50,4,2,12,60,0,1
49019,-50,4,2,2,60,0,1
49499,-66.6666666666667,4,2,2,60,0,1
49739,-66.6666666666667,4,2,12,60,0,1
49859,-66.6666666666667,4,2,2,60,0,1
49979,-83.3333333333333,4,2,2,60,0,1
50699,-83.3333333333333,4,2,12,60,0,1
50819,-83.3333333333333,4,2,2,60,0,1
51899,-100,4,2,2,55,0,0
52619,-100,4,2,12,55,0,0
52739,-100,4,2,2,55,0,0
53579,-100,4,2,12,55,0,0
53699,-100,4,2,2,55,0,0
54539,-100,4,2,12,55,0,0
54659,-100,4,2,2,55,0,0
55499,-100,4,2,12,55,0,0
55619,-100,4,2,2,55,0,0
55739,-66.6666666666667,4,2,2,60,0,1
56459,-66.6666666666667,4,2,12,60,0,1
56579,-66.6666666666667,4,2,2,60,0,1
57419,-66.6666666666667,4,2,12,60,0,1
57539,-66.6666666666667,4,2,2,60,0,1
58379,-66.6666666666667,4,2,12,60,0,1
58499,-66.6666666666667,4,2,2,60,0,1
58859,-66.6666666666667,4,2,12,60,0,1
58979,-66.6666666666667,4,2,2,60,0,1
59339,-66.6666666666667,4,2,12,60,0,1
59459,-66.6666666666667,4,2,2,60,0,1
59579,-133.333333333333,4,2,2,60,0,0
60539,-200,4,2,2,40,0,0
61499,-200,4,2,2,20,0,0
62939,-200,4,2,2,5,0,0

[Colours]
Combo1 : 148,206,70
Combo2 : 240,185,211
Combo3 : 247,232,179
Combo4 : 215,116,59
Combo5 : 199,75,39
Combo6 : 158,160,209

[HitObjects]
256,192,209,12,0,1459,0:0:0:0:
48,232,1709,6,0,P|45:220|41:208,2,25,2|2|2,0:0|0:0|0:0,0:0:0:0:
62,307,2459,6,0,P|74:252|91:198,1,112.499996566773,2|0,0:0|0:0,0:0:0:0:
97,112,2834,2,0,P|69:114|43:126,1,56.2499982833863,2|0,0:0|0:0,0:0:0:0:
168,161,3084,2,0,P|179:135|181:107,1,56.2499982833863,2|0,0:0|0:0,0:0:0:0:
52,18,3334,2,0,P|57:72|96:111,1,112.499996566773,2|0,0:0|0:0,0:0:0:0:
181,107,3709,1,2,0:0:0:0:
221,31,3959,1,2,0:0:0:0:
136,35,4209,1,2,0:0:0:0:
289,204,4459,6,0,P|342:187|397:174,1,112.499996566773,2|0,0:0|0:0,0:0:0:0:
390,37,4834,2,0,P|384:64|375:91,1,56.2499982833863,2|0,0:0|0:0,0:0:0:0:
497,154,5084,2,0,P|475:135|457:114,1,56.2499982833863,2|0,0:0|0:0,0:0:0:0:
301,135,5334,2,0,P|342:171|397:174,1,112.499996566773,2|0,0:0|0:0,0:0:0:0:
457,114,5709,5,2,0:0:0:0:
375,91,5959,1,2,0:0:0:0:
436,31,6209,1,2,0:0:0:0:
410,327,6459,6,0,B|366:343|331:312|332:306|334:300|304:271|256:285,1,168.749994850159,2|0,0:0|0:0,0:0:0:0:
171,332,6959,2,0,P|227:274|208:195,1,168.749994850159,2|0,0:0|0:0,0:0:0:0:
135,141,7459,2,0,P|215:164|297:184,1,168.749994850159,2|0,0:0|0:0,0:0:0:0:
309,187,7959,1,2,0:0:0:0:
145,251,8209,1,0,0:0:0:0:
145,251,8459,6,0,P|132:196|115:142,1,112.499996566773,2|0,0:0|0:0,0:0:0:0:
200,32,8834,2,0,P|183:54|160:70,1,56.2499982833863,2|0,0:0|0:0,0:0:0:0:
11,53,9084,1,0,0:0:0:0:
22,52,9209,2,0,P|49:54|75:66,1,56.2499982833863,2|0,0:0|0:0,0:0:0:0:
75,66,9709,5,2,0:0:0:0:
115,142,9959,1,2,0:0:0:0:
160,70,10209,1,2,0:0:0:0:
39,332,10459,6,0,P|109:295|112:374,1,187.5,2|0,0:0|0:0,0:0:0:0:
104,384,10959,2,0,P|77:293|55:202,1,187.5,2|0,0:0|0:0,0:0:0:0:
23,123,11459,2,0,P|76:119|121:148,1,109.375,2|0,0:0|0:0,0:0:0:0:
150,230,11959,1,2,0:0:0:0:
150,230,12459,6,0,P|85:168|111:83,1,187.500007152558,2|0,3:2|0:0,0:0:0:0:
195,64,12834,6,0,P|259:126|233:211,1,187.500007152558,2|0,3:2|0:0,0:0:0:0:
127,361,13209,6,0,B|182:319|156:251|156:251|128:183|186:137|186:137|243:92|217:29,1,375.000014305115,6|0,3:2|0:0,0:0:0:0:
140,66,13834,1,0,3:2:0:0:
233,211,13959,2,0,P|272:235|318:233,1,93.7500035762788,0|0,3:2|0:0,0:0:0:0:
355,87,14209,2,0,P|315:110|294:151,1,93.7500035762788,0|0,3:2|0:0,0:0:0:0:
361,364,14459,5,0,3:2:0:0:
439,329,14584,2,0,P|445:298|455:268,1,62.5,2|8,0:0|0:2,0:0:0:0:
318,233,14834,2,0,P|341:253|362:277,1,62.5,2|0,3:2|0:0,0:0:0:0:
460,175,15084,2,0,P|430:184|399:191,1,62.5,2|8,0:0|0:2,0:0:0:0:
287,319,15334,6,0,P|226:326|177:290,1,125,2|2,0:0|0:0,0:0:0:0:
145,211,15709,2,0,P|145:179|159:151,1,62.5,10|0,0:2|3:2,0:0:0:0:
246,90,15959,2,0,P|245:113|232:93,1,62.5,2|0,0:0|0:0,0:0:0:0:
63,86,16209,6,0,B|114:66|148:108|148:108|148:134|159:152,1,140.625005364418,10|0,0:2|0:0,0:0:0:0:
230,200,16459,6,0,P|289:181|350:167,1,125,0|8,3:2|0:2,0:0:0:0:
455,105,16834,2,0,P|394:91|335:73,1,125,0|0,3:2|0:0,0:0:0:0:
279,8,17209,1,8,0:2:0:0:
279,8,17459,2,0,P|249:17|218:23,1,62.5,0|0,3:2|0:0,0:0:0:0:
39,65,17709,6,0,P|40:33|53:6,1,62.5,10|0,0:2|3:2,0:0:0:0:
134,31,17959,2,0,P|133:62|119:90,1,62.5,2|0,0:0|0:0,0:0:0:0:
2,162,18209,6,0,B|49:149|49:149|95:166|100:219,1,140.625005364418,8|0,0:2|0:0,0:0:0:0:
102,232,18459,1,0,3:2:0:0:
139,309,18584,6,0,P|169:314|199:324,1,62.5,2|8,0:0|0:2,0:0:0:0:
230,185,18834,2,0,P|210:209|186:229,1,62.5,2|2,3:2|0:0,0:0:0:0:
285,330,19084,2,0,P|282:299|267:271,1,62.5,2|8,0:0|0:2,0:0:0:0:
165,129,19334,5,2,0:0:0:0:
230,185,19459,1,2,3:2:0:0:
242,182,19584,1,2,0:0:0:0:
324,157,19709,2,0,P|336:128|338:97,1,62.5,10|0,0:2|3:2,0:0:0:0:
228,1,19959,2,0,P|246:26|273:43,1,62.5,2|0,0:0|0:0,0:0:0:0:
432,90,20209,6,0,B|381:70|347:112|347:112|347:138|336:156,1,140.625005364418,10|0,0:2|0:0,0:0:0:0:
260,281,20459,6,0,P|309:244|369:252,1,125,0|8,3:2|0:2,0:0:0:0:
393,334,20834,2,0,P|343:371|283:363,1,125,0|0,3:2|0:0,0:0:0:0:
201,343,21209,1,8,0:2:0:0:
201,343,21459,2,0,P|170:348|140:358,1,62.5,0|0,3:2|0:0,0:0:0:0:
47,264,21709,6,0,P|75:276|107:279,1,62.5,10|0,0:2|3:2,0:0:0:0:
240,177,21959,2,0,P|221:202|196:220,1,62.5,2|0,0:0|0:0,0:0:0:0:
83,112,22209,2,0,P|87:143|101:171,1,62.5,10|0,0:2|0:0,0:0:0:0:
289,295,22459,6,0,B|373:285|328:236|413:224,1,149.999995422363,2|8,3:2|0:2,0:0:0:0:
490,262,22834,1,0,3:2:0:0:
439,381,22959,2,0,P|431:344|418:308,1,74.9999977111817,2|0,3:2|0:0,0:0:0:0:
509,190,23209,2,0,P|497:226|490:263,1,74.9999977111817,8|0,0:2|0:0,0:0:0:0:
339,365,23459,6,0,P|267:379|212:332,1,149.999995422363,2|8,0:0|0:2,0:0:0:0:
189,250,23834,1,0,0:0:0:0:
269,223,23959,2,0,P|276:259|288:295,1,74.9999977111817,2|0,0:0|0:0,0:0:0:0:
109,382,24209,2,0,P|120:347|130:311,1,74.9999977111817,8|0,0:2|0:0,0:0:0:0:
150,105,24459,6,0,P|167:178|189:250,1,149.999995422363,2|8,3:2|0:2,0:0:0:0:
269,223,24834,2,0,P|247:151|230:78,1,149.999995422363,2|0,3:2|0:0,0:0:0:0:
167,21,25209,2,0,P|166:-6|179:17,1,74.9999977111817,10|0,0:2|0:0,0:0:0:0:
150,105,25459,1,0,0:0:0:0:
302,99,25709,6,0,P|265:90|229:78,1,74.9999977111817,10|0,0:2|0:0,0:0:0:0:
78,125,25959,2,0,P|114:113|151:105,1,74.9999977111817,2|0,0:0|0:0,0:0:0:0:
285,183,26209,2,0,P|248:174|213:163,1,74.9999977111817,10|0,0:2|0:0,0:0:0:0:
40,1,26459,6,0,P|90:54|78:125,1,149.999995422363,2|8,3:2|0:2,0:0:0:0:
57,295,26834,1,0,3:2:0:0:
2,229,26959,2,0,P|34:211|71:210,1,74.9999977111817,2|0,3:2|0:0,0:0:0:0:
73,379,27209,2,0,P|35:377|3:360,1,74.9999977111817,8|0,0:2|0:0,0:0:0:0:
137,266,27459,6,0,B|221:276|176:325|261:337,1,149.999995422363,2|8,0:0|0:2,0:0:0:0:
339,298,27834,1,0,0:0:0:0:
287,180,27959,2,0,P|279:217|266:253,1,74.9999977111817,2|0,0:0|0:0,0:0:0:0:
358,370,28209,2,0,P|346:334|339:297,1,74.9999977111817,8|0,0:2|0:0,0:0:0:0:
117,148,28459,6,0,P|184:110|181:187,1,187.500007152558,2|0,3:2|0:0,0:0:0:0:
23,233,28834,6,0,B|90:205|132:262|132:262|129:295|148:323,1,187.500007152558,2|0,3:2|0:0,0:0:0:0:
241,289,29209,6,0,P|243:256|227:286,1,93.7500035762788,2|0,3:2|0:0,0:0:0:0:
217,373,29459,6,0,P|170:191|119:10,1,375,4|0,3:2|3:2,0:0:0:0:
411,122,29959,6,0,P|395:165|359:194,1,93.7500035762788,0|0,3:2|0:0,0:0:0:0:
279,224,30209,6,0,B|326:211|326:211|372:228|377:281,1,140.625005364418,0|0,3:2|0:0,0:0:0:0:
378,293,30459,1,0,3:2:0:0:
388,378,30584,6,0,P|357:378|329:363,1,62.5,2|8,0:0|0:2,0:0:0:0:
264,309,30834,1,2,3:2:0:0:
188,347,30959,1,2,3:2:0:0:
176,344,31084,1,2,0:0:0:0:
114,286,31209,2,0,P|100:258|100:227,1,62.5,10|0,0:2|0:0,0:0:0:0:
217,26,31459,5,10,3:3:0:0:
182,105,31584,2,0,P|191:134|197:165,1,62.5,8|10,0:3|0:2,0:0:0:0:
269,94,31834,1,8,3:0:0:0:
282,180,31959,2,0,P|272:209|266:240,1,62.5,10|0,3:0|0:0,0:0:0:0:
120,48,32209,6,0,B|69:28|35:70|35:70|35:96|24:114,1,140.625005364418,8|0,0:2|0:0,0:0:0:0:
18,125,32459,1,8,3:3:0:0:
127,300,32584,6,0,P|132:269|142:239,1,62.5,10|8,0:3|0:2,0:0:0:0:
119,158,32834,1,10,3:0:0:0:
51,245,32959,2,0,P|37:184|17:124,1,125,8|8,3:0|0:2,0:0:0:0:
105,18,33334,6,0,P|95:47|89:78,1,62.5,8|2,0:3|3:2,0:0:0:0:
189,32,33584,2,0,P|179:62|174:93,1,62.5,8|10,0:3|0:2,0:0:0:0:
204,174,33834,1,8,0:3:0:0:
273,46,33959,2,0,P|263:76|258:107,1,62.5,10|0,3:0|0:0,0:0:0:0:
127,209,34209,6,0,B|174:196|174:196|220:213|225:266,1,140.625005364418,8|0,0:2|0:0,0:0:0:0:
237,351,34459,2,0,P|205:351|178:337,1,62.5,4|2,3:3|0:0,0:0:0:0:
128,119,34709,5,8,0:0:0:0:
190,60,34834,2,0,P|250:44|311:55,1,125,2|2,3:0|0:0,0:0:0:0:
376,107,35209,2,0,P|392:135|400:165,1,62.5,10|0,0:0|0:0,0:0:0:0:
354,301,35459,2,0,P|375:278|391:250,1,62.5,6|0,3:3|0:0,0:0:0:0:
278,338,35709,1,10,0:0:0:0:
265,339,35834,1,2,3:0:0:0:
182,319,35959,2,0,P|157:302|137:278,1,62.5,2|0,3:0|0:0,0:0:0:0:
163,107,36209,6,0,B|183:158|141:192|141:192|115:192|97:203,1,140.625005364418,8|0,0:0|0:0,0:0:0:0:
47,376,36459,6,0,P|52:356|56:335,1,41.6666666666667,4|0,3:0|0:0,0:0:0:0:
60,323,36625,6,0,P|55:302|48:283,1,41.6666666666667,4|10,0:3|0:0,0:0:0:0:
44,271,36792,6,0,P|29:255|13:242,1,41.6666666666667,4|0,0:3|0:0,0:0:0:0:
79,120,36959,6,0,P|80:88|91:60,1,62.5,6|0,3:0|0:0,0:0:0:0:
221,88,37209,2,0,P|193:102|163:107,1,62.5,10|0,0:0|0:0,0:0:0:0:
168,21,37459,5,6,3:0:0:0:
252,8,37584,1,6,0:3:0:0:
305,75,37709,1,10,0:0:0:0:
308,87,37834,1,4,0:3:0:0:
265,161,37959,1,6,3:0:0:0:
262,173,38084,1,4,0:3:0:0:
321,237,38209,1,8,0:0:0:0:
324,249,38334,1,4,0:3:0:0:
406,227,38459,5,12,3:2:0:0:
343,321,38579,2,0,P|335:284|324:249,1,74.9999977111817,8|8,3:0|0:0,0:0:0:0:
346,168,38819,5,8,3:0:0:0:
417,379,38939,2,0,P|425:342|437:307,1,74.9999977111817,8|0,3:0|0:0,0:0:0:0:
242,270,39179,2,0,P|254:306|262:343,1,74.9999977111817,8|0,0:0|0:0,0:0:0:0:
346,168,39419,5,8,3:0:0:0:
406,226,39539,2,0,P|426:195|429:158,1,74.9999977111817,8|8,3:0|0:0,0:0:0:0:
355,83,39779,5,8,3:0:0:0:
265,189,39899,2,0,P|262:151|277:117,1,74.9999977111817,8|0,3:0|0:0,0:0:0:0:
401,11,40139,2,0,P|427:38|439:74,1,74.9999977111817,8|0,0:0|0:0,0:0:0:0:
346,168,40379,5,8,3:0:0:0:
287,33,40499,2,0,P|250:25|214:13,1,74.9999977111817,8|8,3:0|0:0,0:0:0:0:
265,189,40739,5,8,3:0:0:0:
355,83,40859,2,0,P|391:75|427:63,1,74.9999977111817,8|0,3:0|0:0,0:0:0:0:
501,172,41099,2,0,P|465:160|429:153,1,74.9999977111817,8|0,0:0|0:0,0:0:0:0:
287,33,41339,6,0,P|269:38|250:42,3,37.4999988555909,8|8|8|8,3:0|3:0|3:0|3:0,0:0:0:0:
285,20,41579,2,0,P|248:30|212:36,1,74.9999977111817,10|8,0:0|3:0,0:0:0:0:
194,194,41819,2,0,P|204:158|218:123,1,74.9999977111817,10|0,3:0|0:0,0:0:0:0:
89,30,42059,2,0,P|115:56|140:85,1,74.9999977111817,10|0,0:0|0:0,0:0:0:0:
316,223,42299,5,10,3:0:0:0:
287,143,42419,2,0,P|254:124|217:123,1,74.9999977111817,8|8,3:0|0:0,0:0:0:0:
233,207,42659,1,8,3:0:0:0:
370,157,42779,2,0,P|369:120|352:87,1,74.9999977111817,10|0,3:0|0:0,0:0:0:0:
211,21,43019,2,0,P|243:39|280:40,1,74.9999977111817,8|0,0:0|0:0,0:0:0:0:
499,89,43259,5,10,3:0:0:0:
426,45,43379,1,8,3:0:0:0:
352,87,43499,1,8,0:0:0:0:
352,173,43619,1,8,3:0:0:0:
425,215,43739,2,0,P|461:222|497:234,1,74.9999977111817,10|0,3:0|0:0,0:0:0:0:
424,68,43979,2,0,P|388:79|352:87,1,74.9999977111817,8|0,0:0|0:0,0:0:0:0:
270,266,44219,5,10,3:0:0:0:
191,236,44339,2,0,P|173:202|172:165,1,74.9999977111817,8|8,3:0|0:0,0:0:0:0:
227,101,44579,1,10,3:0:0:0:
93,137,44699,2,0,P|113:105|144:86,1,74.9999977111817,8|0,3:0|0:0,0:0:0:0:
211,21,44939,2,0,P|189:92|172:165,1,149.999995422363,10|8,0:0|3:0,0:0:0:0:
126,293,45299,6,0,P|118:256|106:220,1,74.9999977111817,8|10,3:0|0:0,0:0:0:0:
172,165,45539,1,8,3:0:0:0:
7,262,45659,2,0,P|18:226|26:189,1,74.9999977111817,10|0,3:0|0:0,0:0:0:0:
74,65,45899,2,0,P|81:101|93:137,1,74.9999977111817,10|0,0:0|0:0,0:0:0:0:
202,244,46139,6,0,B|286:234|241:185|326:173,1,149.999995422363,10|8,3:0|0:0,0:0:0:0:
402,209,46499,1,8,3:0:0:0:
395,293,46619,2,0,P|359:282|331:257,1,74.9999977111817,14|0,3:0|0:0,0:0:0:0:
401,136,46859,2,0,P|410:172|402:209,1,74.9999977111817,8|0,0:0|0:0,0:0:0:0:
202,244,47099,6,0,P|194:207|182:171,1,74.9999977111817,10|0,3:0|0:0,0:0:0:0:
289,32,47339,1,8,0:0:0:0:
215,93,47459,1,8,3:0:0:0:
277,189,47579,2,0,P|284:152|296:116,1,74.9999977111817,14|0,3:0|0:0,0:0:0:0:
195,21,47819,2,0,P|207:57|215:94,1,74.9999977111817,8|0,0:0|0:0,0:0:0:0:
51,248,48059,6,0,P|93:169|181:171,1,187.500007152558,2|0,3:0|0:0,0:0:0:0:
196,184,48419,1,2,3:0:0:0:
220,265,48539,2,0,P|173:265|133:241,1,93.7500035762788,8|0,0:0|0:0,0:0:0:0:
159,78,48779,6,0,P|128:199|94:319,2,250,2|0|8,3:0|3:0|0:0,0:0:0:0:
430,138,49499,5,8,3:0:0:0:
430,163,49579,5,8,3:0:0:0:
423,187,49659,5,8,3:0:0:0:
409,207,49739,6,0,P|364:218|319:232,1,93.7500035762788,8|0,0:0|3:0,0:0:0:0:
139,8,49979,6,0,P|141:45|159:77,1,74.9999977111817,8|0,3:0|0:0,0:0:0:0:
323,114,50219,1,8,0:0:0:0:
240,99,50339,1,8,3:0:0:0:
181,160,50459,2,0,P|163:194|162:231,1,74.9999977111817,8|0,3:0|0:0,0:0:0:0:
343,183,50699,2,0,P|341:146|323:114,1,74.9999977111817,8|0,0:0|0:0,0:0:0:0:
157,318,50939,6,0,B|73:308|118:259|33:247,1,149.999995422363,8|8,3:0|0:0,0:0:0:0:
27,332,51299,1,8,3:0:0:0:
162,230,51419,2,0,P|151:194|143:157,1,74.9999977111817
71,92,51659,2,0,P|64:128|52:164,1,74.9999977111817,8|0,0:0|0:0,0:0:0:0:
157,318,51899,6,0,P|206:354|266:347,1,125,8|8,3:0|0:0,0:0:0:0:
291,265,52259,1,8,0:3:0:0:
302,257,52379,2,0,P|330:243|361:242,1,62.5,0|0,3:0|0:0,0:0:0:0:
349,327,52619,1,8,0:0:0:0:
349,327,52859,6,0,P|344:296|335:266,1,62.5,8|0,3:0|0:0,0:0:0:0:
444,232,53099,2,0,P|435:262|430:293,1,62.5,8|8,0:0|3:0,0:0:0:0:
371,190,53339,1,0,0:0:0:0:
368,177,53459,1,0,0:0:0:0:
415,107,53579,1,8,0:0:0:0:
418,94,53699,1,0,0:0:0:0:
365,27,53819,6,0,P|338:13|307:13,1,62.5,8|0,3:0|0:0,0:0:0:0:
230,161,54059,1,8,0:0:0:0:
146,175,54179,1,8,0:3:0:0:
93,109,54299,2,0,P|92:78|106:50,1,62.5,8|0,3:0|0:0,0:0:0:0:
196,41,54539,6,0,P|211:101|230:161,2,125,8|8|8,0:0|3:0|0:0,0:0:0:0:
93,109,55139,1,8,3:0:0:0:
146,175,55259,2,0,P|141:190|137:205,2,31.25
76,303,55499,2,0,P|70:272|61:243,1,62.5,8|0,0:0|0:0,0:0:0:0:
230,161,55739,6,0,B|285:156|310:200|306:205|304:210|328:257|382:249,1,187.500007152558,8|8,3:0|0:0,0:0:0:0:
454,206,56099,1,8,3:0:0:0:
459,121,56219,2,0,P|414:130|381:164,1,93.7500035762788,8|0,3:0|0:0,0:0:0:0:
455,291,56459,1,8,0:0:0:0:
383,334,56579,1,0,0:0:0:0:
239,294,56699,6,0,P|324:268|383:335,1,187.500007152558,8|8,3:0|0:0,0:0:0:0:
457,376,57059,1,8,3:0:0:0:
480,201,57179,2,0,P|466:246|455:292,1,93.7500035762788,8|0,3:0|0:0,0:0:0:0:
300,350,57419,1,8,0:0:0:0:
239,294,57539,1,0,0:0:0:0:
252,169,57659,6,0,P|278:259|300:351,1,187.500007152558,0|8,3:0|0:0,0:0:0:0:
303,368,58019,1,8,3:0:0:0:
455,291,58139,2,0,P|417:266|370:268,1,93.7500035762788,8|0,3:0|0:0,0:0:0:0:
252,169,58379,2,0,P|298:170|336:145,1,93.7500035762788,8|0,0:0|0:0,0:0:0:0:
429,94,58619,6,0,B|375:86|350:133|353:138|356:143|332:187|277:182,1,187.500007152558,0|8,3:0|0:0,0:0:0:0:
159,78,58979,1,0,0:0:0:0:
301,1,59099,2,0,P|287:46|277:92,1,93.7500035762788,0|8,3:0|0:3,0:0:0:0:
162,162,59339,2,0,P|175:207|185:253,1,93.7500035762788,8|0,0:0|0:0,0:0:0:0:
476,254,59579,6,0,B|396:168|221:226|333:366|170:358,1,375.000014305115,4|0,3:2|0:0,0:0:0:0:
256,192,60659,12,0,62939,0:0:0:0:
