osu file format v14

[General]
AudioFilename: audio.mp3
AudioLeadIn: 0
PreviewTime: 79374
Countdown: 0
SampleSet: Normal
StackLeniency: 0.3
Mode: 0
LetterboxInBreaks: 0
WidescreenStoryboard: 0

[Editor]
Bookmarks: 12212,21812,41012,60212,79412,156212
DistanceSpacing: 1.5
BeatDivisor: 6
GridSize: 32
TimelineZoom: 1.800003

[Metadata]
Title:Boom
TitleUnicode:Boom
Artist:Antiserum & Tha Trickaz
ArtistUnicode:Antiserum & Tha Trickaz
Creator:Shadren
Version:Extra
Source:
Tags:Firepower Records Trap ambient 808 kick collab
BeatmapID:2066635
BeatmapSetID:987853

[Difficulty]
HPDrainRate:5
CircleSize:2.7
OverallDifficulty:9.2
ApproachRate:9.5
SliderMultiplier:3
SliderTickRate:1

[Events]
//Background and Video events
0,0,"BG.jpg",0,0
//Break Periods
2,26961,59687
//Storyboard Layer 0 (Background)
//Storyboard Layer 1 (Fail)
//Storyboard Layer 2 (Pass)
//Storyboard Layer 3 (Foreground)
//Storyboard Sound Samples

[TimingPoints]
2612,600,4,1,1,80,1,0
2612,-200,4,2,1,80,0,0
21812,-166.666666666667,4,3,1,80,0,0
60212,-100,4,3,1,80,0,1
62012,-333.333333333333,4,3,1,80,0,1
62312,-45.4545454545455,4,3,1,80,0,1
62612,-100,4,3,1,80,0,1
64412,-66.6666666666667,4,3,1,80,0,1
65012,-333.333333333333,4,3,1,80,0,1
65462,-100,4,3,1,80,0,1
67112,-45.4545454545455,4,3,1,80,0,1
67412,-100,4,3,1,80,0,1
69512,-333.333333333333,4,3,1,80,0,1
69812,-142.857142857143,4,3,1,80,0,1
70412,-100,4,3,1,80,0,1
71612,-333.333333333333,4,3,1,80,0,1
71912,-45.4545454545455,4,3,1,80,0,1
72212,-100,4,3,1,80,0,1
74012,-66.6666666666667,4,3,1,80,0,1
74612,-333.333333333333,4,3,1,80,0,1
75062,-100,4,3,1,80,0,1
76412,-333.333333333333,4,3,1,80,0,1
77012,-125,4,3,1,80,0,1

[Colours]
Combo1 : 122,122,122
Combo2 : 255,40,40
Combo3 : 244,122,0
Combo4 : 255,255,4

[HitObjects]
49,147,2612,6,0,L|141:151,1,75
413,244,3062,1,0,0:0:0:0:
278,35,3212,2,0,P|278:77|284:120,1,75
343,340,3812,5,0,0:0:0:0:
367,147,3962,1,0,0:0:0:0:
152,276,4112,2,0,P|196:266|248:260,1,75
123,74,5012,6,0,P|136:117|141:169,1,75
169,355,5462,1,0,0:0:0:0:
255,34,5612,2,0,P|237:80|231:130,1,75
389,249,6212,5,0,0:0:0:0:
152,226,6362,1,0,0:0:0:0:
286,37,6512,2,0,P|291:66|293:132,1,75
263,338,7112,1,0,0:0:0:0:
265,310,7187,1,0,0:0:0:0:
268,282,7262,1,0,0:0:0:0:
271,254,7337,1,0,0:0:0:0:
274,226,7412,6,0,L|350:219,1,75
130,300,7862,1,0,0:0:0:0:
327,113,8012,2,0,P|370:114|410:120,1,75
302,310,8612,5,0,0:0:0:0:
233,94,8762,1,0,0:0:0:0:
150,341,8912,2,0,B|147:299|147:299|155:250,1,75
435,78,9812,6,0,L|419:165,1,75
382,339,10262,1,0,0:0:0:0:
316,47,10412,2,0,L|329:130,1,75
148,286,11012,5,0,0:0:0:0:
117,45,11162,1,0,0:0:0:0:
303,168,11312,2,0,P|255:158|217:155,1,75
51,316,11912,1,0,0:0:0:0:
78,313,11987,1,0,0:0:0:0:
106,310,12062,1,0,0:0:0:0:
134,307,12137,1,0,0:0:0:0:
162,304,12212,6,0,P|170:252|169:214,1,75
132,36,12662,1,0,0:0:0:0:
367,146,12812,2,0,L|280:139,1,75
116,299,13412,5,0,0:0:0:0:
367,258,13562,1,0,0:0:0:0:
225,52,13712,2,0,P|219:98|217:145,1,75
379,331,14612,6,0,L|385:249,1,75
401,38,15062,1,0,0:0:0:0:
179,165,15212,2,0,P|221:157|264:153,1,75
481,226,15812,5,0,0:0:0:0:
246,253,15962,1,0,0:0:0:0:
373,44,16112,2,0,P|370:87|365:124,1,75
147,282,16712,1,0,0:0:0:0:
144,253,16787,1,0,0:0:0:0:
141,224,16862,1,0,0:0:0:0:
138,195,16937,1,0,0:0:0:0:
135,166,17012,6,0,L|141:86,1,75
42,297,17462,1,0,0:0:0:0:
328,209,17612,2,0,P|289:209|244:216,1,75
78,78,18212,5,0,0:0:0:0:
171,288,18362,1,0,0:0:0:0:
275,32,18512,2,0,L|270:120,1,75
376,143,19412,6,0,L|383:102,2,25
318,221,19712,2,0,L|321:260,2,25
207,146,20012,6,0,L|163:138,2,25
339,62,20312,2,0,L|365:59,2,25
319,245,20612,6,0,L|316:266,4,12.5
178,111,20912,2,0,L|174:89,4,12.5
401,289,21212,6,0,L|403:309,4,12.5
91,85,21512,2,0,L|90:62,4,12.5
52,232,21812,6,0,P|98:223|151:217,1,89.9999972534181
387,241,22262,1,0,0:0:0:0:
274,32,22412,2,0,L|268:92,1,44.999998626709
242,342,22712,2,0,P|237:288|226:224,1,89.9999972534181
51,133,23312,2,0,L|111:125,1,44.999998626709
410,101,23612,5,0,0:0:0:0:
136,338,24212,6,0,L|144:230,1,89.9999972534181
158,41,24662,1,0,0:0:0:0:
37,274,24812,2,0,L|31:222,1,44.999998626709
257,115,25112,2,0,L|251:174,1,44.999998626709
113,45,25412,6,0,L|176:38,1,44.999998626709
331,250,25712,2,0,L|260:244,1,44.999998626709
25,228,26012,6,0,L|84:221,1,44.999998626709
466,194,26312,1,0,0:0:0:0:
81,62,26612,6,0,P|118:64|136:66,1,44.999998626709
27,128,60212,6,0,L|191:133,1,150
438,143,60662,2,0,L|472:142,3,18.75
428,153,60812,2,0,P|420:192|418:239,1,75
202,338,61112,2,0,L|196:249,1,75
373,44,61412,6,0,P|315:97|311:195,1,150
393,334,61862,1,0,0:0:0:0:
138,277,62012,6,0,L|178:272,1,33.7499989700318
188,271,62312,6,0,B|184:345|184:345|152:253|184:162,1,247.500007553101
247,109,62612,6,0,B|191:117|191:117|65:99,1,150
326,204,63062,2,0,L|325:233,3,18.75
331,190,63212,2,0,L|409:184,1,75
203,39,63512,2,0,P|193:75|186:120,1,75
425,334,63812,6,0,P|349:303|256:303,1,150
55,337,64262,1,0,0:0:0:0:
243,191,64412,6,0,P|318:98|178:159,1,393.750015020371
170,146,65012,6,0,L|112:141,1,56.2499982833863
24,198,65462,6,0,L|24:223,3,18.75
26,184,65612,2,0,L|23:98,1,75
242,307,65912,2,0,L|249:215,1,75
416,44,66212,6,0,B|430:148|430:148|424:197,1,150
328,352,66662,1,0,0:0:0:0:
112,229,66812,2,0,L|209:220,1,75
399,44,67112,6,0,B|408:111|408:111|391:228|391:228|399:293,1,247.500007553101
328,352,67412,6,0,L|169:344,1,150
54,150,67862,2,0,L|52:122,3,18.75
60,164,68012,2,0,L|146:157,1,75
434,70,68312,2,0,P|391:60|348:56,1,75
238,277,68612,5,0,0:0:0:0:
165,37,68762,2,0,P|159:69|157:115,1,75
389,223,69062,1,0,0:0:0:0:
92,315,69212,5,0,0:0:0:0:
224,64,69512,6,0,L|227:93,1,22.4999993133545
389,223,69812,6,0,B|351:214|318:218|318:218|317:241|317:218|317:218|283:209|240:217,1,157.499995193482
234,225,70412,6,0,P|225:268|222:323,1,75
37,78,70712,2,0,L|131:71,1,75
418,128,71012,2,0,B|369:135|369:135|308:128|308:128|257:134,1,150
132,321,71462,1,0,0:0:0:0:
155,52,71612,6,0,P|160:69|165:92,1,33.7499989700318
167,98,71912,6,0,P|243:58|220:168,1,247.500007553101
153,219,72212,6,0,B|158:269|156:327|156:327|162:302|175:281,1,150
324,98,72662,2,0,L|321:71,3,18.75
327,112,72812,2,0,P|361:107|402:106,1,75
172,351,73112,2,0,P|172:306|177:266,1,75
210,34,73412,5,0,0:0:0:0:
421,237,73562,2,0,P|377:232|328:231,1,75
79,259,73862,1,0,0:0:0:0:
264,105,74012,6,0,P|312:68|259:176,1,393.750015020371
274,200,74612,6,0,B|278:232|278:232|276:263,1,56.2499982833863
208,315,75062,6,0,L|208:349,3,18.75
203,308,75212,2,0,L|124:303,1,75
368,137,75512,2,0,P|328:125|294:120,1,75
470,311,75812,6,0,B|423:324|423:324|302:309,1,150
237,80,76262,1,0,0:0:0:0:
34,266,76412,6,0,L|104:258,1,67.4999979400635
206,300,77012,6,0,L|211:350,5,40
258,207,77612,2,0,L|261:160,5,40
