osu file format v14

[General]
AudioFilename: audio.mp3
AudioLeadIn: 0
PreviewTime: 57059
Countdown: 0
SampleSet: Normal
StackLeniency: 0.3
Mode: 0
LetterboxInBreaks: 0
EpilepsyWarning: 1
WidescreenStoryboard: 1

[Editor]
Bookmarks: 19184,28784,38384,47984,57584,76784,86384,95984
DistanceSpacing: 1.2
BeatDivisor: 4
GridSize: 16
TimelineZoom: 0.8

[Metadata]
Title:Cry Baby
TitleUnicode:Cry Baby
Artist:Antiserum & Mayhem
ArtistUnicode:Antiserum & Mayhem
Creator:Shadren
Version:Normal
Source:
Tags:trap bass 808 cut short verison Hustle Firepower Records twerk scary
BeatmapID:1209945
BeatmapSetID:565136

[Difficulty]
HPDrainRate:4
CircleSize:3
OverallDifficulty:5
ApproachRate:5
SliderMultiplier:1.7
SliderTickRate:1

[Events]
//Background and Video events
0,0,"BG.jpg",0,0
//Break Periods
//Storyboard Layer 0 (Background)
//Storyboard Layer 1 (Fail)
//Storyboard Layer 2 (Pass)
//Storyboard Layer 3 (Foreground)
//Storyboard Sound Samples

[TimingPoints]
9584,600,4,1,1,80,1,0
38384,-100,4,1,1,80,0,1
47984,-100,4,1,1,80,0,0
57434,-100,4,1,1,10,0,0
57584,-100,4,1,1,80,0,1
67184,-100,4,1,1,80,0,0
76784,-100,4,1,1,80,0,1
86384,-100,4,1,1,80,0,0
95834,-100,4,1,1,10,0,0
95984,-100,4,1,1,65,0,0
97184,-100,4,1,1,50,0,0
98384,-100,4,1,1,35,0,0
99584,-100,4,1,1,20,0,0
100784,-100,4,1,1,10,0,0

[Colours]
Combo1 : 176,176,255
Combo2 : 166,210,255
Combo3 : 177,177,177
Combo4 : 248,172,97
Combo5 : 230,129,111
Combo6 : 255,255,159

[HitObjects]
38,124,9584,6,0,P|45:76|58:32,2,85,4|0|8,3:1|0:0|0:0,0:0:0:0:
89,212,10484,2,0,B|139:216|139:216|205:204|205:204|264:206,1,170,4|8,3:1|0:0,0:0:0:0:
341,263,11384,2,0,P|346:308|343:357,1,85,8|0,0:0|0:0,0:0:0:0:
242,354,11984,6,0,P|199:334|152:323,1,85,8|0,0:0|0:0,0:0:0:0:
111,325,12434,1,8,0:0:0:0:
69,296,12584,2,0,P|64:248|66:203,1,85,8|8,0:0|0:0,0:0:0:0:
92,113,13184,1,0,0:0:0:0:
178,58,13484,2,0,P|190:101|190:145,1,85,8|8,0:0|0:0,0:0:0:0:
210,241,14084,1,0,0:0:0:0:
289,175,14384,70,0,P|330:166|382:160,1,85,4|0,3:1|0:0,0:0:0:0:
413,129,14834,2,0,L|406:66,1,42.5,8|8,0:0|0:0,0:0:0:0:
500,129,15284,2,0,P|489:196|485:266,1,127.5,4|8,3:1|0:0,0:0:0:0:
489,306,15884,1,8,0:0:0:0:
393,341,16184,2,0,P|346:336|305:334,1,85,8|0,0:0|0:0,0:0:0:0:
215,292,16784,6,0,P|157:298|112:299,1,85,8|0,0:0|0:0,0:0:0:0:
79,294,17234,1,8,0:0:0:0:
41,259,17384,2,0,B|36:216|36:216|41:173,1,85,8|8,0:0|0:0,0:0:0:0:
127,119,17984,2,0,B|131:77|131:77|126:34,1,85,0|8,0:0|0:0,0:0:0:0:
228,31,18584,2,0,P|273:26|324:24,1,85,8|0,0:0|0:0,0:0:0:0:
390,89,19184,38,0,P|431:84|478:84,1,85,4|0,0:0|0:0,0:0:0:0:
505,124,19634,2,0,L|512:174,1,42.5,0|2,3:0|0:0,0:0:0:0:
454,251,20084,1,4,0:0:0:0:
415,219,20234,2,0,P|349:219|277:226,1,127.5,2|0,2:0|3:0,0:0:0:0:
204,283,20984,1,2,0:0:0:0:
102,275,21284,1,0,0:0:0:0:
60,181,21584,6,0,P|60:135|75:68,1,85,4|0,0:0|0:0,0:0:0:0:
103,61,22034,2,0,L|100:13,1,42.5,0|2,3:0|0:0,0:0:0:0:
205,31,22484,1,4,0:0:0:0:
249,56,22634,2,0,P|310:47|401:48,1,127.5,2|0,2:0|3:0,0:0:0:0:
422,67,23234,1,0,0:0:0:0:
452,107,23384,2,0,L|447:193,1,85,2|0,0:0|0:0,0:0:0:0:
374,264,23984,70,0,P|323:257|279:254,1,85,4|0,0:0|0:0,0:0:0:0:
239,264,24434,1,0,3:0:0:0:
196,292,24584,2,0,P|136:304|95:305,1,85,2|4,0:0|0:0,0:0:0:0:
63,290,25034,1,2,2:0:0:0:
25,255,25184,2,0,P|23:213|25:162,1,85,0|0,0:0|3:0,0:0:0:0:
85,87,25784,2,0,B|128:80|128:80|170:79,1,85,2|0,0:0|0:0,0:0:0:0:
236,156,26384,6,0,P|299:142|380:137,1,127.5,4|0,0:0|3:0,0:0:0:0:
411,149,26984,1,2,0:0:0:0:
438,247,27284,1,4,0:0:0:0:
397,278,27434,2,0,B|356:285|356:285|304:280,1,85,2|0,2:0|0:0,0:0:0:0:
262,287,27884,2,0,L|267:331,1,42.5,0|0,3:0|0:0,0:0:0:0:
227,361,28184,2,0,P|179:352|128:347,1,85,2|0,0:0|0:0,0:0:0:0:
82,265,28784,70,0,P|31:272|-19:288,2,85,4|0|8,0:0|0:0|0:0,0:0:0:0:
184,256,29684,1,4,0:0:0:0:
263,191,29984,2,0,B|264:142|264:142|256:88,1,85,8|0,0:0|0:0,0:0:0:0:
192,29,30584,2,0,L|331:26,1,127.5,8|0,0:0|0:0,0:0:0:0:
360,56,31184,6,0,P|401:45|458:39,2,85,4|0|8,0:0|0:0|0:0,0:0:0:0:
334,154,32084,1,4,0:0:0:0:
254,218,32384,2,0,B|213:221|213:221|167:217,1,85,8|0,0:0|0:0,0:0:0:0:
73,182,32984,2,0,P|74:117|79:49,1,127.5,8|0,0:0|0:0,0:0:0:0:
126,36,33584,70,0,P|181:29|219:28,2,85,4|0|8,0:0|0:0|0:0,0:0:0:0:
175,125,34484,1,4,0:0:0:0:
259,181,34784,2,0,P|323:160|353:157,1,85,8|0,0:0|0:0,0:0:0:0:
441,152,35384,2,0,P|427:220|424:302,1,127.5,8|0,0:0|0:0,0:0:0:0:
422,328,35984,6,0,B|464:318|514:311,2,85,4|0|8,0:0|0:0|0:0,0:0:0:0:
324,359,36884,1,4,0:0:0:0:
245,294,37184,2,0,P|197:285|136:281,1,85,8|0,0:0|0:0,0:0:0:0:
60,301,37784,1,8,0:0:0:0:
65,97,38384,38,0,P|120:89|192:84,1,127.5,4|0,0:0|3:0,0:0:0:0:
242,91,38984,1,8,0:0:0:0:
217,190,39284,1,0,3:0:0:0:
308,235,39584,2,0,B|374:215|436:209,1,127.5,0|0,0:0|0:0,0:0:0:0:
482,219,40184,1,8,0:0:0:0:
486,117,40484,1,0,3:0:0:0:
403,57,40784,6,0,L|406:8,2,42.5,0|0|0,3:0|0:0|0:0,0:0:0:0:
319,111,41384,2,0,P|271:104|224:102,1,85,8|0,0:0|3:0,0:0:0:0:
151,161,41984,2,0,P|143:222|137:309,1,127.5,0|0,0:0|0:0,0:0:0:0:
139,338,42584,1,8,0:0:0:0:
41,308,42884,1,0,3:0:0:0:
19,208,43184,70,0,P|24:153|29:111,1,85,4|0,0:0|0:0,0:0:0:0:
58,82,43634,1,0,3:0:0:0:
104,61,43784,2,0,B|152:55|202:55,1,85,8|0,0:0|3:0,0:0:0:0:
275,109,44384,2,0,P|324:120|368:125,1,85,0|0,0:0|3:0,0:0:0:0:
409,120,44834,1,0,0:0:0:0:
459,114,44984,2,0,P|471:150|473:202,1,85,8|0,0:0|3:0,0:0:0:0:
409,275,45584,6,0,L|414:324,2,42.5,0|0|0,3:0|0:0|0:0,0:0:0:0:
362,254,46034,1,0,3:0:0:0:
311,244,46184,2,0,P|268:248|218:262,1,85,8|0,0:0|3:0,0:0:0:0:
181,167,46784,2,0,P|122:154|43:148,1,127.5,0|0,0:0|0:0,0:0:0:0:
5,159,47384,1,8,0:0:0:0:
42,64,47684,1,0,3:0:0:0:
140,36,47984,70,0,P|199:31|224:32,1,85,4|0,0:0|0:0,0:0:0:0:
270,53,48434,1,8,0:0:0:0:
313,79,48584,2,0,L|371:73,1,42.5,8|0,0:0|0:0,0:0:0:0:
399,100,48884,2,0,P|392:145|390:208,1,85,4|0,0:0|0:0,0:0:0:0:
443,271,49484,1,8,0:0:0:0:
364,336,49784,2,0,P|314:332|267:328,1,85,8|0,0:0|0:0,0:0:0:0:
177,329,50384,6,0,L|134:335,2,42.5,0|0|0,0:0|0:0|0:0,0:0:0:0:
208,288,50834,1,8,0:0:0:0:
223,239,50984,2,0,P|219:191|207:149,1,85,8|0,0:0|0:0,0:0:0:0:
262,68,51584,2,0,P|305:81|356:85,1,85,0|8,0:0|0:0,0:0:0:0:
385,179,52184,2,0,P|352:211|326:249,1,85,8|0,0:0|0:0,0:0:0:0:
277,330,52784,70,0,P|232:322|184:319,1,85,4|0,0:0|0:0,0:0:0:0:
144,335,53234,1,8,0:0:0:0:
102,305,53384,2,0,L|97:257,1,42.5,8|0,0:0|0:0,0:0:0:0:
65,222,53684,2,0,B|60:180|60:180|67:121,1,85,4|0,0:0|0:0,0:0:0:0:
142,71,54284,1,8,0:0:0:0:
243,66,54584,2,0,P|285:74|333:96,1,85,8|0,0:0|0:0,0:0:0:0:
418,129,55184,6,0,L|468:120,2,42.5,0|0|0,0:0|0:0|0:0,0:0:0:0:
388,171,55634,1,8,0:0:0:0:
360,213,55784,2,0,P|352:266|351:313,1,85,8|0,0:0|0:0,0:0:0:0:
255,332,56384,2,0,P|208:318|161:312,1,85,0|8,0:0|0:0,0:0:0:0:
138,216,56984,2,0,L|265:208,1,127.5,8|0,0:0|0:0,0:0:0:0:
299,170,57584,70,0,P|300:126|296:72,1,85,4|0,0:0|0:0,0:0:0:0:
255,55,58034,2,0,L|206:59,1,42.5,0|2,3:0|0:0,0:0:0:0:
112,39,58484,1,0,3:0:0:0:
83,81,58634,2,0,P|94:143|97:225,1,127.5,0|0,0:0|3:0,0:0:0:0:
167,281,59384,2,0,P|218:269|260:265,1,85,2|0,0:0|3:0,0:0:0:0:
349,290,59984,5,0,3:0:0:0:
386,255,60134,2,0,P|392:191|394:126,1,127.5,0|2,0:0|0:0,0:0:0:0:
309,71,60884,1,0,3:0:0:0:
262,91,61034,2,0,P|219:86|164:85,1,85,0|0,0:0|0:0,0:0:0:0:
132,108,61484,1,0,3:0:0:0:
99,147,61634,2,0,L|100:201,1,42.5,0|2,0:0|0:0,0:0:0:0:
42,274,62084,1,0,3:0:0:0:
118,342,62384,69,4,0:0:0:0:
166,356,62534,2,0,P|228:342|297:335,1,127.5,0|2,0:0|0:0,0:0:0:0:
393,336,63284,1,0,3:0:0:0:
420,292,63434,2,0,L|428:134,1,127.5,0|0,0:0|3:0,0:0:0:0:
350,96,64184,2,0,P|304:97|263:107,1,85,2|0,0:0|3:0,0:0:0:0:
190,174,64784,5,0,3:0:0:0:
152,208,64934,2,0,P|84:202|10:202,1,127.5,0|2,0:0|0:0,0:0:0:0:
7,100,65684,2,0,L|51:106,1,42.5,0|0,3:0|0:0,0:0:0:0:
96,84,65984,2,0,P|154:62|229:55,1,127.5,2|0,0:0|0:0,0:0:0:0:
266,71,66584,2,0,P|330:88|405:85,1,127.5,2|0,0:0|0:0,0:0:0:0:
433,59,67184,70,0,P|423:128|422:198,1,127.5,4|8,0:0|0:0,0:0:0:0:
432,235,67784,1,8,0:0:0:0:
354,301,68084,2,0,B|312:304|312:304|270:298|270:298|223:296,1,127.5,4|0,0:0|0:0,0:0:0:0:
186,265,68684,2,0,L|195:193,1,42.5,0|8,3:0|0:0,0:0:0:0:
162,180,68984,2,0,P|118:184|65:195,1,85,8|0,0:0|3:0,0:0:0:0:
94,90,69584,6,0,L|232:101,1,127.5,4|8,0:0|0:0,0:0:0:0:
263,128,70184,2,0,P|306:116|357:111,1,85,8|4,0:0|0:0,0:0:0:0:
438,154,70784,2,0,P|446:218|450:297,1,127.5,8|0,0:0|0:0,0:0:0:0:
441,331,71384,1,8,0:0:0:0:
239,341,71984,70,0,P|170:335|83:335,1,127.5,4|8,0:0|0:0,0:0:0:0:
62,349,72584,1,8,0:0:0:0:
76,249,72884,2,0,B|83:204|83:204|74:104,1,127.5,4|0,0:0|0:0,0:0:0:0:
105,81,73484,2,0,L|146:73,1,42.5,0|8,3:0|0:0,0:0:0:0:
192,95,73784,2,0,P|241:84|285:79,1,85,8|0,0:0|3:0,0:0:0:0:
377,87,74384,6,0,L|463:80,1,85,12|8,0:0|0:0,0:0:0:0:
415,171,74984,2,0,L|500:165,1,85,8|12,0:0|0:0,0:0:0:0:
469,262,75584,2,0,P|485:298|491:354,1,85,4|4,0:0|0:0,0:0:0:0:
389,355,76184,2,0,P|381:310|353:251,1,85,4|4,0:0|0:0,0:0:0:0:
270,287,76784,70,0,P|203:289|143:300,1,127.5,4|0,0:0|3:0,0:0:0:0:
95,317,77384,1,2,0:0:0:0:
58,221,77684,1,0,3:0:0:0:
157,197,77984,2,0,B|137:131|131:69,1,127.5,0|0,0:0|0:0,0:0:0:0:
139,21,78584,1,2,0:0:0:0:
235,53,78884,1,0,3:0:0:0:
304,127,79184,6,0,L|301:176,2,42.5,0|0|0,3:0|0:0|0:0,0:0:0:0:
339,89,79634,1,0,3:0:0:0:
388,73,79784,2,0,P|436:80|483:82,1,85,2|0,0:0|3:0,0:0:0:0:
428,174,80384,2,0,P|436:237|441:300,1,127.5,0|0,0:0|0:0,0:0:0:0:
439,352,80984,1,2,0:0:0:0:
342,319,81284,1,0,3:0:0:0:
244,287,81584,70,0,P|246:244|254:190,1,85,4|0,0:0|0:0,0:0:0:0:
285,164,82034,1,0,3:0:0:0:
331,143,82184,2,0,B|376:134|430:134,1,85,2|0,0:0|3:0,0:0:0:0:
357,50,82784,2,0,P|308:39|264:34,1,85,0|0,0:0|3:0,0:0:0:0:
223,45,83234,1,0,0:0:0:0:
181,74,83384,2,0,P|139:85|92:88,1,85,2|0,0:0|3:0,0:0:0:0:
61,183,83984,6,0,L|56:235,2,42.5,0|0|0,3:0|0:0|0:0,0:0:0:0:
110,170,84434,1,0,3:0:0:0:
160,173,84584,2,0,P|203:169|253:155,1,85,2|0,0:0|3:0,0:0:0:0:
324,221,85184,2,0,P|383:234|462:240,1,127.5,0|0,0:0|0:0,0:0:0:0:
497,220,85784,1,2,0:0:0:0:
460,124,86084,1,0,3:0:0:0:
380,59,86384,70,0,P|321:54|296:55,1,85,4|0,0:0|0:0,0:0:0:0:
250,76,86834,1,8,0:0:0:0:
207,102,86984,2,0,L|149:96,1,42.5,8|0,0:0|0:0,0:0:0:0:
121,123,87284,2,0,P|128:168|130:231,1,85,4|0,0:0|0:0,0:0:0:0:
76,294,87884,1,8,0:0:0:0:
156,359,88184,2,0,P|206:355|253:351,1,85,8|0,0:0|0:0,0:0:0:0:
334,312,88784,6,0,L|377:318,2,42.5,0|0|0,0:0|0:0|0:0,0:0:0:0:
297,275,89234,1,8,0:0:0:0:
272,230,89384,2,0,P|276:182|288:140,1,85,8|0,0:0|0:0,0:0:0:0:
343,62,89984,2,0,L|434:53,1,85,0|8,0:0|0:0,0:0:0:0:
479,141,90584,2,0,L|390:151,1,85,8|0,0:0|0:0,0:0:0:0:
328,228,91184,70,0,P|283:220|235:217,1,85,4|0,0:0|0:0,0:0:0:0:
195,233,91634,1,8,0:0:0:0:
153,203,91784,2,0,L|148:155,1,42.5,8|0,0:0|0:0,0:0:0:0:
116,120,92084,2,0,B|111:78|111:78|118:19,1,85,4|0,0:0|0:0,0:0:0:0:
217,23,92684,1,8,0:0:0:0:
306,75,92984,2,0,P|351:60|404:50,1,85,8|0,0:0|0:0,0:0:0:0:
456,127,93584,6,0,L|506:118,2,42.5,0|0|0,0:0|0:0|0:0,0:0:0:0:
426,169,94034,1,8,0:0:0:0:
398,211,94184,2,0,P|390:264|389:311,1,85,8|8,0:0|0:0,0:0:0:0:
299,345,94784,2,0,P|255:335|203:331,1,85,0|8,0:0|0:0,0:0:0:0:
129,275,95384,2,0,P|129:211|137:148,1,127.5,8|0,0:0|0:0,0:0:0:0:
148,97,95984,53,4,0:0:0:0:
256,192,96134,12,0,100784,0:0:0:0:
