osu file format v14

[General]
AudioFilename: audio.mp3
AudioLeadIn: 0
PreviewTime: 57059
Countdown: 0
SampleSet: Normal
StackLeniency: 0.3
Mode: 0
LetterboxInBreaks: 0
EpilepsyWarning: 1
WidescreenStoryboard: 1

[Editor]
Bookmarks: 14384,19184,28784
DistanceSpacing: 1.6
BeatDivisor: 8
GridSize: 4
TimelineZoom: 2.1

[Metadata]
Title:Cry Baby
TitleUnicode:Cry Baby
Artist:Antiserum & Mayhem
ArtistUnicode:Antiserum & Mayhem
Creator:Shadren
Version:Insane
Source:
Tags:trap bass 808 cut short verison Hustle Firepower Records twerk scary
BeatmapID:1194500
BeatmapSetID:565136

[Difficulty]
HPDrainRate:6
CircleSize:3.7
OverallDifficulty:8
ApproachRate:9.3
SliderMultiplier:2.6
SliderTickRate:1

[Events]
//Background and Video events
0,0,"BG.jpg",0,0
//Break Periods
//Storyboard Layer 0 (Background)
//Storyboard Layer 1 (Fail)
//Storyboard Layer 2 (Pass)
//Storyboard Layer 3 (Foreground)
//Storyboard Sound Samples

[TimingPoints]
9584,600,4,1,1,80,1,0
19034,-100,4,1,1,5,0,0
19184,-100,4,1,1,80,0,0
38384,-90.9090909090909,4,1,1,80,0,1
47984,-100,4,1,1,80,0,0
56984,-200,4,1,1,80,0,0
57509,-200,4,1,1,5,0,0
57584,-90.9090909090909,4,1,1,80,0,1
67184,-100,4,1,1,80,0,0
75884,-95.2380952380952,4,1,1,80,0,0
76184,-90.9090909090909,4,1,1,80,0,0
76484,-86.9565217391304,4,1,1,80,0,0
76784,-90.9090909090909,4,1,1,80,0,1
86384,-100,4,1,1,80,0,0
95384,-200,4,1,1,80,0,0
95909,-200,4,1,1,5,0,0
95984,-100,4,1,1,65,0,0
97184,-100,4,1,1,50,0,0
98384,-100,4,1,1,35,0,0
99584,-100,4,1,1,20,0,0
100784,-100,4,1,1,10,0,0

[Colours]
Combo1 : 176,176,255
Combo2 : 166,210,255
Combo3 : 177,177,177
Combo4 : 248,172,97
Combo5 : 230,129,111
Combo6 : 255,255,159

[HitObjects]
106,42,9584,6,0,P|110:110|114:182,1,130,4|0,3:1|0:0,0:0:0:0:
71,267,10034,1,0,0:0:0:0:
141,343,10184,2,0,P|176:341|213:336,1,65,8|0,0:0|0:0,0:0:0:0:
404,270,10484,2,0,P|335:266|268:265,1,130,4|0,3:1|0:0,0:0:0:0:
328,354,10934,5,8,0:0:0:0:
409,178,11084,2,0,P|408:144|399:94,1,65,8|0,0:0|0:0,0:0:0:0:
232,41,11384,2,0,L|236:112,1,65,8|0,0:0|0:0,0:0:0:0:
121,233,11684,2,0,P|123:198|128:162,1,65,0|0,0:0|0:0,0:0:0:0:
299,316,11984,70,0,B|297:172,1,130,8|0,0:0|0:0,0:0:0:0:
235,105,12434,1,8,0:0:0:0:
395,135,12584,2,0,P|402:168|405:201,1,65,8|0,0:0|0:0,0:0:0:0:
168,178,12884,2,0,P|232:182|301:187,1,130,8|0,0:0|0:0,0:0:0:0:
456,281,13334,5,8,0:0:0:0:
432,88,13484,2,0,P|428:53|423:20,1,65,8|0,0:0|0:0,0:0:0:0:
295,121,13784,2,0,L|298:197,1,65,8|0,0:0|0:0,0:0:0:0:
425,274,14084,2,0,P|387:269|339:267,1,65,0|0,0:0|0:0,0:0:0:0:
138,311,14384,70,0,B|179:316|179:316|228:311|228:311|281:315,1,130,4|0,3:1|0:0,0:0:0:0:
360,267,14834,1,8,0:0:0:0:
183,234,14984,2,0,L|118:229,1,65,8|0,0:0|0:0,0:0:0:0:
375,157,15284,2,0,P|309:149|241:150,1,130,4|0,3:1|0:0,0:0:0:0:
69,168,15734,5,8,0:0:0:0:
149,30,15884,2,0,P|156:62|158:96,1,65,8|0,0:0|0:0,0:0:0:0:
148,284,16184,2,0,P|149:251|153:209,1,65,8|0,0:0|0:0,0:0:0:0:
310,155,16484,2,0,P|268:150|242:149,1,65,0|0,0:0|0:0,0:0:0:0:
85,337,16784,70,0,L|218:328,1,130,8|0,0:0|0:0,0:0:0:0:
315,354,17234,1,8,0:0:0:0:
226,165,17384,2,0,P|215:198|208:235,1,65,8|0,0:0|0:0,0:0:0:0:
434,223,17684,2,0,P|367:220|304:219,1,130,8|0,0:0|0:0,0:0:0:0:
141,290,18134,5,8,0:0:0:0:
75,115,18284,2,0,P|77:80|85:43,1,65,8|0,0:0|0:0,0:0:0:0:
286,102,18584,2,0,P|289:177|208:139,1,195,8|0,0:0|0:0,0:0:0:0:
206,129,19184,38,0,P|212:195|215:280,1,130,4|0,0:0|0:0,0:0:0:0:
149,339,19634,1,0,3:0:0:0:
9,204,19784,2,0,P|42:205|86:209,1,65,2|0,0:0|0:0,0:0:0:0:
293,232,20084,1,4,0:0:0:0:
179,89,20234,6,0,B|177:129|177:129|183:177|183:177|181:227,1,130,2|0,2:0|0:0,0:0:0:0:
63,341,20684,2,0,P|66:305|72:272,1,65,0|0,3:0|0:0,0:0:0:0:
311,222,20984,2,0,P|238:220|165:218,1,130,2|0,0:0|0:0,0:0:0:0:
156,319,21434,1,0,0:0:0:0:
52,129,21584,70,0,P|52:94|58:61,2,65,4|0|0,0:0|0:0|0:0,0:0:0:0:
89,228,22034,1,0,3:0:0:0:
191,83,22184,2,0,P|223:79|255:77,1,65,2|0,0:0|0:0,0:0:0:0:
421,150,22484,1,4,0:0:0:0:
308,315,22634,6,0,B|314:230|314:230|308:186,1,130,2|0,2:0|0:0,0:0:0:0:
211,278,23084,1,0,3:0:0:0:
398,228,23234,1,0,0:0:0:0:
230,99,23384,2,0,P|225:133|225:170,1,65,2|0,0:0|0:0,0:0:0:0:
331,298,23684,2,0,L|334:326,7,16.25,0|0|0|0|0|0|0|0,0:0|0:0|0:0|0:0|0:0|0:0|0:0|0:0,0:0:0:0:
320,290,23984,70,0,P|255:285|188:287,1,130,4|0,0:0|0:0,0:0:0:0:
103,343,24434,1,0,3:0:0:0:
74,168,24584,2,0,P|74:136|82:98,1,65,2|0,0:0|0:0,0:0:0:0:
289,161,24884,1,4,0:0:0:0:
193,239,25034,6,0,P|192:167|188:105,1,130,2|0,2:0|0:0,0:0:0:0:
326,57,25484,2,0,P|291:52|251:49,1,65,0|0,3:0|0:0,0:0:0:0:
47,165,25784,2,0,P|82:162|128:154,1,65,2|0,0:0|0:0,0:0:0:0:
361,240,26084,1,0,0:0:0:0:
345,236,26159,1,0,0:0:0:0:
328,233,26234,1,0,0:0:0:0:
312,229,26309,1,0,0:0:0:0:
297,225,26384,70,0,P|365:218|447:214,1,130,4|0,0:0|0:0,0:0:0:0:
491,296,26834,1,0,3:0:0:0:
404,107,26984,2,0,P|437:109|475:117,1,65,2|0,0:0|0:0,0:0:0:0:
372,295,27284,1,4,0:0:0:0:
183,180,27434,6,0,P|250:171|313:169,1,130,2|0,2:0|0:0,0:0:0:0:
252,345,27884,2,0,P|253:311|257:271,1,65,0|0,3:0|0:0,0:0:0:0:
307,104,28184,2,0,P|311:139|312:177,1,65,2|0,0:0|0:0,0:0:0:0:
118,244,28484,2,0,L|116:273,7,16.25,0|0|0|0|0|0|0|0,0:0|0:0|0:0|0:0|0:0|0:0|0:0|0:0,0:0:0:0:
121,230,28784,70,0,P|121:190|115:156,1,65,4|0,0:0|0:0,0:0:0:0:
237,48,29084,2,0,L|228:128,1,65,0|8,0:0|0:0,0:0:0:0:
427,202,29384,2,0,P|356:199|291:198,1,130,8|4,0:0|0:0,0:0:0:0:
219,267,29834,1,0,0:0:0:0:
120,83,29984,6,0,P|161:74|206:70,2,86.6666666666667,8|2|2,0:0|2:0|2:0,0:0:0:0:
362,219,30584,2,0,P|320:208|277:204,2,86.6666666666667,8|2|2,0:0|2:0|2:0,0:0:0:0:
471,75,31184,70,0,L|392:82,1,65,4|0,0:0|0:0,0:0:0:0:
214,113,31484,2,0,L|285:119,1,65,0|8,0:0|0:0,0:0:0:0:
372,307,31784,2,0,B|375:269|375:269|366:218|366:218|368:175,1,130,8|4,0:0|0:0,0:0:0:0:
460,129,32234,1,0,0:0:0:0:
264,218,32384,6,0,L|277:307,2,86.6666666666667,8|2|2,0:0|2:0|2:0,0:0:0:0:
142,149,32984,2,0,P|145:102|151:60,1,86.6666666666667,8|2,0:0|2:0,0:0:0:0:
254,46,33284,2,0,L|274:51,7,16.25,0|0|0|0|0|0|0|0,0:0|0:0|0:0|0:0|0:0|0:0|0:0|0:0,0:0:0:0:
243,46,33584,70,0,L|376:43,1,130,4|0,0:0|0:0,0:0:0:0:
446,117,34034,1,8,0:0:0:0:
381,264,34184,2,0,P|380:232|384:200,1,65,8|0,0:0|0:0,0:0:0:0:
242,107,34484,2,0,L|249:182,1,65,4|0,0:0|0:0,0:0:0:0:
139,279,34784,6,0,P|94:283|46:290,2,86.6666666666667,8|2|2,0:0|2:0|2:0,0:0:0:0:
276,299,35384,2,0,P|318:306|365:308,1,86.6666666666667,8|2,0:0|2:0,0:0:0:0:
437,144,35684,1,0,0:0:0:0:
445,149,35759,1,0,0:0:0:0:
452,154,35834,1,0,0:0:0:0:
459,159,35909,1,0,0:0:0:0:
466,165,35984,70,0,L|330:171,1,130,4|0,0:0|0:0,0:0:0:0:
242,124,36434,1,8,0:0:0:0:
131,275,36584,2,0,P|171:270|207:268,1,65,8|0,0:0|0:0,0:0:0:0:
352,344,36884,2,0,P|355:310|358:269,1,65,4|0,0:0|0:0,0:0:0:0:
210,129,37184,6,0,P|206:84|206:27,2,86.6666666666667,8|2|2,0:0|2:0|2:0,0:0:0:0:
357,279,37784,1,8,0:0:0:0:
50,227,38384,38,0,P|125:220|199:217,1,143.000004364014,4|0,0:0|0:0,0:0:0:0:
125,310,38834,1,0,3:0:0:0:
178,133,38984,1,8,0:0:0:0:
294,274,39134,1,0,0:0:0:0:
354,148,39284,2,0,P|309:156|265:170,1,71.5000021820069,0|0,3:0|0:0,0:0:0:0:
35,128,39584,6,0,B|79:127|79:127|135:134|135:134|181:132,1,143.000004364014,0|0,0:0|3:0,0:0:0:0:
116,34,40034,1,0,0:0:0:0:
106,226,40184,2,0,L|193:217,1,71.5000021820069,8|0,0:0|0:0,0:0:0:0:
349,275,40484,2,0,P|311:271|267:269,1,71.5000021820069,0|0,3:0|0:0,0:0:0:0:
149,145,40784,69,0,3:0:0:0:
244,80,40934,1,0,0:0:0:0:
152,247,41084,1,0,0:0:0:0:
54,93,41234,1,0,3:0:0:0:
237,178,41384,6,0,B|281:180|281:180|339:174|339:174|392:177,1,143.000004364014,8|0,0:0|3:0,0:0:0:0:
318,272,41834,1,0,0:0:0:0:
206,97,41984,2,0,P|168:105|134:118,1,71.5000021820069,0|0,0:0|0:0,0:0:0:0:
184,281,42284,2,0,P|137:275|104:274,1,71.5000021820069,0|0,3:0|0:0,0:0:0:0:
332,228,42584,2,0,P|326:267|325:303,1,71.5000021820069,8|0,0:0|0:0,0:0:0:0:
235,113,42884,2,0,L|232:91,7,17.8750005455017,0|0|0|0|0|0|0|0,3:0|0:0|0:0|0:0|0:0|0:0|0:0|0:0,0:0:0:0:
236,131,43184,70,0,L|88:127,1,143.000004364014,4|0,0:0|0:0,0:0:0:0:
158,32,43634,1,0,3:0:0:0:
190,224,43784,1,8,0:0:0:0:
19,179,43934,1,0,0:0:0:0:
93,337,44084,2,0,P|101:285|102:248,1,71.5000021820069,0|0,3:0|0:0,0:0:0:0:
182,81,44384,6,0,L|191:242,1,143.000004364014,0|0,0:0|3:0,0:0:0:0:
197,338,44834,1,0,0:0:0:0:
96,210,44984,2,0,P|83:258|80:297,1,71.5000021820069,8|0,0:0|0:0,0:0:0:0:
294,326,45284,1,0,3:0:0:0:
290,306,45359,1,0,0:0:0:0:
286,286,45434,1,0,0:0:0:0:
282,266,45509,1,0,0:0:0:0:
277,246,45584,69,0,3:0:0:0:
385,282,45734,1,0,0:0:0:0:
197,338,45884,1,0,0:0:0:0:
252,163,46034,1,0,3:0:0:0:
97,260,46184,2,0,L|251:247,1,143.000004364014,8|0,0:0|3:0,0:0:0:0:
182,347,46634,1,0,0:0:0:0:
252,163,46784,6,0,P|254:121|252:83,1,71.5000021820069,0|0,0:0|0:0,0:0:0:0:
146,132,47084,1,0,3:0:0:0:
356,211,47234,1,0,0:0:0:0:
333,43,47384,2,0,P|337:80|339:129,1,71.5000021820069,8|0,0:0|0:0,0:0:0:0:
270,267,47684,2,0,P|271:230|279:178,1,71.5000021820069,0|0,3:0|0:0,0:0:0:0:
468,120,47984,70,0,P|403:116|326:113,1,130,4|0,0:0|0:0,0:0:0:0:
275,195,48434,1,8,0:0:0:0:
194,59,48584,2,0,P|237:48|273:45,1,65,8|0,0:0|0:0,0:0:0:0:
404,193,48884,2,0,B|360:189|360:189|313:196|313:196|251:193,1,130,4|0,0:0|0:0,0:0:0:0:
195,125,49334,5,8,0:0:0:0:
139,269,49484,2,0,P|171:266|211:258,1,65,8|0,0:0|0:0,0:0:0:0:
404,200,49784,2,0,L|267:193,1,130,8|0,0:0|0:0,0:0:0:0:
314,290,50234,1,0,0:0:0:0:
125,282,50384,70,0,P|86:287|43:294,2,65,0|0|0,0:0|0:0|0:0,0:0:0:0:
217,329,50834,1,8,0:0:0:0:
122,184,50984,2,0,L|258:178,1,130,8|0,0:0|0:0,0:0:0:0:
330,246,51434,1,0,0:0:0:0:
203,93,51584,5,0,0:0:0:0:
130,286,51734,1,8,0:0:0:0:
13,153,51884,1,8,0:0:0:0:
122,184,52034,1,0,0:0:0:0:
91,19,52184,2,0,P|103:54|108:95,1,65,8|0,0:0|0:0,0:0:0:0:
126,290,52484,2,0,L|142:293,7,16.25,0|0|0|0|0|0|0|0,0:0|0:0|0:0|0:0|0:0|0:0|0:0|0:0,0:0:0:0:
117,287,52784,70,0,L|258:280,1,130,4|0,0:0|0:0,0:0:0:0:
320,108,53234,1,8,0:0:0:0:
221,200,53384,2,0,P|222:167|228:130,1,65,8|0,0:0|0:0,0:0:0:0:
329,355,53684,2,0,L|324:224,1,130,4|0,0:0|0:0,0:0:0:0:
415,276,54134,5,8,0:0:0:0:
221,216,54284,1,8,0:0:0:0:
372,115,54434,1,0,0:0:0:0:
324,290,54584,2,0,P|326:326|331:369,1,65,8|0,0:0|0:0,0:0:0:0:
241,170,54884,1,0,0:0:0:0:
240,186,54959,1,0,0:0:0:0:
239,202,55034,1,0,0:0:0:0:
237,218,55109,1,0,0:0:0:0:
236,234,55184,70,0,L|159:229,2,65,0|0|0,0:0|0:0|0:0,0:0:0:0:
324,290,55634,1,8,0:0:0:0:
332,83,55784,2,0,P|322:120|317:157,1,65,8|0,0:0|0:0,0:0:0:0:
427,211,56084,2,0,P|433:247|437:287,2,65,0|0|0,0:0|0:0|0:0,0:0:0:0:
336,261,56534,1,8,0:0:0:0:
481,144,56684,1,8,0:0:0:0:
327,58,56834,1,0,0:0:0:0:
183,170,56984,70,0,P|238:163|300:159,1,113.75,8|0,0:0|0:0,0:0:0:0:
310,158,57584,22,0,L|137:152,1,143.000004364014,4|0,0:0|0:0,0:0:0:0:
89,237,58034,1,0,3:0:0:0:
26,45,58184,2,0,P|69:52|108:64,1,71.5000021820069,2|0,0:0|0:0,0:0:0:0:
167,153,58484,1,0,3:0:0:0:
395,75,58634,70,0,P|299:71|235:73,1,143.000004364014,0|0,0:0|0:0,0:0:0:0:
167,153,59084,2,0,L|165:180,7,17.8750005455017,0|0|0|0|0|0|0|0,3:0|0:0|0:0|0:0|0:0|0:0|0:0|0:0,0:0:0:0:
166,140,59384,2,0,P|125:133|88:129,1,71.5000021820069,2|0,0:0|0:0,0:0:0:0:
252,72,59684,1,0,3:0:0:0:
205,249,59834,1,0,0:0:0:0:
396,156,59984,6,0,L|243:165,1,143.000004364014,0|0,3:0|0:0,0:0:0:0:
309,265,60434,1,0,3:0:0:0:
148,203,60584,2,0,P|146:165|150:131,1,71.5000021820069,2|0,0:0|0:0,0:0:0:0:
253,83,60884,1,0,3:0:0:0:
36,45,61034,2,0,B|77:48|77:48|130:39|130:39|187:42,1,143.000004364014,0|0,0:0|0:0,0:0:0:0:
224,275,61484,69,0,3:0:0:0:
274,83,61634,1,0,0:0:0:0:
441,183,61784,2,0,L|291:187,1,143.000004364014,2|0,0:0|3:0,0:0:0:0:
224,275,62234,1,0,0:0:0:0:
170,51,62384,6,0,P|226:56|246:61,1,71.5000021820069,4|0,0:0|0:0,0:0:0:0:
370,182,62684,2,0,L|282:188,1,71.5000021820069,0|0,0:0|3:0,0:0:0:0:
66,216,62984,2,0,P|100:205|135:200,1,71.5000021820069,2|0,0:0|0:0,0:0:0:0:
224,275,63284,1,0,3:0:0:0:
154,99,63434,2,0,L|1:104,1,143.000004364014,0|0,0:0|0:0,0:0:0:0:
266,62,63884,70,0,L|297:61,7,17.8750005455017,0|0|0|0|0|0|0|0,3:0|0:0|0:0|0:0|0:0|0:0|0:0|0:0,0:0:0:0:
254,82,64184,2,0,P|248:124|246:169,1,71.5000021820069,2|0,0:0|0:0,0:0:0:0:
342,216,64484,1,0,3:0:0:0:
142,144,64634,1,0,0:0:0:0:
240,295,64784,6,0,L|246:148,1,143.000004364014,0|0,3:0|0:0,0:0:0:0:
357,103,65234,1,0,3:0:0:0:
167,20,65384,2,0,P|179:62|186:107,1,71.5000021820069,2|0,0:0|0:0,0:0:0:0:
137,261,65684,2,0,P|141:209|150:167,1,71.5000021820069,0|0,3:0|0:0,0:0:0:0:
282,104,65984,70,0,P|318:126|226:156,1,214.500006546021,2|0,0:0|0:0,0:0:0:0:
282,72,66584,6,0,P|358:155|249:231,1,250.250007637024,2|0,0:0|0:0,0:0:0:0:
33,284,67184,70,0,P|68:278|120:274,1,65,4|0,0:0|0:0,0:0:0:0:
242,303,67484,1,0,0:0:0:0:
257,308,67559,1,0,0:0:0:0:
272,313,67634,1,8,0:0:0:0:
213,104,67784,2,0,P|206:141|204:196,1,65,8|0,0:0|0:0,0:0:0:0:
184,344,68084,2,0,B|227:342|227:342|274:350|274:350|327:346,1,130,4|0,0:0|0:0,0:0:0:0:
286,151,68534,5,0,0:0:0:0:
393,296,68684,2,0,L|395:331,2,32.5,0|0|8,3:0|0:0|0:0,0:0:0:0:
512,181,68984,2,0,P|476:176|441:173,1,65,8|0,0:0|0:0,0:0:0:0:
318,259,69284,1,0,3:0:0:0:
472,358,69434,1,0,0:0:0:0:
368,186,69584,70,0,P|369:152|374:110,1,65,4|0,0:0|0:0,0:0:0:0:
282,67,69884,2,0,L|276:21,2,32.5,0|0|8,0:0|0:0|0:0,0:0:0:0:
318,259,70184,1,8,0:0:0:0:
463,160,70334,1,0,0:0:0:0:
378,56,70484,2,0,P|373:92|372:122,1,65,4|0,0:0|0:0,0:0:0:0:
157,247,70784,6,0,P|214:237|251:233,2,86.6666666666667,8|2|2,0:0|2:0|2:0,0:0:0:0:
429,89,71384,2,0,P|386:84|343:83,2,86.6666666666667,8|2|2,0:0|2:0|2:0,0:0:0:0:
92,160,71984,70,0,P|125:155|180:153,1,65,4|0,0:0|0:0,0:0:0:0:
261,256,72284,1,0,0:0:0:0:
263,239,72359,1,0,0:0:0:0:
265,223,72434,1,8,0:0:0:0:
405,66,72584,2,0,P|370:74|329:87,1,65,8|0,0:0|0:0,0:0:0:0:
498,250,72884,2,0,L|361:242,1,130,4|0,0:0|0:0,0:0:0:0:
255,61,73334,5,0,0:0:0:0:
209,225,73484,2,0,L|213:264,2,32.5,0|0|8,3:0|0:0|0:0,0:0:0:0:
57,154,73784,2,0,P|95:159|128:169,1,65,8|0,0:0|0:0,0:0:0:0:
290,91,74084,2,0,L|214:94,1,65,0|0,3:0|0:0,0:0:0:0:
330,261,74384,70,0,L|328:292,4,16.25,12|0|0|0|0,0:0|0:0|0:0|0:0|0:0,0:0:0:0:
226,94,74684,2,0,L|221:67,4,16.25,8|0|0|0|0,0:0|0:0|0:0|0:0|0:0,0:0:0:0:
176,225,74984,2,0,L|146:223,4,16.25,8|0|0|0|0,0:0|0:0|0:0|0:0|0:0,0:0:0:0:
353,121,75284,2,0,L|381:118,4,16.25,12|0|0|0|0,0:0|0:0|0:0|0:0|0:0,0:0:0:0:
301,317,75584,6,0,L|295:246,1,65,4|0,0:0|0:0,0:0:0:0:
217,88,75884,2,0,L|214:162,1,68.2499979171754,4|0,0:0|0:0,0:0:0:0:
330,340,76184,2,0,L|325:265,1,71.5000021820069,4|0,0:0|0:0,0:0:0:0:
188,65,76484,2,0,L|183:144,1,74.7500014257431,4|0,0:0|0:0,0:0:0:0:
467,159,76784,70,0,P|391:165|317:168,1,143.000004364014,4|0,0:0|0:0,0:0:0:0:
390,73,77234,1,0,3:0:0:0:
453,252,77384,2,0,P|460:297|464:332,1,71.5000021820069,2|0,0:0|0:0,0:0:0:0:
255,259,77684,2,0,P|293:263|339:272,1,71.5000021820069,0|0,3:0|0:0,0:0:0:0:
455,116,77984,6,0,L|310:109,1,143.000004364014,0|0,0:0|3:0,0:0:0:0:
385,197,78434,1,0,0:0:0:0:
183,268,78584,2,0,B|225:273|225:273|279:265|279:265|333:269,1,143.000004364014,2|0,0:0|3:0,0:0:0:0:
414,339,79034,1,0,0:0:0:0:
307,171,79184,69,0,3:0:0:0:
241,352,79334,1,0,0:0:0:0:
125,196,79484,1,0,0:0:0:0:
231,246,79634,1,0,3:0:0:0:
224,57,79784,2,0,P|214:94|209:144,1,71.5000021820069,2|0,0:0|0:0,0:0:0:0:
355,270,80084,1,0,3:0:0:0:
392,111,80234,1,0,0:0:0:0:
207,211,80384,6,0,L|285:204,1,71.5000021820069,0|0,0:0|0:0,0:0:0:0:
245,108,80684,1,0,3:0:0:0:
355,270,80834,1,0,0:0:0:0:
440,98,80984,2,0,P|452:140|458:181,1,71.5000021820069,2|0,0:0|0:0,0:0:0:0:
345,326,81284,2,0,L|346:348,7,17.8750005455017,0|0|0|0|0|0|0|0,3:0|0:0|0:0|0:0|0:0|0:0|0:0|0:0,0:0:0:0:
344,312,81584,70,0,L|340:165,1,143.000004364014,4|0,0:0|0:0,0:0:0:0:
255,246,82034,1,0,3:0:0:0:
434,182,82184,1,2,0:0:0:0:
259,104,82334,1,0,0:0:0:0:
369,14,82484,2,0,P|374:57|375:107,1,71.5000021820069,0|0,3:0|0:0,0:0:0:0:
116,112,82784,6,0,L|269:103,1,143.000004364014,0|0,0:0|3:0,0:0:0:0:
173,26,83234,1,0,0:0:0:0:
413,43,83384,2,0,P|366:37|330:34,1,71.5000021820069,2|0,0:0|0:0,0:0:0:0:
258,187,83684,1,0,3:0:0:0:
262,207,83759,1,0,0:0:0:0:
266,227,83834,1,0,0:0:0:0:
270,247,83909,1,0,0:0:0:0:
275,267,83984,69,0,3:0:0:0:
165,233,84134,1,0,0:0:0:0:
365,181,84284,1,0,0:0:0:0:
330,349,84434,1,0,3:0:0:0:
277,124,84584,2,0,L|274:281,1,143.000004364014,2|0,0:0|3:0,0:0:0:0:
378,218,85034,1,0,0:0:0:0:
185,143,85184,6,0,P|192:90|201:53,1,71.5000021820069,0|0,0:0|0:0,0:0:0:0:
266,192,85484,1,0,3:0:0:0:
77,129,85634,1,0,0:0:0:0:
143,239,85784,2,0,P|148:280|152:321,1,71.5000021820069,2|0,0:0|0:0,0:0:0:0:
336,200,86084,2,0,P|288:193|253:191,1,71.5000021820069,0|0,3:0|0:0,0:0:0:0:
95,281,86384,70,0,L|239:274,1,130,4|0,0:0|0:0,0:0:0:0:
320,318,86834,1,8,0:0:0:0:
356,118,86984,2,0,P|367:161|369:200,1,65,8|0,0:0|0:0,0:0:0:0:
460,346,87284,2,0,L|466:206,1,130,4|0,0:0|0:0,0:0:0:0:
290,269,87734,5,8,0:0:0:0:
105,231,87884,1,8,0:0:0:0:
226,108,88034,1,0,0:0:0:0:
192,331,88184,2,0,P|188:292|189:257,1,65,8|0,0:0|0:0,0:0:0:0:
375,187,88484,2,0,P|337:182|301:180,1,65,0|0,0:0|0:0,0:0:0:0:
115,89,88784,70,0,P|161:80|195:77,2,65,0|0|0,0:0|0:0|0:0,0:0:0:0:
53,172,89234,1,8,0:0:0:0:
154,351,89384,2,0,B|155:308|155:308|147:260|147:260|146:216,1,130,8|0,0:0|0:0,0:0:0:0:
241,264,89834,1,0,0:0:0:0:
53,172,89984,6,0,P|48:204|48:244,1,65,0|8,0:0|0:0,0:0:0:0:
232,180,90284,1,8,0:0:0:0:
136,64,90434,1,0,0:0:0:0:
328,84,90584,2,0,P|288:87|257:93,1,65,8|0,0:0|0:0,0:0:0:0:
174,278,90884,2,0,L|177:303,7,16.25,0|0|0|0|0|0|0|0,0:0|0:0|0:0|0:0|0:0|0:0|0:0|0:0,0:0:0:0:
169,268,91184,70,0,L|314:275,1,130,4|0,0:0|0:0,0:0:0:0:
386,329,91634,1,8,0:0:0:0:
301,156,91784,2,0,P|339:151|368:149,1,65,8|0,0:0|0:0,0:0:0:0:
169,282,92084,2,0,L|303:273,1,130,4|0,0:0|0:0,0:0:0:0:
243,361,92534,5,8,0:0:0:0:
195,187,92684,1,8,0:0:0:0:
374,215,92834,1,0,0:0:0:0:
303,64,92984,2,0,P|295:103|292:147,1,65,8|0,0:0|0:0,0:0:0:0:
383,331,93284,1,0,0:0:0:0:
380,314,93359,1,0,0:0:0:0:
378,297,93434,1,0,0:0:0:0:
375,280,93509,1,0,0:0:0:0:
371,264,93584,70,0,P|337:268|296:275,2,65,0|0|0,0:0|0:0|0:0,0:0:0:0:
469,296,94034,1,8,0:0:0:0:
325,153,94184,2,0,B|364:149|364:149|420:155|420:155|461:153,1,130,8|8,0:0|0:0,0:0:0:0:
414,57,94634,1,0,0:0:0:0:
384,247,94784,5,0,0:0:0:0:
254,80,94934,1,8,0:0:0:0:
106,219,95084,69,8,0:0:0:0:
317,177,95234,1,0,0:0:0:0:
238,334,95384,70,0,P|294:340|364:343,1,113.75,8|0,0:0|0:0,0:0:0:0:
380,344,95984,69,4,0:0:0:0:
256,192,96134,12,0,100784,0:0:0:0:
