osu file format v14

[General]
AudioFilename: audio.mp3
AudioLeadIn: 0
PreviewTime: 57059
Countdown: 0
SampleSet: Normal
StackLeniency: 0.3
Mode: 0
LetterboxInBreaks: 0
EpilepsyWarning: 1
WidescreenStoryboard: 1

[Editor]
Bookmarks: 19184,28784,38384,47984,57584,76784,86384,95984
DistanceSpacing: 1.6
BeatDivisor: 8
GridSize: 16
TimelineZoom: 4.199998

[Metadata]
Title:Cry Baby
TitleUnicode:Cry Baby
Artist:Antiserum & Mayhem
ArtistUnicode:Antiserum & Mayhem
Creator:Shadren
Version:Hard
Source:
Tags:trap bass 808 cut short verison Hustle Firepower Records twerk scary
BeatmapID:1200994
BeatmapSetID:565136

[Difficulty]
HPDrainRate:5
CircleSize:3.5
OverallDifficulty:7
ApproachRate:8
SliderMultiplier:2.3
SliderTickRate:1

[Events]
//Background and Video events
0,0,"BG.jpg",0,0
//Break Periods
//Storyboard Layer 0 (Background)
//Storyboard Layer 1 (Fail)
//Storyboard Layer 2 (Pass)
//Storyboard Layer 3 (Foreground)
//Storyboard Sound Samples

[TimingPoints]
9584,600,4,1,1,80,1,0
19109,-100,4,1,1,5,0,0
19184,-100,4,1,1,80,0,0
38384,-100,4,1,1,80,0,1
47984,-100,4,1,1,80,0,0
57509,-100,4,1,1,5,0,0
57584,-100,4,1,1,80,0,1
67184,-100,4,1,1,80,0,0
76784,-100,4,1,1,80,0,1
86384,-100,4,1,1,80,0,0
95909,-100,4,1,1,5,0,0
95984,-100,4,1,1,65,0,0
97184,-100,4,1,1,50,0,0
98384,-100,4,1,1,35,0,0
99584,-100,4,1,1,20,0,0
100784,-100,4,1,1,10,0,0

[Colours]
Combo1 : 176,176,255
Combo2 : 166,210,255
Combo3 : 177,177,177
Combo4 : 248,172,97
Combo5 : 230,129,111
Combo6 : 255,255,159

[HitObjects]
58,309,9584,6,0,P|116:303|172:301,1,115,4|0,3:1|0:0,0:0:0:0:
254,343,10034,1,0,0:0:0:0:
331,293,10184,2,0,P|335:250|332:221,1,57.5,8|0,0:0|0:0,0:0:0:0:
241,139,10484,2,0,L|248:265,1,115,4|0,3:1|0:0,0:0:0:0:
331,293,10934,5,8,0:0:0:0:
412,249,11084,2,0,L|477:251,1,57.5,8|0,0:0|0:0,0:0:0:0:
500,164,11384,2,0,L|442:162,1,57.5,8|0,0:0|0:0,0:0:0:0:
408,76,11684,2,0,L|465:77,1,57.5,0|0,0:0|0:0,0:0:0:0:
345,144,11984,70,0,B|309:148|309:148|263:145|263:145|215:149,1,115,8|0,0:0|0:0,0:0:0:0:
141,172,12434,1,8,0:0:0:0:
194,246,12584,2,0,P|201:285|203:315,1,57.5,8|0,0:0|0:0,0:0:0:0:
62,340,12884,2,0,P|61:284|66:217,1,115,8|0,0:0|0:0,0:0:0:0:
141,172,13334,5,8,0:0:0:0:
89,95,13484,2,0,L|23:91,1,57.5,8|0,0:0|0:0,0:0:0:0:
170,51,13784,2,0,L|284:46,1,115,8|0,0:0|0:0,0:0:0:0:
245,230,14384,70,0,P|305:219|371:217,1,115,4|0,3:1|0:0,0:0:0:0:
443,254,14834,1,8,0:0:0:0:
487,173,14984,2,0,L|490:115,1,57.5,8|0,0:0|0:0,0:0:0:0:
365,22,15284,2,0,L|376:143,1,115,4|0,3:1|0:0,0:0:0:0:
325,213,15734,5,8,0:0:0:0:
235,191,15884,2,0,P|199:200|175:212,1,57.5,8|0,0:0|0:0,0:0:0:0:
119,277,16184,2,0,L|49:273,1,57.5,8|0,0:0|0:0,0:0:0:0:
90,361,16484,2,0,L|147:364,1,57.5,0|0,0:0|0:0,0:0:0:0:
336,312,16784,70,0,B|256:318|256:318|208:307,1,115,8|0,0:0|0:0,0:0:0:0:
168,235,17234,1,8,0:0:0:0:
207,152,17384,2,0,L|204:86,1,57.5,8|0,0:0|0:0,0:0:0:0:
319,19,17684,2,0,L|313:139,1,115,8|0,0:0|0:0,0:0:0:0:
266,213,18134,5,8,0:0:0:0:
329,279,18284,2,0,L|389:272,1,57.5,8|0,0:0|0:0,0:0:0:0:
444,201,18584,2,0,P|455:143|346:137,1,201.25,8|0,0:0|0:0,0:0:0:0:
343,158,19184,38,0,L|333:38,1,115,4|0,0:0|0:0,0:0:0:0:
241,33,19634,1,0,3:0:0:0:
171,96,19784,2,0,P|141:102|107:107,1,57.5,2|0,0:0|0:0,0:0:0:0:
46,43,20084,1,4,0:0:0:0:
24,193,20234,6,0,P|77:193|145:198,1,115,2|0,2:0|0:0,0:0:0:0:
208,258,20684,2,0,L|270:253,1,57.5,0|0,3:0|0:0,0:0:0:0:
301,168,20984,2,0,L|243:172,1,57.5,2|0,0:0|0:0,0:0:0:0:
268,83,21284,2,0,L|325:78,1,57.5,0|0,0:0|0:0,0:0:0:0:
413,103,21584,70,0,P|445:97|474:93,2,57.5,4|0|0,0:0|0:0|0:0,0:0:0:0:
383,190,22034,1,0,3:0:0:0:
432,267,22184,2,0,B|437:300|441:333|441:332,1,57.5,2|0,0:0|0:0,0:0:0:0:
364,377,22484,1,4,0:0:0:0:
222,304,22634,6,0,L|353:297,1,115,2|0,2:0|0:0,0:0:0:0:
381,217,23084,1,0,3:0:0:0:
309,158,23234,1,0,0:0:0:0:
376,64,23384,2,0,P|383:97|387:131,1,57.5,2|0,0:0|0:0,0:0:0:0:
381,217,23684,2,0,L|379:254,3,28.75,0|0|0|0,0:0|0:0|0:0|0:0,0:0:0:0:
363,213,23984,70,0,L|238:208,1,115,4|0,0:0|0:0,0:0:0:0:
171,259,24434,1,0,3:0:0:0:
94,207,24584,2,0,B|93:226|94:184|101:149,1,57.5,2|0,0:0|0:0,0:0:0:0:
162,92,24884,1,4,0:0:0:0:
297,170,25034,6,0,L|183:179,1,115,2|0,2:0|0:0,0:0:0:0:
155,267,25484,2,0,P|151:300|151:339,1,57.5,0|0,3:0|0:0,0:0:0:0:
234,361,25784,2,0,P|237:327|238:289,1,57.5,2|0,0:0|0:0,0:0:0:0:
326,277,26084,2,0,L|330:311,3,28.75,0|0|0|0,0:0|0:0|0:0|0:0,0:0:0:0:
323,259,26384,70,0,L|455:263,1,115,4|0,0:0|0:0,0:0:0:0:
469,175,26834,1,0,3:0:0:0:
430,91,26984,2,0,P|395:92|355:98,1,57.5,2|0,0:0|0:0,0:0:0:0:
288,132,27284,1,4,0:0:0:0:
192,39,27434,6,0,B|150:37|150:37|50:48,1,115,2|0,2:0|0:0,0:0:0:0:
30,124,27884,2,0,L|34:197,1,57.5,0|0,3:0|0:0,0:0:0:0:
109,232,28184,2,0,L|103:309,1,57.5,2|0,0:0|0:0,0:0:0:0:
193,332,28484,2,0,L|195:368,3,28.75,0|0|0|0,0:0|0:0|0:0|0:0,0:0:0:0:
188,315,28784,70,0,L|312:313,1,115,4|0,0:0|0:0,0:0:0:0:
379,363,29234,1,8,0:0:0:0:
440,288,29384,2,0,P|443:229|441:154,1,115,8|4,0:0|0:0,0:0:0:0:
272,99,29984,6,0,P|266:142|265:178,2,76.6666666666667,8|2|2,0:0|2:0|2:0,0:0:0:0:
353,190,30584,2,0,P|352:233|342:279,2,76.6666666666667,8|2|2,0:0|2:0|2:0,0:0:0:0:
181,180,31184,70,0,L|188:307,1,115,4|0,0:0|0:0,0:0:0:0:
269,336,31634,1,8,0:0:0:0:
342,280,31784,2,0,L|405:273,1,57.5,8|0,0:0|0:0,0:0:0:0:
510,213,32084,2,0,L|443:207,1,57.5,4|0,0:0|0:0,0:0:0:0:
378,153,32384,6,0,L|372:63,2,76.6666666666667,8|2|2,0:0|2:0|2:0,0:0:0:0:
315,258,32984,2,0,L|309:346,2,76.6666666666667,8|2|0,0:0|2:0|0:0,0:0:0:0:
253,161,33584,70,0,P|193:157|119:155,1,115,4|0,0:0|0:0,0:0:0:0:
61,205,34034,1,8,0:0:0:0:
12,126,34184,2,0,L|14:60,1,57.5,8|0,0:0|0:0,0:0:0:0:
95,25,34484,2,0,L|93:82,1,57.5,4|0,0:0|0:0,0:0:0:0:
205,132,34784,6,0,P|246:120|295:115,2,76.6666666666667,8|2|2,0:0|2:0|2:0,0:0:0:0:
375,168,35384,2,0,P|419:175|467:179,2,76.6666666666667,8|2|0,0:0|2:0|0:0,0:0:0:0:
323,289,35984,70,0,L|190:295,1,115,4|0,0:0|0:0,0:0:0:0:
121,326,36434,1,8,0:0:0:0:
52,264,36584,2,0,P|54:231|60:195,1,57.5,8|0,0:0|0:0,0:0:0:0:
128,148,36884,2,0,P|126:115|120:79,1,57.5,4|0,0:0|0:0,0:0:0:0:
203,47,37184,6,0,P|248:48|292:52,2,76.6666666666667,8|2|2,0:0|2:0|2:0,0:0:0:0:
39,71,37784,69,8,0:0:0:0:
417,214,38384,54,0,P|359:209|282:205,1,115,4|0,0:0|0:0,0:0:0:0:
222,251,38834,1,0,3:0:0:0:
139,209,38984,2,0,P|98:215|66:222,1,57.5,8|0,0:0|0:0,0:0:0:0:
168,116,39284,2,0,P|202:123|228:126,1,57.5,0|0,3:0|0:0,0:0:0:0:
334,47,39584,6,0,L|211:39,1,115,0|0,0:0|3:0,0:0:0:0:
127,32,40034,1,0,0:0:0:0:
169,173,40184,2,0,P|169:138|166:105,1,57.5,8|0,0:0|0:0,0:0:0:0:
97,234,40484,2,0,P|93:274|92:313,1,57.5,0|0,3:0|0:0,0:0:0:0:
232,306,40784,70,0,L|226:377,2,57.5,0|0|0,3:0|0:0|0:0,0:0:0:0:
302,246,41234,1,0,3:0:0:0:
247,171,41384,2,0,B|206:170|206:170|159:176|159:176|115:175,1,115,8|0,0:0|3:0,0:0:0:0:
79,99,41834,1,0,0:0:0:0:
146,36,41984,6,0,L|208:38,1,57.5,0|0,0:0|0:0,0:0:0:0:
295,44,42284,1,0,3:0:0:0:
276,134,42434,1,0,0:0:0:0:
361,169,42584,2,0,P|357:212|356:255,1,57.5,8|0,0:0|0:0,0:0:0:0:
385,313,42884,2,0,L|422:308,3,28.75,0|0|0|0,3:0|0:0|0:0|0:0,0:0:0:0:
377,319,43184,70,0,L|244:313,1,115,4|0,0:0|0:0,0:0:0:0:
172,336,43634,1,0,3:0:0:0:
91,290,43784,2,0,P|54:293|14:300,1,57.5,8|0,0:0|0:0,0:0:0:0:
135,209,44084,2,0,L|132:149,1,57.5,0|0,3:0|0:0,0:0:0:0:
231,250,44384,6,0,L|235:120,1,115,0|0,0:0|3:0,0:0:0:0:
186,56,44834,1,0,0:0:0:0:
271,21,44984,2,0,P|304:17|334:15,1,57.5,8|0,0:0|0:0,0:0:0:0:
415,45,45284,2,0,L|446:39,3,28.75,0|0|0|0,3:0|0:0|0:0|0:0,0:0:0:0:
409,72,45584,70,0,P|405:105|404:146,2,57.5,0|0|0,3:0|0:0|0:0,0:0:0:0:
320,98,46034,1,0,3:0:0:0:
340,187,46184,2,0,L|345:317,1,115,8|0,0:0|3:0,0:0:0:0:
433,278,46634,1,0,0:0:0:0:
252,269,46784,6,0,L|254:149,1,115,0|0,0:0|3:0,0:0:0:0:
162,166,47234,1,0,0:0:0:0:
185,77,47384,2,0,P|217:58|249:49,1,57.5,8|0,0:0|0:0,0:0:0:0:
380,89,47684,2,0,P|336:87|314:86,1,57.5,0|0,3:0|0:0,0:0:0:0:
285,198,47984,70,0,L|408:192,1,115,4|0,0:0|0:0,0:0:0:0:
474,247,48434,1,8,0:0:0:0:
494,158,48584,2,0,L|496:86,1,57.5,8|0,0:0|0:0,0:0:0:0:
392,77,48884,6,0,L|400:197,1,115,4|0,0:0|0:0,0:0:0:0:
338,251,49334,1,8,0:0:0:0:
249,225,49484,2,0,P|219:223|171:224,1,57.5,8|0,0:0|0:0,0:0:0:0:
101,307,49784,2,0,B|141:304|141:304|184:308|184:308|224:302,1,115,8|0,0:0|0:0,0:0:0:0:
301,336,50234,1,0,0:0:0:0:
366,271,50384,70,0,P|397:264|428:261,2,57.5,0|0|0,0:0|0:0|0:0,0:0:0:0:
287,221,50834,1,8,0:0:0:0:
201,187,50984,2,0,P|127:182|70:181,1,115,8|0,0:0|0:0,0:0:0:0:
6,227,51434,1,0,0:0:0:0:
50,92,51584,6,0,L|112:85,1,57.5,0|8,0:0|0:0,0:0:0:0:
243,43,51884,2,0,L|182:38,1,57.5,8|0,0:0|0:0,0:0:0:0:
281,134,52184,2,0,L|220:129,1,57.5,8|0,0:0|0:0,0:0:0:0:
155,192,52484,2,0,L|120:195,3,28.75,0|0|0|0,0:0|0:0|0:0|0:0,0:0:0:0:
163,200,52784,70,0,L|158:319,1,115,4|0,0:0|0:0,0:0:0:0:
244,345,53234,1,8,0:0:0:0:
317,290,53384,2,0,P|349:284|386:281,1,57.5,8|0,0:0|0:0,0:0:0:0:
460,201,53684,6,0,B|418:204|418:204|377:201|377:201|328:204,1,115,4|0,0:0|0:0,0:0:0:0:
270,148,54134,1,8,0:0:0:0:
186,187,54284,2,0,L|123:194,1,57.5,8|0,0:0|0:0,0:0:0:0:
75,118,54584,2,0,L|132:111,1,57.5,8|0,0:0|0:0,0:0:0:0:
208,59,54884,2,0,L|202:21,3,28.75,0|0|0|0,0:0|0:0|0:0|0:0,0:0:0:0:
218,74,55184,70,0,P|250:71|296:69,2,57.5,0|0|0,0:0|0:0|0:0,0:0:0:0:
200,164,55634,1,8,0:0:0:0:
265,229,55784,2,0,P|273:288|277:361,1,115,8|0,0:0|0:0,0:0:0:0:
186,362,56234,1,0,0:0:0:0:
108,312,56384,2,0,L|29:316,1,57.5,0|8,0:0|0:0,0:0:0:0:
170,250,56684,2,0,L|242:256,1,57.5,8|0,0:0|0:0,0:0:0:0:
64,169,56984,70,0,P|155:170|272:181,1,201.25,8|0,0:0|0:0,0:0:0:0:
296,193,57584,22,0,B|303:154|303:154|293:64,1,115,4|0,0:0|0:0,0:0:0:0:
206,51,58034,1,0,3:0:0:0:
119,82,58184,2,0,P|74:86|46:90,1,57.5,2|0,0:0|0:0,0:0:0:0:
27,173,58484,1,0,3:0:0:0:
64,256,58634,70,0,B|103:260|103:260|199:253,1,115,0|0,0:0|0:0,0:0:0:0:
244,201,59084,2,0,L|239:164,3,28.75,0|0|0|0,3:0|0:0|0:0|0:0,0:0:0:0:
252,213,59384,2,0,L|375:210,1,115,2|0,0:0|3:0,0:0:0:0:
448,169,59834,1,0,0:0:0:0:
377,59,59984,6,0,P|313:56|248:57,1,115,0|0,3:0|0:0,0:0:0:0:
172,80,60434,1,0,3:0:0:0:
223,156,60584,2,0,P|227:189|228:223,1,57.5,2|0,0:0|0:0,0:0:0:0:
316,188,60884,1,0,3:0:0:0:
299,278,61034,70,0,P|245:307|179:297,1,115,0|0,0:0|0:0,0:0:0:0:
111,258,61484,1,0,3:0:0:0:
91,168,61634,1,0,0:0:0:0:
177,202,61784,2,0,P|174:133|168:75,1,115,2|0,0:0|3:0,0:0:0:0:
88,42,62234,1,0,0:0:0:0:
18,165,62384,6,0,B|13:206|13:206|21:300,1,115,4|0,0:0|0:0,0:0:0:0:
98,328,62834,1,0,3:0:0:0:
179,285,62984,2,0,P|212:282|245:281,1,57.5,2|0,0:0|0:0,0:0:0:0:
319,319,63284,1,0,3:0:0:0:
410,233,63434,70,0,P|409:168|405:100,1,115,0|0,0:0|0:0,0:0:0:0:
338,55,63884,2,0,L|341:20,3,28.75,0|0|0|0,3:0|0:0|0:0|0:0,0:0:0:0:
331,62,64184,2,0,P|272:58|204:58,1,115,2|0,0:0|3:0,0:0:0:0:
125,75,64634,1,0,0:0:0:0:
154,214,64784,6,0,B|157:251|157:251|148:342,1,115,0|0,3:0|0:0,0:0:0:0:
58,344,65234,1,0,3:0:0:0:
6,267,65384,2,0,L|12:202,1,57.5,2|0,0:0|0:0,0:0:0:0:
71,139,65684,2,0,L|68:71,1,57.5,0|0,3:0|0:0,0:0:0:0:
148,36,65984,70,0,P|212:33|179:130,1,172.5,2|0,0:0|0:0,0:0:0:0:
133,170,66584,2,0,B|236:161|328:157,1,172.5,2|0,0:0|0:0,0:0:0:0:
450,245,67184,6,0,L|315:240,1,115,4|0,0:0|0:0,0:0:0:0:
274,310,67634,1,8,0:0:0:0:
192,268,67784,2,0,P|158:272|133:277,1,57.5,8|0,0:0|0:0,0:0:0:0:
54,320,68084,1,4,0:0:0:0:
9,207,68234,70,0,P|10:151|23:70,1,115,0|0,0:0|0:0,0:0:0:0:
98,47,68684,1,0,3:0:0:0:
171,102,68834,1,8,0:0:0:0:
244,48,68984,2,0,L|317:47,1,57.5,8|0,0:0|0:0,0:0:0:0:
315,138,69284,2,0,L|257:138,1,57.5,0|0,3:0|0:0,0:0:0:0:
171,102,69584,6,0,P|116:102|44:106,1,115,4|0,0:0|0:0,0:0:0:0:
6,183,70034,1,8,0:0:0:0:
89,221,70184,2,0,P|92:254|93:281,1,57.5,8|0,0:0|0:0,0:0:0:0:
178,352,70484,2,0,L|185:286,1,57.5,4|0,0:0|0:0,0:0:0:0:
252,232,70784,70,0,P|296:233|337:242,2,76.6666666666667,8|2|2,0:0|2:0|2:0,0:0:0:0:
144,172,71384,2,0,P|101:182|63:186,2,76.6666666666667,8|2|2,0:0|2:0|2:0,0:0:0:0:
276,85,71984,6,0,L|408:90,1,115,4|0,0:0|0:0,0:0:0:0:
475,54,72434,1,8,0:0:0:0:
496,143,72584,2,0,P|501:175|505:206,1,57.5,8|0,0:0|0:0,0:0:0:0:
443,269,72884,1,4,0:0:0:0:
328,216,73034,70,0,B|288:211|288:211|251:215|251:215|205:212,1,115,0|0,0:0|0:0,0:0:0:0:
129,250,73484,1,0,3:0:0:0:
57,192,73634,1,8,0:0:0:0:
144,158,73784,2,0,L|150:97,1,57.5,8|0,0:0|0:0,0:0:0:0:
228,52,74084,1,0,3:0:0:0:
310,92,74234,1,0,0:0:0:0:
385,38,74384,6,0,L|423:34,2,28.75,12|0|0,0:0|0:0|0:0,0:0:0:0:
398,129,74684,2,0,L|435:123,2,28.75,8|0|0,0:0|0:0|0:0,0:0:0:0:
411,220,74984,2,0,L|444:216,2,28.75,8|0|0,0:0|0:0|0:0,0:0:0:0:
424,311,75284,2,0,L|454:307,2,28.75,12|0|0,0:0|0:0|0:0,0:0:0:0:
337,341,75584,70,0,L|259:335,1,57.5,4|0,0:0|0:0,0:0:0:0:
247,249,75884,2,0,L|304:253,1,57.5,4|0,0:0|0:0,0:0:0:0:
279,164,76184,2,0,L|201:158,1,57.5,4|0,0:0|0:0,0:0:0:0:
189,72,76484,2,0,L|246:76,1,57.5,4|0,0:0|0:0,0:0:0:0:
333,44,76784,6,0,P|395:37|458:36,1,115,4|0,0:0|0:0,0:0:0:0:
501,110,77234,1,0,3:0:0:0:
452,187,77384,2,0,P|446:225|444:261,1,57.5,2|0,0:0|0:0,0:0:0:0:
371,338,77684,2,0,P|366:305|357:273,1,57.5,0|0,3:0|0:0,0:0:0:0:
256,213,77984,70,0,L|125:218,1,115,0|0,0:0|3:0,0:0:0:0:
67,273,78434,1,0,0:0:0:0:
13,197,78584,2,0,L|18:133,1,57.5,2|0,0:0|0:0,0:0:0:0:
94,43,78884,2,0,L|97:105,1,57.5,0|0,3:0|0:0,0:0:0:0:
184,126,79184,6,0,P|215:119|255:115,2,57.5,0|0|0,3:0|0:0|0:0,0:0:0:0:
143,209,79634,1,0,3:0:0:0:
184,290,79784,2,0,B|223:296|223:296|308:286,1,115,2|0,0:0|3:0,0:0:0:0:
387,263,80234,1,0,0:0:0:0:
452,198,80384,70,0,P|452:124|445:55,1,115,0|0,0:0|3:0,0:0:0:0:
367,39,80834,1,0,0:0:0:0:
283,77,80984,2,0,L|286:145,1,57.5,2|0,0:0|0:0,0:0:0:0:
327,216,81284,2,0,L|362:211,3,28.75,0|0|0|0,3:0|0:0|0:0|0:0,0:0:0:0:
320,223,81584,6,0,L|196:218,1,115,4|0,0:0|0:0,0:0:0:0:
117,187,82034,1,0,3:0:0:0:
32,223,82184,2,0,P|25:258|27:286,1,57.5,2|0,0:0|0:0,0:0:0:0:
106,325,82484,2,0,P|112:289|112:264,1,57.5,0|0,3:0|0:0,0:0:0:0:
59,127,82784,70,0,L|192:118,1,115,0|0,0:0|3:0,0:0:0:0:
255,74,83234,1,0,0:0:0:0:
340,108,83384,2,0,B|347:141|347:186,1,57.5,2|0,0:0|0:0,0:0:0:0:
329,255,83684,2,0,L|333:293,3,28.75,0|0|0|0,3:0|0:0|0:0|0:0,0:0:0:0:
315,240,83984,6,0,P|280:243|241:249,2,57.5,0|0|0,3:0|0:0|0:0,0:0:0:0:
407,235,84434,1,0,3:0:0:0:
469,167,84584,2,0,B|470:131|470:131|461:83|461:83|463:37,1,115,2|0,0:0|3:0,0:0:0:0:
374,25,85034,1,0,0:0:0:0:
265,129,85184,70,0,B|226:136|226:136|141:130,1,115,0|0,0:0|3:0,0:0:0:0:
58,124,85634,1,0,0:0:0:0:
73,214,85784,2,0,P|75:251|74:283,1,57.5,2|0,0:0|0:0,0:0:0:0:
151,356,86084,2,0,L|157:286,1,57.5,0|0,3:0|0:0,0:0:0:0:
229,194,86384,6,0,P|283:191|359:192,1,115,4|0,0:0|0:0,0:0:0:0:
429,225,86834,1,8,0:0:0:0:
482,150,86984,2,0,L|486:89,1,57.5,8|0,0:0|0:0,0:0:0:0:
378,5,87284,2,0,L|387:129,1,115,4|0,0:0|0:0,0:0:0:0:
350,205,87734,69,8,0:0:0:0:
261,178,87884,2,0,B|217:184|181:196,1,57.5,8|0,0:0|0:0,0:0:0:0:
141,256,88184,2,0,L|20:250,1,115,8|0,0:0|0:0,0:0:0:0:
67,167,88634,1,0,0:0:0:0:
200,86,88784,6,0,P|197:54|189:13,2,57.5,0|0|0,0:0|0:0|0:0,0:0:0:0:
177,175,89234,1,8,0:0:0:0:
251,229,89384,2,0,P|314:237|391:238,1,115,8|0,0:0|0:0,0:0:0:0:
445,194,89834,1,0,0:0:0:0:
407,109,89984,70,0,P|412:72|423:39,2,57.5,0|8|8,0:0|0:0|0:0,0:0:0:0:
445,194,90434,1,0,0:0:0:0:
394,271,90584,2,0,P|363:278|312:282,1,57.5,8|0,0:0|0:0,0:0:0:0:
258,233,90884,2,0,L|222:226,3,28.75,0|0|0|0,0:0|0:0|0:0|0:0,0:0:0:0:
265,238,91184,6,0,L|262:119,1,115,4|0,0:0|0:0,0:0:0:0:
189,67,91634,1,8,0:0:0:0:
98,52,91784,2,0,P|66:56|29:64,1,57.5,8|0,0:0|0:0,0:0:0:0:
178,161,92084,2,0,L|58:156,1,115,4|0,0:0|0:0,0:0:0:0:
21,238,92534,69,8,0:0:0:0:
96,289,92684,2,0,B|99:317|101:353|103:353,1,57.5,8|0,0:0|0:0,0:0:0:0:
180,257,92984,2,0,P|183:231|189:193,1,57.5,8|0,0:0|0:0,0:0:0:0:
268,156,93284,2,0,L|266:121,3,28.75,0|0|0|0,0:0|0:0|0:0|0:0,0:0:0:0:
270,173,93584,6,0,L|342:168,2,57.5,0|0|0,0:0|0:0|0:0,0:0:0:0:
182,143,94034,1,8,0:0:0:0:
114,205,94184,2,0,P|115:263|121:338,1,115,8|8,0:0|0:0,0:0:0:0:
207,345,94634,1,0,0:0:0:0:
320,277,94784,70,0,B|325:236|325:236|313:138,1,115,0|8,0:0|0:0,0:0:0:0:
229,130,95234,1,0,0:0:0:0:
291,62,95384,2,0,B|346:57|346:57|383:71|446:57|446:57|434:88|439:125,1,201.25,8|0,0:0|0:0,0:0:0:0:
435,127,95984,69,4,0:0:0:0:
256,192,96059,12,0,100784,0:0:0:0:
